  0
SECTION
  2
HEADER
  9
$ACADVER
  1
AC1009
  9
$INSBASE
 10
0.0
 20
0.0
 30
0.0
  9
$EXTMIN
 10
-904.161041
 20
-457.11015
 30
-0.001526
  9
$EXTMAX
 10
955.146931
 20
452.734909
 30
0.0
  9
$LIMMIN
 10
-904.161041
 20
-457.11015
  9
$LIMMAX
 10
955.146931
 20
452.734909
  9
$ORTHOMODE
 70
     1
  9
$REGENMODE
 70
     1
  9
$FILLMODE
 70
     1
  9
$QTEXTMODE
 70
     0
  9
$MIRRTEXT
 70
     0
  9
$DRAGMODE
 70
     2
  9
$LTSCALE
 40
50.0
  9
$OSMODE
 70
     7
  9
$ATTMODE
 70
     1
  9
$TEXTSIZE
 40
200.0
  9
$TRACEWID
 40
1.0
  9
$TEXTSTYLE
  7
STANDARD
  9
$CLAYER
  8
TEAM-MAS
  9
$CELTYPE
  6
BYLAYER
  9
$CECOLOR
 62
   256
  9
$DIMSCALE
 40
0.0
  9
$DIMASZ
 40
20.0
  9
$DIMEXO
 40
10.0
  9
$DIMDLI
 40
1.0
  9
$DIMRND
 40
0.0
  9
$DIMDLE
 40
0.0
  9
$DIMEXE
 40
1.0
  9
$DIMTP
 40
0.0
  9
$DIMTM
 40
0.0
  9
$DIMTXT
 40
35.0
  9
$DIMCEN
 40
1.0
  9
$DIMTSZ
 40
0.0
  9
$DIMTOL
 70
     0
  9
$DIMLIM
 70
     0
  9
$DIMTIH
 70
     0
  9
$DIMTOH
 70
     0
  9
$DIMSE1
 70
     0
  9
$DIMSE2
 70
     0
  9
$DIMTAD
 70
     0
  9
$DIMZIN
 70
     0
  9
$DIMBLK
  1

  9
$DIMASO
 70
     1
  9
$DIMSHO
 70
     0
  9
$DIMPOST
  1

  9
$DIMAPOST
  1

  9
$DIMALT
 70
     0
  9
$DIMALTD
 70
     2
  9
$DIMALTF
 40
25.4
  9
$DIMLFAC
 40
1.0
  9
$DIMTOFL
 70
     0
  9
$DIMTVP
 40
0.0
  9
$DIMTIX
 70
     0
  9
$DIMSOXD
 70
     0
  9
$DIMSAH
 70
     0
  9
$DIMBLK1
  1

  9
$DIMBLK2
  1

  9
$DIMSTYLE
  2
TEAM
  9
$DIMCLRD
 70
     9
  9
$DIMCLRE
 70
     9
  9
$DIMCLRT
 70
    11
  9
$DIMTFAC
 40
1.0
  9
$DIMGAP
 40
7.0
  9
$LUNITS
 70
     2
  9
$LUPREC
 70
     1
  9
$SKETCHINC
 40
1.0
  9
$FILLETRAD
 40
5.0
  9
$AUNITS
 70
     0
  9
$AUPREC
 70
     0
  9
$MENU
  1
ROPLANS
  9
$ELEVATION
 40
0.0
  9
$PELEVATION
 40
0.0
  9
$THICKNESS
 40
0.0
  9
$LIMCHECK
 70
     0
  9
$BLIPMODE
 70
     1
  9
$CHAMFERA
 40
0.0
  9
$CHAMFERB
 40
0.0
  9
$SKPOLY
 70
     0
  9
$TDCREATE
 40
2450392.957851
  9
$TDUPDATE
 40
2455944.698999
  9
$TDINDWG
 40
3.037655
  9
$TDUSRTIMER
 40
3.037655
  9
$USRTIMER
 70
     1
  9
$ANGBASE
 50
0.0
  9
$ANGDIR
 70
     0
  9
$PDMODE
 70
     0
  9
$PDSIZE
 40
0.0
  9
$PLINEWID
 40
0.0
  9
$COORDS
 70
     2
  9
$SPLFRAME
 70
     0
  9
$SPLINETYPE
 70
     6
  9
$SPLINESEGS
 70
     8
  9
$ATTDIA
 70
     0
  9
$ATTREQ
 70
     0
  9
$HANDLING
 70
     1
  9
$HANDSEED
  5
F6
  9
$SURFTAB1
 70
    24
  9
$SURFTAB2
 70
    24
  9
$SURFTYPE
 70
     6
  9
$SURFU
 70
     6
  9
$SURFV
 70
     6
  9
$UCSNAME
  2

  9
$UCSORG
 10
0.0
 20
0.0
 30
0.0
  9
$UCSXDIR
 10
1.0
 20
0.0
 30
0.0
  9
$UCSYDIR
 10
0.0
 20
1.0
 30
0.0
  9
$PUCSNAME
  2

  9
$PUCSORG
 10
0.0
 20
0.0
 30
0.0
  9
$PUCSXDIR
 10
1.0
 20
0.0
 30
0.0
  9
$PUCSYDIR
 10
0.0
 20
1.0
 30
0.0
  9
$USERI1
 70
     0
  9
$USERI2
 70
     0
  9
$USERI3
 70
     0
  9
$USERI4
 70
     0
  9
$USERI5
 70
     0
  9
$USERR1
 40
0.0
  9
$USERR2
 40
0.0
  9
$USERR3
 40
0.0
  9
$USERR4
 40
0.0
  9
$USERR5
 40
0.0
  9
$WORLDVIEW
 70
     1
  9
$SHADEDGE
 70
     0
  9
$SHADEDIF
 70
    70
  9
$TILEMODE
 70
     1
  9
$MAXACTVP
 70
    16
  9
$PLIMCHECK
 70
     0
  9
$PEXTMIN
 10
-0.805942
 20
0.005011
 30
0.0
  9
$PEXTMAX
 10
20.250094
 20
11.356329
 30
0.0
  9
$PLIMMIN
 10
0.0
 20
0.0
  9
$PLIMMAX
 10
12.0
 20
9.0
  9
$UNITMODE
 70
     0
  9
$VISRETAIN
 70
     0
  9
$PLINEGEN
 70
     0
  9
$PSLTSCALE
 70
     0
  0
ENDSEC
  0
SECTION
  2
TABLES
  0
TABLE
  2
VPORT
 70
     2
  0
VPORT
  2
*ACTIVE
 70
     0
 10
0.0
 20
0.0
 11
1.0
 21
1.0
 12
25.492945
 22
-2.187621
 13
0.0
 23
0.0
 14
1.0
 24
1.0
 15
20.0
 25
20.0
 16
0.0
 26
0.0
 36
1.0
 17
0.0
 27
0.0
 37
0.0
 40
979.863837
 41
1.903766
 42
50.0
 43
0.0
 44
0.0
 50
0.0
 51
0.0
 71
     0
 72
   100
 73
     1
 74
     1
 75
     0
 76
     0
 77
     0
 78
     0
  0
ENDTAB
  0
TABLE
  2
LTYPE
 70
     3
  0
LTYPE
  2
CONTINUOUS
 70
     0
  3
Solid Line
 72
    65
 73
     0
 40
0.0
  0
LTYPE
  2
31
 70
     0
  3

 72
    65
 73
     4
 40
2.1
 49
1.5
 49
-0.3
 49
0.0
 49
-0.3
  0
LTYPE
  2
22
 70
     0
  3

 72
    65
 73
     2
 40
1.4
 49
1.2
 49
-0.2
  0
ENDTAB
  0
TABLE
  2
LAYER
 70
     9
  0
LAYER
  2
0
 70
     0
 62
     7
  6
CONTINUOUS
  0
LAYER
  2
DEFPOINTS
 70
     0
 62
     7
  6
CONTINUOUS
  0
LAYER
  2
TEAM-BODY
 70
     0
 62
     2
  6
CONTINUOUS
  0
LAYER
  2
TEAM-AXE
 70
     0
 62
    10
  6
31
  0
LAYER
  2
TEAM-MAS
 70
     0
 62
     9
  6
CONTINUOUS
  0
LAYER
  2
TEAM-TXT
 70
     0
 62
    11
  6
CONTINUOUS
  0
LAYER
  2
TEAM-DET1
 70
     0
 62
     4
  6
CONTINUOUS
  0
LAYER
  2
TEAM-HIDE
 70
     0
 62
     8
  6
22
  0
LAYER
  2
TEAM-INSP
 70
     0
 62
     5
  6
CONTINUOUS
  0
ENDTAB
  0
TABLE
  2
STYLE
 70
     2
  0
STYLE
  2
STANDARD
 70
     0
 40
0.0
 41
1.0
 50
0.0
 71
     0
 42
200.0
  3
txt
  4

  0
STYLE
  2
TEAM
 70
     0
 40
0.0
 41
0.8
 50
15.0
 71
     0
 42
7.0
  3
ROMANS.shx
  4

  0
ENDTAB
  0
TABLE
  2
VIEW
 70
     0
  0
ENDTAB
  0
TABLE
  2
UCS
 70
     0
  0
ENDTAB
  0
TABLE
  2
APPID
 70
     1
  0
APPID
  2
ACAD
 70
     0
  0
ENDTAB
  0
TABLE
  2
DIMSTYLE
 70
     1
  0
DIMSTYLE
  2
TEAM
 70
     0
  3

  4

  5

  6

  7

 40
0.0
 41
20.0
 42
10.0
 43
1.0
 44
1.0
 45
0.0
 46
0.0
 47
0.0
 48
0.0
140
35.0
141
1.0
142
0.0
143
25.4
144
1.0
145
0.0
146
1.0
147
7.0
 71
     0
 72
     0
 73
     0
 74
     0
 75
     0
 76
     0
 77
     0
 78
     0
170
     0
171
     2
172
     0
173
     0
174
     0
175
     0
176
     9
177
     9
178
    11
  0
ENDTAB
  0
ENDSEC
  0
SECTION
  2
BLOCKS
  0
BLOCK
  8
0
  2
$MODEL_SPACE
 70
     0
 10
0.0
 20
0.0
 30
0.0
  3
$MODEL_SPACE
  1

  0
ENDBLK
  5
DE
  8
0
  0
BLOCK
 67
     1
  8
0
  2
$PAPER_SPACE
 70
     0
 10
0.0
 20
0.0
 30
0.0
  3
$PAPER_SPACE
  1

  0
ENDBLK
  5
DC
 67
     1
  8
0
  0
BLOCK
  8
0
  2
*D0
 70
     1
 10
0.0
 20
0.0
 30
0.0
  3
*D0
  1

  0
LINE
  5
22
  8
0
  6
BYBLOCK
 62
     9
 10
7100.0
 20
235610.0
 30
0.0
 11
7100.0
 21
235559.417612
 31
0.0
  0
LINE
  5
23
  8
0
  6
BYBLOCK
 62
     9
 10
8900.0
 20
235610.0
 30
0.0
 11
8900.0
 21
235559.417612
 31
0.0
  0
LINE
  5
24
  8
0
  6
BYBLOCK
 62
     9
 10
7120.0
 20
235560.417612
 30
0.0
 11
7940.5
 21
235560.417612
 31
0.0
  0
LINE
  5
25
  8
0
  6
BYBLOCK
 62
     9
 10
8880.0
 20
235560.417612
 30
0.0
 11
8059.5
 21
235560.417612
 31
0.0
  0
SOLID
  5
26
  8
0
  6
BYBLOCK
 62
     9
 10
7120.0
 20
235563.750945
 30
0.0
 11
7120.0
 21
235557.084279
 31
0.0
 12
7100.0
 22
235560.417612
 32
0.0
 13
7100.0
 23
235560.417612
 33
0.0
  0
SOLID
  5
27
  8
0
  6
BYBLOCK
 62
     9
 10
8880.0
 20
235563.750945
 30
0.0
 11
8880.0
 21
235557.084279
 31
0.0
 12
8900.0
 22
235560.417612
 32
0.0
 13
8900.0
 23
235560.417612
 33
0.0
  0
TEXT
  5
28
  8
0
  6
BYBLOCK
 62
    11
 10
7947.5
 20
235542.917612
 30
0.0
 40
35.0
  1
1800
  0
POINT
  5
29
  8
DEFPOINTS
  6
BYBLOCK
 62
     0
 10
7100.0
 20
235620.0
 30
0.0
  0
POINT
  5
2B
  8
DEFPOINTS
  6
BYBLOCK
 62
     0
 10
8900.0
 20
235620.0
 30
0.0
  0
POINT
  5
2C
  8
DEFPOINTS
  6
BYBLOCK
 62
     0
 10
8900.0
 20
235560.417612
 30
0.0
  0
ENDBLK
  5
2E
  8
0
  0
BLOCK
  8
0
  2
*D1
 70
     1
 10
0.0
 20
0.0
 30
0.0
  3
*D1
  1

  0
LINE
  5
4F
  8
0
  6
BYBLOCK
 62
     9
 10
8890.0
 20
236400.0
 30
0.0
 11
8938.590313
 21
236400.0
 31
0.0
  0
LINE
  5
50
  8
0
  6
BYBLOCK
 62
     9
 10
8890.0
 20
235600.0
 30
0.0
 11
8938.590313
 21
235600.0
 31
0.0
  0
LINE
  5
51
  8
0
  6
BYBLOCK
 62
     9
 10
8937.590313
 20
236380.0
 30
0.0
 11
8937.590313
 21
236047.833333
 31
0.0
  0
LINE
  5
52
  8
0
  6
BYBLOCK
 62
     9
 10
8937.590313
 20
235620.0
 30
0.0
 11
8937.590313
 21
235952.166667
 31
0.0
  0
SOLID
  5
53
  8
0
  6
BYBLOCK
 62
     9
 10
8934.25698
 20
236380.0
 30
0.0
 11
8940.923647
 21
236380.0
 31
0.0
 12
8937.590313
 22
236400.0
 32
0.0
 13
8937.590313
 23
236400.0
 33
0.0
  0
SOLID
  5
54
  8
0
  6
BYBLOCK
 62
     9
 10
8934.25698
 20
235620.0
 30
0.0
 11
8940.923647
 21
235620.0
 31
0.0
 12
8937.590313
 22
235600.0
 32
0.0
 13
8937.590313
 23
235600.0
 33
0.0
  0
TEXT
  5
55
  8
0
  6
BYBLOCK
 62
    11
 10
8955.090313
 20
235959.166667
 30
0.0
 40
35.0
  1
800
 50
90.0
  0
POINT
  5
56
  8
DEFPOINTS
  6
BYBLOCK
 62
     0
 10
8880.0
 20
236400.0
 30
0.0
  0
POINT
  5
57
  8
DEFPOINTS
  6
BYBLOCK
 62
     0
 10
8880.0
 20
235600.0
 30
0.0
  0
POINT
  5
58
  8
DEFPOINTS
  6
BYBLOCK
 62
     0
 10
8937.590313
 20
235600.0
 30
0.0
  0
ENDBLK
  5
5A
  8
0
  0
BLOCK
  8
0
  2
*D2
 70
     1
 10
0.0
 20
0.0
 30
0.0
  3
*D2
  1

  0
LINE
  5
41
  8
0
  6
BYBLOCK
 62
     9
 10
8565.0
 20
236010.0
 30
0.0
 11
8565.0
 21
236436.207142
 31
0.0
  0
LINE
  5
42
  8
0
  6
BYBLOCK
 62
     9
 10
8900.0
 20
236390.0
 30
0.0
 11
8900.0
 21
236436.207142
 31
0.0
  0
LINE
  5
43
  8
0
  6
BYBLOCK
 62
     9
 10
8585.0
 20
236435.207142
 30
0.0
 11
8678.833333
 21
236435.207142
 31
0.0
  0
LINE
  5
44
  8
0
  6
BYBLOCK
 62
     9
 10
8880.0
 20
236435.207142
 30
0.0
 11
8786.166667
 21
236435.207142
 31
0.0
  0
SOLID
  5
45
  8
0
  6
BYBLOCK
 62
     9
 10
8585.0
 20
236438.540475
 30
0.0
 11
8585.0
 21
236431.873809
 31
0.0
 12
8565.0
 22
236435.207142
 32
0.0
 13
8565.0
 23
236435.207142
 33
0.0
  0
SOLID
  5
46
  8
0
  6
BYBLOCK
 62
     9
 10
8880.0
 20
236438.540475
 30
0.0
 11
8880.0
 21
236431.873809
 31
0.0
 12
8900.0
 22
236435.207142
 32
0.0
 13
8900.0
 23
236435.207142
 33
0.0
  0
TEXT
  5
47
  8
0
  6
BYBLOCK
 62
    11
 10
8685.833333
 20
236417.707142
 30
0.0
 40
35.0
  1
335
  0
POINT
  5
48
  8
DEFPOINTS
  6
BYBLOCK
 62
     0
 10
8565.0
 20
236000.0
 30
0.0
  0
POINT
  5
49
  8
DEFPOINTS
  6
BYBLOCK
 62
     0
 10
8900.0
 20
236380.0
 30
0.0
  0
POINT
  5
4A
  8
DEFPOINTS
  6
BYBLOCK
 62
     0
 10
8900.0
 20
236435.207142
 30
0.0
  0
ENDBLK
  5
4C
  8
0
  0
ENDSEC
  0
SECTION
  2
ENTITIES
  0
DIMENSION
  5
20
  8
TEAM-MAS
  2
*D0
 10
900.0
 20
-439.582388
 30
0.0
 11
0.0
 21
-439.582388
 31
0.0
 12
-8000.0
 22
-236000.0
 32
0.0
 13
-900.0
 23
-380.0
 33
0.0
 14
900.0
 24
-380.0
 34
0.0
  0
TEXT
  5
2F
  8
TEAM-TXT
 10
-893.526225
 20
361.006772
 30
0.0
 40
30.0
  1
team 111 316
 41
0.7
 51
15.0
  7
TEAM
  0
ARC
  5
32
  8
TEAM-BODY
 10
-681.89262
 20
198.066015
 30
0.0
 40
150.0
 50
85.414421
 51
167.692971
  0
ARC
  5
34
  8
TEAM-BODY
 10
-681.89262
 20
-198.066015
 30
0.0
 40
150.0
 50
192.307029
 51
274.585579
  0
LINE
  5
35
  8
TEAM-AXE
 10
-900.0
 20
0.0
 30
0.0
 11
900.0
 21
0.0
 31
0.0
  0
LINE
  5
38
  8
TEAM-BODY
 10
-880.0
 20
-400.0
 30
0.0
 11
880.0
 21
-400.0
 31
0.0
  0
LINE
  5
39
  8
TEAM-BODY
 10
880.0
 20
400.0
 30
0.0
 11
-880.0
 21
400.0
 31
0.0
  0
LINE
  5
3A
  8
TEAM-BODY
 10
-900.0
 20
380.0
 30
0.0
 11
-900.0
 21
-380.0
 31
0.0
  0
ARC
  5
3B
  8
TEAM-BODY
 10
103.781579
 20
-26.660371
 30
0.0
 40
954.154116
 50
178.398869
 51
192.307029
  0
ARC
  5
3C
  8
TEAM-BODY
 10
103.781579
 20
26.660371
 30
0.0
 40
954.154116
 50
167.692971
 51
181.601131
  0
ARC
  5
3D
  8
TEAM-BODY
 10
-880.0
 20
-380.0
 30
0.0
 40
20.0
 50
180.0
 51
270.0
  0
ARC
  5
3E
  8
TEAM-BODY
 10
-880.0
 20
380.0
 30
0.0
 40
20.0
 50
90.0
 51
180.0
  0
DIMENSION
  5
3F
  8
TEAM-MAS
  2
*D2
 10
900.0
 20
435.207142
 30
0.0
 11
732.5
 21
435.207142
 31
0.0
 12
-8000.0
 22
-236000.0
 32
0.0
 13
565.0
 23
0.0
 33
0.0
 14
900.0
 24
380.0
 34
0.0
  0
DIMENSION
  5
4D
  8
TEAM-MAS
  2
*D1
 10
937.590313
 20
-400.0
 30
0.0
 11
937.590313
 21
0.0
 31
0.0
 12
-8000.0
 22
-236000.0
 32
0.0
 13
880.0
 23
400.0
 33
0.0
 14
880.0
 24
-400.0
 34
0.0
 50
90.0
  0
LINE
  5
5B
  8
TEAM-BODY
 10
900.0
 20
-380.0
 30
0.0
 11
900.0
 21
380.0
 31
0.0
  0
LINE
  5
5C
  8
TEAM-DET1
 10
691.694862
 20
300.0
 30
0.0
 11
94.904226
 21
300.0
 31
0.0
  0
LINE
  5
5E
  8
TEAM-BODY
 10
691.694862
 20
350.0
 30
0.0
 11
86.818199
 21
350.0
 31
0.0
  0
LINE
  5
5F
  8
TEAM-BODY
 10
691.694862
 20
-350.0
 30
0.0
 11
86.818199
 21
-350.0
 31
0.0
  0
LINE
  5
60
  8
TEAM-DET1
 10
691.694862
 20
-300.0
 30
0.0
 11
94.904226
 21
-300.0
 31
0.0
  0
LINE
  5
61
  8
TEAM-DET1
 10
-56.633186
 20
-250.779025
 30
0.0
 11
-407.481312
 21
-276.378043
 31
0.0
  0
LINE
  5
62
  8
TEAM-DET1
 10
-56.633186
 20
250.779025
 30
0.0
 11
-407.481312
 21
276.378043
 31
0.0
  0
LINE
  5
63
  8
TEAM-BODY
 10
40.330453
 20
338.537503
 30
0.0
 11
-9.143457
 21
312.560595
 31
0.0
  0
LINE
  5
64
  8
TEAM-DET1
 10
48.910167
 20
288.794969
 30
0.0
 11
-3.362146
 21
261.718932
 31
0.0
  0
ARC
  5
65
  8
TEAM-BODY
 10
-55.631203
 20
401.098099
 30
0.0
 40
100.0
 50
265.645266
 51
297.702292
  0
LINE
  5
66
  8
TEAM-BODY
 10
40.330453
 20
-338.537503
 30
0.0
 11
-9.143457
 21
-312.560595
 31
0.0
  0
LINE
  5
67
  8
TEAM-DET1
 10
48.910167
 20
-288.794969
 30
0.0
 11
-3.362146
 21
-261.718932
 31
0.0
  0
ARC
  5
68
  8
TEAM-BODY
 10
-55.631203
 20
-401.098099
 30
0.0
 40
100.0
 50
62.297708
 51
94.354734
  0
ARC
  5
69
  8
TEAM-DET1
 10
-49.356206
 20
-350.513901
 30
0.0
 40
100.0
 50
62.616726
 51
94.173091
  0
ARC
  5
6A
  8
TEAM-DET1
 10
-49.356206
 20
350.513901
 30
0.0
 40
100.0
 50
265.826909
 51
297.383274
  0
ARC
  5
6B
  8
TEAM-BODY
 10
86.818199
 20
-250.0
 30
0.0
 40
100.0
 50
242.297708
 51
270.0
  0
ARC
  5
6C
  8
TEAM-DET1
 10
94.904226
 20
-200.0
 30
0.0
 40
100.0
 50
242.616726
 51
270.0
  0
ARC
  5
6D
  8
TEAM-DET1
 10
94.904226
 20
200.0
 30
0.0
 40
100.0
 50
90.0
 51
117.383274
  0
ARC
  5
6E
  8
TEAM-BODY
 10
86.818199
 20
250.0
 30
0.0
 40
100.0
 50
90.0
 51
117.702292
  0
CIRCLE
  5
6F
  8
TEAM-INSP
 10
0.0
 20
0.0
 30
0.0
 40
10.0
  0
LINE
  5
71
  8
TEAM-HIDE
 10
565.0
 20
25.0
 30
0.0
 11
900.0
 21
25.0
 31
0.0
  0
LINE
  5
74
  8
TEAM-HIDE
 10
565.0
 20
-25.0
 30
0.0
 11
900.0
 21
-25.0
 31
0.0
  0
LINE
  5
75
  8
TEAM-AXE
 10
565.0
 20
40.0
 30
0.0
 11
565.0
 21
-40.0
 31
0.0
  0
CIRCLE
  5
76
  8
TEAM-DET1
 10
565.0
 20
0.0
 30
0.0
 40
25.0
  0
LINE
  5
77
  8
TEAM-AXE
 10
790.0
 20
35.0
 30
0.0
 11
790.0
 21
-35.0
 31
0.0
  0
ARC
  5
78
  8
TEAM-DET1
 10
691.694862
 20
250.0
 30
0.0
 40
50.0
 50
15.5249
 51
90.0
  0
ARC
  5
79
  8
TEAM-DET1
 10
-75.74986
 20
-36.809522
 30
0.0
 40
846.505858
 50
344.4751
 51
2.353162
  0
ARC
  5
7A
  8
TEAM-DET1
 10
691.694862
 20
-250.0
 30
0.0
 40
50.0
 50
270.0
 51
344.4751
  0
ARC
  5
7B
  8
TEAM-DET1
 10
-75.74986
 20
36.809522
 30
0.0
 40
846.505858
 50
357.646838
 51
15.5249
  0
ARC
  5
7C
  8
TEAM-BODY
 10
-75.74986
 20
-36.809522
 30
0.0
 40
896.505858
 50
344.4751
 51
2.353162
  0
ARC
  5
7D
  8
TEAM-BODY
 10
691.694862
 20
250.0
 30
0.0
 40
100.0
 50
15.5249
 51
90.0
  0
POLYLINE
  5
7E
  8
TEAM-DET1
 66
     1
 10
0.0
 20
0.0
 30
0.0
 70
     1
  0
VERTEX
  5
E4
  8
TEAM-DET1
 10
799.99127
 20
0.0
 30
0.0
 42
0.041036
  0
VERTEX
  5
E5
  8
TEAM-DET1
 10
799.153206
 20
10.194073
 30
0.0
 42
0.054091
  0
VERTEX
  5
E6
  8
TEAM-DET1
 10
797.064895
 20
17.67767
 30
0.0
 42
0.097129
  0
VERTEX
  5
E7
  8
TEAM-DET1
 10
793.214005
 20
23.634905
 30
0.0
 42
0.203566
  0
VERTEX
  5
E8
  8
TEAM-DET1
 10
790.0
 20
25.0
 30
0.0
 42
0.203566
  0
VERTEX
  5
E9
  8
TEAM-DET1
 10
786.785995
 20
23.634905
 30
0.0
 42
0.097129
  0
VERTEX
  5
EA
  8
TEAM-DET1
 10
782.935105
 20
17.67767
 30
0.0
 42
0.054091
  0
VERTEX
  5
EB
  8
TEAM-DET1
 10
780.846794
 20
10.194073
 30
0.0
 42
0.041036
  0
VERTEX
  5
EC
  8
TEAM-DET1
 10
780.00873
 20
0.0
 30
0.0
 42
0.041036
  0
VERTEX
  5
ED
  8
TEAM-DET1
 10
780.846794
 20
-10.194073
 30
0.0
 42
0.054091
  0
VERTEX
  5
EE
  8
TEAM-DET1
 10
782.935105
 20
-17.67767
 30
0.0
 42
0.097129
  0
VERTEX
  5
EF
  8
TEAM-DET1
 10
786.785995
 20
-23.634905
 30
0.0
 42
0.203566
  0
VERTEX
  5
F0
  8
TEAM-DET1
 10
790.0
 20
-25.0
 30
0.0
 42
0.203566
  0
VERTEX
  5
F1
  8
TEAM-DET1
 10
793.214005
 20
-23.634905
 30
0.0
 42
0.097129
  0
VERTEX
  5
F2
  8
TEAM-DET1
 10
797.064895
 20
-17.67767
 30
0.0
 42
0.054091
  0
VERTEX
  5
F3
  8
TEAM-DET1
 10
799.153206
 20
-10.194073
 30
0.0
 42
0.041036
  0
SEQEND
  5
F4
  8
TEAM-DET1
  0
ARC
  5
7F
  8
TEAM-BODY
 10
-75.74986
 20
36.809522
 30
0.0
 40
896.505858
 50
357.646838
 51
15.5249
  0
ARC
  5
80
  8
TEAM-BODY
 10
880.0
 20
-380.0
 30
0.0
 40
20.0
 50
270.0
 51
0.0
  0
ARC
  5
81
  8
TEAM-BODY
 10
691.694862
 20
-250.0
 30
0.0
 40
100.0
 50
270.0
 51
344.4751
  0
ARC
  5
82
  8
TEAM-BODY
 10
880.0
 20
380.0
 30
0.0
 40
20.0
 50
0.0
 51
90.0
  0
ARC
  5
83
  8
TEAM-DET1
 10
116.416543
 20
-12.897712
 30
0.0
 40
656.543242
 50
178.874359
 51
197.116618
  0
ARC
  5
84
  8
TEAM-DET1
 10
116.416543
 20
12.897712
 30
0.0
 40
656.543242
 50
162.883382
 51
181.125641
  0
LINE
  5
85
  8
TEAM-BODY
 10
-63.224332
 20
-301.386794
 30
0.0
 11
-669.900414
 21
-347.58587
 31
0.0
  0
LINE
  5
86
  8
TEAM-BODY
 10
-63.224332
 20
301.386794
 30
0.0
 11
-669.900414
 21
347.58587
 31
0.0
  0
ARC
  5
87
  8
TEAM-DET1
 10
-415.476115
 20
-176.69814
 30
0.0
 40
100.0
 50
197.116618
 51
274.585579
  0
ARC
  5
88
  8
TEAM-DET1
 10
-415.476115
 20
176.69814
 30
0.0
 40
100.0
 50
85.414421
 51
162.883382
  0
ENDSEC
  0
EOF
