  0
SECTION
  2
HEADER
  9
$ACADVER
  1
AC1009
  9
$INSBASE
 10
0.0
 20
0.0
 30
0.0
  9
$EXTMIN
 10
-900.056776
 20
-10.018004
 30
-10.000305
  9
$EXTMAX
 10
960.64327
 20
580.018007
 30
0.000305
  9
$LIMMIN
 10
-900.056776
 20
-10.018004
  9
$LIMMAX
 10
960.64327
 20
580.018007
  9
$ORTHOMODE
 70
     1
  9
$REGENMODE
 70
     1
  9
$FILLMODE
 70
     1
  9
$QTEXTMODE
 70
     0
  9
$MIRRTEXT
 70
     0
  9
$DRAGMODE
 70
     2
  9
$LTSCALE
 40
50.0
  9
$OSMODE
 70
     7
  9
$ATTMODE
 70
     1
  9
$TEXTSIZE
 40
200.0
  9
$TRACEWID
 40
1.0
  9
$TEXTSTYLE
  7
STANDARD
  9
$CLAYER
  8
TEAM-MAS
  9
$CELTYPE
  6
BYLAYER
  9
$CECOLOR
 62
   256
  9
$DIMSCALE
 40
0.0
  9
$DIMASZ
 40
20.0
  9
$DIMEXO
 40
10.0
  9
$DIMDLI
 40
1.0
  9
$DIMRND
 40
0.0
  9
$DIMDLE
 40
0.0
  9
$DIMEXE
 40
1.0
  9
$DIMTP
 40
0.0
  9
$DIMTM
 40
0.0
  9
$DIMTXT
 40
35.0
  9
$DIMCEN
 40
1.0
  9
$DIMTSZ
 40
0.0
  9
$DIMTOL
 70
     0
  9
$DIMLIM
 70
     0
  9
$DIMTIH
 70
     0
  9
$DIMTOH
 70
     0
  9
$DIMSE1
 70
     0
  9
$DIMSE2
 70
     0
  9
$DIMTAD
 70
     0
  9
$DIMZIN
 70
     0
  9
$DIMBLK
  1

  9
$DIMASO
 70
     1
  9
$DIMSHO
 70
     0
  9
$DIMPOST
  1

  9
$DIMAPOST
  1

  9
$DIMALT
 70
     0
  9
$DIMALTD
 70
     2
  9
$DIMALTF
 40
25.4
  9
$DIMLFAC
 40
1.0
  9
$DIMTOFL
 70
     0
  9
$DIMTVP
 40
0.0
  9
$DIMTIX
 70
     0
  9
$DIMSOXD
 70
     0
  9
$DIMSAH
 70
     0
  9
$DIMBLK1
  1

  9
$DIMBLK2
  1

  9
$DIMSTYLE
  2
TEAM
  9
$DIMCLRD
 70
     9
  9
$DIMCLRE
 70
     9
  9
$DIMCLRT
 70
    11
  9
$DIMTFAC
 40
1.0
  9
$DIMGAP
 40
7.0
  9
$LUNITS
 70
     2
  9
$LUPREC
 70
     1
  9
$SKETCHINC
 40
1.0
  9
$FILLETRAD
 40
5.0
  9
$AUNITS
 70
     0
  9
$AUPREC
 70
     0
  9
$MENU
  1
ROPLANS
  9
$ELEVATION
 40
0.0
  9
$PELEVATION
 40
0.0
  9
$THICKNESS
 40
0.0
  9
$LIMCHECK
 70
     0
  9
$BLIPMODE
 70
     1
  9
$CHAMFERA
 40
0.0
  9
$CHAMFERB
 40
0.0
  9
$SKPOLY
 70
     0
  9
$TDCREATE
 40
2450392.957851
  9
$TDUPDATE
 40
2455944.698999
  9
$TDINDWG
 40
3.037655
  9
$TDUSRTIMER
 40
3.037655
  9
$USRTIMER
 70
     1
  9
$ANGBASE
 50
0.0
  9
$ANGDIR
 70
     0
  9
$PDMODE
 70
     0
  9
$PDSIZE
 40
0.0
  9
$PLINEWID
 40
0.0
  9
$COORDS
 70
     2
  9
$SPLFRAME
 70
     0
  9
$SPLINETYPE
 70
     6
  9
$SPLINESEGS
 70
     8
  9
$ATTDIA
 70
     0
  9
$ATTREQ
 70
     0
  9
$HANDLING
 70
     1
  9
$HANDSEED
  5
AC
  9
$SURFTAB1
 70
    24
  9
$SURFTAB2
 70
    24
  9
$SURFTYPE
 70
     6
  9
$SURFU
 70
     6
  9
$SURFV
 70
     6
  9
$UCSNAME
  2

  9
$UCSORG
 10
0.0
 20
0.0
 30
0.0
  9
$UCSXDIR
 10
1.0
 20
0.0
 30
0.0
  9
$UCSYDIR
 10
0.0
 20
1.0
 30
0.0
  9
$PUCSNAME
  2

  9
$PUCSORG
 10
0.0
 20
0.0
 30
0.0
  9
$PUCSXDIR
 10
1.0
 20
0.0
 30
0.0
  9
$PUCSYDIR
 10
0.0
 20
1.0
 30
0.0
  9
$USERI1
 70
     0
  9
$USERI2
 70
     0
  9
$USERI3
 70
     0
  9
$USERI4
 70
     0
  9
$USERI5
 70
     0
  9
$USERR1
 40
0.0
  9
$USERR2
 40
0.0
  9
$USERR3
 40
0.0
  9
$USERR4
 40
0.0
  9
$USERR5
 40
0.0
  9
$WORLDVIEW
 70
     1
  9
$SHADEDGE
 70
     0
  9
$SHADEDIF
 70
    70
  9
$TILEMODE
 70
     1
  9
$MAXACTVP
 70
    16
  9
$PLIMCHECK
 70
     0
  9
$PEXTMIN
 10
-0.805942
 20
0.005011
 30
0.0
  9
$PEXTMAX
 10
20.250094
 20
11.356329
 30
0.0
  9
$PLIMMIN
 10
0.0
 20
0.0
  9
$PLIMMAX
 10
12.0
 20
9.0
  9
$UNITMODE
 70
     0
  9
$VISRETAIN
 70
     0
  9
$PLINEGEN
 70
     0
  9
$PSLTSCALE
 70
     0
  0
ENDSEC
  0
SECTION
  2
TABLES
  0
TABLE
  2
VPORT
 70
     2
  0
VPORT
  2
*ACTIVE
 70
     0
 10
0.0
 20
0.0
 11
1.0
 21
1.0
 12
30.293247
 22
285.000001
 13
0.0
 23
0.0
 14
1.0
 24
1.0
 15
20.0
 25
20.0
 16
0.0
 26
0.0
 36
1.0
 17
0.0
 27
0.0
 37
0.0
 40
980.597466
 41
1.903766
 42
50.0
 43
0.0
 44
0.0
 50
0.0
 51
0.0
 71
     0
 72
   100
 73
     1
 74
     1
 75
     0
 76
     0
 77
     0
 78
     0
  0
ENDTAB
  0
TABLE
  2
LTYPE
 70
     3
  0
LTYPE
  2
CONTINUOUS
 70
     0
  3
Solid Line
 72
    65
 73
     0
 40
0.0
  0
LTYPE
  2
31
 70
     0
  3

 72
    65
 73
     4
 40
2.1
 49
1.5
 49
-0.3
 49
0.0
 49
-0.3
  0
LTYPE
  2
22
 70
     0
  3

 72
    65
 73
     2
 40
1.4
 49
1.2
 49
-0.2
  0
ENDTAB
  0
TABLE
  2
LAYER
 70
    10
  0
LAYER
  2
0
 70
     0
 62
     7
  6
CONTINUOUS
  0
LAYER
  2
DEFPOINTS
 70
     0
 62
     7
  6
CONTINUOUS
  0
LAYER
  2
TEAM-BODY
 70
     0
 62
     2
  6
CONTINUOUS
  0
LAYER
  2
TEAM-AXE
 70
     0
 62
    10
  6
31
  0
LAYER
  2
TEAM-MAS
 70
     0
 62
     9
  6
CONTINUOUS
  0
LAYER
  2
TEAM-TXT
 70
     0
 62
    11
  6
CONTINUOUS
  0
LAYER
  2
TEAM-DET1
 70
     0
 62
     4
  6
CONTINUOUS
  0
LAYER
  2
TEAM-HIDE
 70
     0
 62
     8
  6
22
  0
LAYER
  2
TEAM-DET3
 70
     0
 62
    14
  6
CONTINUOUS
  0
LAYER
  2
TEAM-INSP
 70
     0
 62
     5
  6
CONTINUOUS
  0
ENDTAB
  0
TABLE
  2
STYLE
 70
     2
  0
STYLE
  2
STANDARD
 70
     0
 40
0.0
 41
1.0
 50
0.0
 71
     0
 42
200.0
  3
txt
  4

  0
STYLE
  2
TEAM
 70
     0
 40
0.0
 41
0.8
 50
15.0
 71
     0
 42
7.0
  3
ROMANS.shx
  4

  0
ENDTAB
  0
TABLE
  2
VIEW
 70
     0
  0
ENDTAB
  0
TABLE
  2
UCS
 70
     0
  0
ENDTAB
  0
TABLE
  2
APPID
 70
     2
  0
APPID
  2
ACAD
 70
     0
  0
APPID
  2
ROASYM
 70
     0
  0
ENDTAB
  0
TABLE
  2
DIMSTYLE
 70
     1
  0
DIMSTYLE
  2
TEAM
 70
     0
  3

  4

  5

  6

  7

 40
0.0
 41
20.0
 42
10.0
 43
1.0
 44
1.0
 45
0.0
 46
0.0
 47
0.0
 48
0.0
140
35.0
141
1.0
142
0.0
143
25.4
144
1.0
145
0.0
146
1.0
147
7.0
 71
     0
 72
     0
 73
     0
 74
     0
 75
     0
 76
     0
 77
     0
 78
     0
170
     0
171
     2
172
     0
173
     0
174
     0
175
     0
176
     9
177
     9
178
    11
  0
ENDTAB
  0
ENDSEC
  0
SECTION
  2
BLOCKS
  0
BLOCK
  8
0
  2
$MODEL_SPACE
 70
     0
 10
0.0
 20
0.0
 30
0.0
  3
$MODEL_SPACE
  1

  0
ENDBLK
  5
A5
  8
0
  0
BLOCK
 67
     1
  8
0
  2
$PAPER_SPACE
 70
     0
 10
0.0
 20
0.0
 30
0.0
  3
$PAPER_SPACE
  1

  0
ENDBLK
  5
A3
 67
     1
  8
0
  0
BLOCK
  8
0
  2
*D0
 70
     1
 10
0.0
 20
0.0
 30
0.0
  3
*D0
  1

  0
LINE
  5
22
  8
0
  6
BYBLOCK
 62
     9
 10
4534.0
 20
236140.0
 30
0.0
 11
4534.0
 21
236074.252292
 31
0.0
  0
LINE
  5
23
  8
0
  6
BYBLOCK
 62
     9
 10
4586.0
 20
236140.0
 30
0.0
 11
4586.0
 21
236074.252292
 31
0.0
  0
LINE
  5
24
  8
0
  6
BYBLOCK
 62
     9
 10
4514.0
 20
236075.252292
 30
0.0
 11
4494.0
 21
236075.252292
 31
0.0
  0
LINE
  5
25
  8
0
  6
BYBLOCK
 62
     9
 10
4606.0
 20
236075.252292
 30
0.0
 11
4626.0
 21
236075.252292
 31
0.0
  0
TEXT
  5
26
  8
0
  6
BYBLOCK
 62
    11
 10
4631.454151
 20
236057.752292
 30
0.0
 40
35.0
  1
52
  0
LINE
  5
27
  8
0
  6
BYBLOCK
 62
     9
 10
4534.0
 20
236075.252292
 30
0.0
 11
4586.0
 21
236075.252292
 31
0.0
  0
SOLID
  5
28
  8
0
  6
BYBLOCK
 62
     9
 10
4514.0
 20
236078.585625
 30
0.0
 11
4514.0
 21
236071.918959
 31
0.0
 12
4534.0
 22
236075.252292
 32
0.0
 13
4534.0
 23
236075.252292
 33
0.0
  0
SOLID
  5
29
  8
0
  6
BYBLOCK
 62
     9
 10
4606.0
 20
236078.585625
 30
0.0
 11
4606.0
 21
236071.918959
 31
0.0
 12
4586.0
 22
236075.252292
 32
0.0
 13
4586.0
 23
236075.252292
 33
0.0
  0
POINT
  5
2A
  8
DEFPOINTS
  6
BYBLOCK
 62
     0
 10
4534.0
 20
236150.0
 30
10.0
  0
POINT
  5
2C
  8
DEFPOINTS
  6
BYBLOCK
 62
     0
 10
4586.0
 20
236150.0
 30
10.0
  0
POINT
  5
2D
  8
DEFPOINTS
  6
BYBLOCK
 62
     0
 10
4586.0
 20
236075.252292
 30
0.0
  0
ENDBLK
  5
2F
  8
0
  0
BLOCK
  8
0
  2
*D1
 70
     1
 10
0.0
 20
0.0
 30
0.0
  3
*D1
  1

  0
LINE
  5
49
  8
0
  6
BYBLOCK
 62
     9
 10
4910.0
 20
236580.0
 30
0.0
 11
4944.086485
 21
236580.0
 31
0.0
  0
LINE
  5
4A
  8
0
  6
BYBLOCK
 62
     9
 10
4596.0
 20
236150.0
 30
0.0
 11
4944.086485
 21
236150.0
 31
0.0
  0
LINE
  5
4B
  8
0
  6
BYBLOCK
 62
     9
 10
4943.086485
 20
236560.0
 30
0.0
 11
4943.086485
 21
236415.75
 31
0.0
  0
LINE
  5
4C
  8
0
  6
BYBLOCK
 62
     9
 10
4943.086485
 20
236170.0
 30
0.0
 11
4943.086485
 21
236314.25
 31
0.0
  0
SOLID
  5
4D
  8
0
  6
BYBLOCK
 62
     9
 10
4939.753152
 20
236560.0
 30
0.0
 11
4946.419819
 21
236560.0
 31
0.0
 12
4943.086485
 22
236580.0
 32
0.0
 13
4943.086485
 23
236580.0
 33
0.0
  0
SOLID
  5
4E
  8
0
  6
BYBLOCK
 62
     9
 10
4939.753152
 20
236170.0
 30
0.0
 11
4946.419819
 21
236170.0
 31
0.0
 12
4943.086485
 22
236150.0
 32
0.0
 13
4943.086485
 23
236150.0
 33
0.0
  0
TEXT
  5
4F
  8
0
  6
BYBLOCK
 62
    11
 10
4960.586485
 20
236321.25
 30
0.0
 40
35.0
  1
430
 50
90.0
  0
POINT
  5
50
  8
DEFPOINTS
  6
BYBLOCK
 62
     0
 10
4900.0
 20
236580.0
 30
0.0
  0
POINT
  5
51
  8
DEFPOINTS
  6
BYBLOCK
 62
     0
 10
4586.0
 20
236150.0
 30
0.0
  0
POINT
  5
52
  8
DEFPOINTS
  6
BYBLOCK
 62
     0
 10
4943.086485
 20
236150.0
 30
0.0
  0
ENDBLK
  5
54
  8
0
  0
ENDSEC
  0
SECTION
  2
ENTITIES
  0
DIMENSION
  5
20
  8
TEAM-MAS
  2
*D0
 10
586.0
 20
75.252292
 30
-10.0
 11
660.620818
 21
75.252292
 31
-10.0
 12
-4000.0
 22
-236000.0
 32
-10.0
 70
   128
 13
534.0
 23
150.0
 33
0.0
 14
586.0
 24
150.0
 34
0.0
  0
LINE
  5
30
  8
TEAM-DET1
 10
-726.002086
 20
574.64307
 30
0.0
 11
-55.674459
 21
486.948273
 31
0.0
  0
LINE
  5
32
  8
TEAM-BODY
 10
900.0
 20
580.0
 30
0.0
 11
-900.0
 21
580.0
 31
0.0
  0
LINE
  5
34
  8
TEAM-BODY
 10
-472.325018
 20
170.0
 30
0.0
 11
589.268484
 21
159.063203
 31
0.0
  0
LINE
  5
35
  8
TEAM-HIDE
 10
545.856633
 20
0.0
 30
0.0
 11
-506.334874
 21
0.0
 31
0.0
  0
LINE
  5
38
  8
TEAM-DET3
 10
-390.119041
 20
0.0
 30
0.0
 11
-310.119041
 21
0.0
 31
0.0
  0
LINE
  5
3A
  8
TEAM-BODY
 10
-566.029275
 20
215.036594
 30
0.0
 11
-850.0
 21
580.0
 31
0.0
  0
ARC
  5
3B
  8
TEAM-BODY
 10
-472.325018
 20
290.0
 30
0.0
 40
120.0
 50
218.659808
 51
270.0
  0
LINE
  5
3C
  8
TEAM-DET3
 10
-300.119041
 20
75.0
 30
0.0
 11
-400.119041
 21
75.0
 31
0.0
  0
LINE
  5
3D
  8
TEAM-DET3
 10
-300.119041
 20
25.0
 30
0.0
 11
-400.119041
 21
25.0
 31
0.0
  0
LINE
  5
3E
  8
TEAM-DET3
 10
-400.119041
 20
169.256116
 30
0.0
 11
-400.119041
 21
25.0
 31
0.0
  0
LINE
  5
3F
  8
TEAM-DET3
 10
-325.119041
 20
168.483448
 30
0.0
 11
-325.119041
 21
25.0
 31
0.0
  0
LINE
  5
40
  8
TEAM-DET3
 10
-300.119041
 20
168.225892
 30
0.0
 11
-300.119041
 21
25.0
 31
0.0
  0
LINE
  5
41
  8
TEAM-DET3
 10
-310.119041
 20
25.0
 30
0.0
 11
-310.119041
 21
0.0
 31
0.0
  0
LINE
  5
42
  8
TEAM-DET3
 10
-384.929489
 20
169.09963
 30
0.0
 11
-365.119041
 21
75.0
 31
0.0
  0
LINE
  5
43
  8
TEAM-DET3
 10
-390.119041
 20
25.0
 30
0.0
 11
-390.119041
 21
0.0
 31
0.0
  0
LINE
  5
44
  8
TEAM-BODY
 10
-900.0
 20
560.0
 30
0.0
 11
-870.0
 21
560.0
 31
0.0
  0
LINE
  5
45
  8
TEAM-BODY
 10
-900.0
 20
580.0
 30
0.0
 11
-900.0
 21
560.0
 31
0.0
  0
LINE
  5
46
  8
TEAM-DET1
 10
-834.4384
 20
560.0
 30
0.0
 11
-870.0
 21
560.0
 31
0.0
  0
DIMENSION
  5
47
  8
TEAM-MAS
  2
*D1
 10
943.086485
 20
150.0
 30
0.0
 11
943.086485
 21
365.0
 31
0.0
 12
-4000.0
 22
-236000.0
 32
0.0
 13
900.0
 23
580.0
 33
0.0
 14
586.0
 24
150.0
 34
0.0
 50
90.0
1001
ROASYM
1002
{
1002
}
  0
LINE
  5
56
  8
TEAM-DET3
 10
352.941758
 20
0.0
 30
0.0
 11
432.941758
 21
0.0
 31
0.0
  0
LINE
  5
57
  8
TEAM-DET1
 10
534.0
 20
150.0
 30
0.0
 11
586.0
 21
150.0
 31
0.0
  0
LINE
  5
58
  8
TEAM-DET1
 10
534.0
 20
159.063203
 30
0.0
 11
534.0
 21
150.0
 31
0.0
  0
LINE
  5
59
  8
TEAM-AXE
 10
560.0
 20
189.063203
 30
0.0
 11
560.0
 21
90.0
 31
0.0
  0
LINE
  5
5C
  8
TEAM-BODY
 10
701.207892
 20
249.44522
 30
0.0
 11
819.904958
 21
580.0
 31
0.0
  0
ARC
  5
5D
  8
TEAM-BODY
 10
577.713201
 20
287.884864
 30
0.0
 40
129.338876
 50
275.125705
 51
342.710434
  0
LINE
  5
5E
  8
TEAM-DET1
 10
586.0
 20
159.063203
 30
0.0
 11
586.0
 21
150.0
 31
0.0
  0
LINE
  5
5F
  8
TEAM-BODY
 10
900.0
 20
560.0
 30
0.0
 11
870.0
 21
560.0
 31
0.0
  0
LINE
  5
60
  8
TEAM-DET1
 10
870.0
 20
560.0
 30
0.0
 11
812.72327
 21
560.0
 31
0.0
  0
LINE
  5
61
  8
TEAM-BODY
 10
900.0
 20
580.0
 30
0.0
 11
900.0
 21
560.0
 31
0.0
  0
CIRCLE
  5
62
  8
TEAM-INSP
 10
0.0
 20
0.0
 30
0.0
 40
10.0
  0
LINE
  5
64
  8
TEAM-DET3
 10
342.941758
 20
25.0
 30
0.0
 11
442.941758
 21
25.0
 31
0.0
  0
LINE
  5
65
  8
TEAM-DET3
 10
342.941758
 20
75.0
 30
0.0
 11
442.941758
 21
75.0
 31
0.0
  0
LINE
  5
66
  8
TEAM-DET3
 10
342.941758
 20
161.600922
 30
0.0
 11
342.941758
 21
25.0
 31
0.0
  0
LINE
  5
67
  8
TEAM-DET3
 10
367.941758
 20
161.343365
 30
0.0
 11
367.941758
 21
25.0
 31
0.0
  0
LINE
  5
68
  8
TEAM-DET3
 10
352.941758
 20
25.0
 30
0.0
 11
352.941758
 21
0.0
 31
0.0
  0
LINE
  5
69
  8
TEAM-DET3
 10
442.941758
 20
160.570697
 30
0.0
 11
442.941758
 21
25.0
 31
0.0
  0
LINE
  5
6A
  8
TEAM-DET3
 10
425.9934
 20
160.745303
 30
0.0
 11
407.941758
 21
75.0
 31
0.0
  0
LINE
  5
6B
  8
TEAM-DET3
 10
432.941758
 20
25.0
 30
0.0
 11
432.941758
 21
0.0
 31
0.0
  0
LINE
  5
6C
  8
TEAM-DET1
 10
-55.674459
 20
486.948273
 30
0.0
 11
92.251709
 21
552.320738
 31
0.0
  0
TEXT
  5
6D
  8
TEAM-TXT
 10
514.907245
 20
533.297465
 30
0.0
 40
30.0
  1
team 111316
 41
0.7
 51
15.0
  7
TEAM
  0
LINE
  5
70
  8
TEAM-DET1
 10
92.251709
 20
552.320738
 30
0.0
 11
731.182723
 21
576.237524
 31
0.0
  0
ENDSEC
  0
EOF
