  0
SECTION
  2
HEADER
  9
$ACADVER
  1
AC1009
  9
$INSBASE
 10
0.0
 20
0.0
 30
0.0
  9
$EXTMIN
 10
-401.879523
 20
-10.010114
 30
0.0
  9
$EXTMAX
 10
541.701222
 20
653.30994
 30
0.0
  9
$LIMMIN
 10
-401.879523
 20
-10.010114
  9
$LIMMAX
 10
541.701222
 20
653.30994
  9
$ORTHOMODE
 70
     1
  9
$REGENMODE
 70
     1
  9
$FILLMODE
 70
     1
  9
$QTEXTMODE
 70
     0
  9
$MIRRTEXT
 70
     0
  9
$DRAGMODE
 70
     2
  9
$LTSCALE
 40
25.0
  9
$OSMODE
 70
     0
  9
$ATTMODE
 70
     1
  9
$TEXTSIZE
 40
200.0
  9
$TRACEWID
 40
1.0
  9
$TEXTSTYLE
  7
STANDARD
  9
$CLAYER
  8
TEAM-MAS
  9
$CELTYPE
  6
BYLAYER
  9
$CECOLOR
 62
   256
  9
$DIMSCALE
 40
0.0
  9
$DIMASZ
 40
20.0
  9
$DIMEXO
 40
10.0
  9
$DIMDLI
 40
1.0
  9
$DIMRND
 40
0.0
  9
$DIMDLE
 40
0.0
  9
$DIMEXE
 40
1.0
  9
$DIMTP
 40
0.0
  9
$DIMTM
 40
0.0
  9
$DIMTXT
 40
35.0
  9
$DIMCEN
 40
1.0
  9
$DIMTSZ
 40
0.0
  9
$DIMTOL
 70
     0
  9
$DIMLIM
 70
     0
  9
$DIMTIH
 70
     0
  9
$DIMTOH
 70
     0
  9
$DIMSE1
 70
     0
  9
$DIMSE2
 70
     0
  9
$DIMTAD
 70
     0
  9
$DIMZIN
 70
     0
  9
$DIMBLK
  1

  9
$DIMASO
 70
     1
  9
$DIMSHO
 70
     0
  9
$DIMPOST
  1

  9
$DIMAPOST
  1

  9
$DIMALT
 70
     0
  9
$DIMALTD
 70
     2
  9
$DIMALTF
 40
25.4
  9
$DIMLFAC
 40
1.0
  9
$DIMTOFL
 70
     0
  9
$DIMTVP
 40
0.0
  9
$DIMTIX
 70
     0
  9
$DIMSOXD
 70
     0
  9
$DIMSAH
 70
     0
  9
$DIMBLK1
  1

  9
$DIMBLK2
  1

  9
$DIMSTYLE
  2
TEAM
  9
$DIMCLRD
 70
     9
  9
$DIMCLRE
 70
     9
  9
$DIMCLRT
 70
    11
  9
$DIMTFAC
 40
1.0
  9
$DIMGAP
 40
15.0
  9
$LUNITS
 70
     2
  9
$LUPREC
 70
     1
  9
$SKETCHINC
 40
1.0
  9
$FILLETRAD
 40
50.0
  9
$AUNITS
 70
     0
  9
$AUPREC
 70
     0
  9
$MENU
  1
ROPLANS
  9
$ELEVATION
 40
0.0
  9
$PELEVATION
 40
0.0
  9
$THICKNESS
 40
0.0
  9
$LIMCHECK
 70
     0
  9
$BLIPMODE
 70
     1
  9
$CHAMFERA
 40
0.0
  9
$CHAMFERB
 40
0.0
  9
$SKPOLY
 70
     0
  9
$TDCREATE
 40
2450392.957851
  9
$TDUPDATE
 40
2455493.611202
  9
$TDINDWG
 40
2.088747
  9
$TDUSRTIMER
 40
2.088747
  9
$USRTIMER
 70
     1
  9
$ANGBASE
 50
0.0
  9
$ANGDIR
 70
     0
  9
$PDMODE
 70
     0
  9
$PDSIZE
 40
0.0
  9
$PLINEWID
 40
0.0
  9
$COORDS
 70
     2
  9
$SPLFRAME
 70
     0
  9
$SPLINETYPE
 70
     6
  9
$SPLINESEGS
 70
     8
  9
$ATTDIA
 70
     0
  9
$ATTREQ
 70
     0
  9
$HANDLING
 70
     1
  9
$HANDSEED
  5
1B8
  9
$SURFTAB1
 70
    24
  9
$SURFTAB2
 70
    24
  9
$SURFTYPE
 70
     6
  9
$SURFU
 70
     6
  9
$SURFV
 70
     6
  9
$UCSNAME
  2

  9
$UCSORG
 10
0.0
 20
0.0
 30
0.0
  9
$UCSXDIR
 10
1.0
 20
0.0
 30
0.0
  9
$UCSYDIR
 10
0.0
 20
1.0
 30
0.0
  9
$PUCSNAME
  2

  9
$PUCSORG
 10
0.0
 20
0.0
 30
0.0
  9
$PUCSXDIR
 10
1.0
 20
0.0
 30
0.0
  9
$PUCSYDIR
 10
0.0
 20
1.0
 30
0.0
  9
$USERI1
 70
     0
  9
$USERI2
 70
     0
  9
$USERI3
 70
     0
  9
$USERI4
 70
     0
  9
$USERI5
 70
     0
  9
$USERR1
 40
0.0
  9
$USERR2
 40
0.0
  9
$USERR3
 40
0.0
  9
$USERR4
 40
0.0
  9
$USERR5
 40
0.0
  9
$WORLDVIEW
 70
     1
  9
$SHADEDGE
 70
     0
  9
$SHADEDIF
 70
    70
  9
$TILEMODE
 70
     1
  9
$MAXACTVP
 70
    16
  9
$PLIMCHECK
 70
     0
  9
$PEXTMIN
 10
-0.805942
 20
0.005011
 30
0.0
  9
$PEXTMAX
 10
20.250094
 20
11.356329
 30
0.0
  9
$PLIMMIN
 10
0.0
 20
0.0
  9
$PLIMMAX
 10
12.0
 20
9.0
  9
$UNITMODE
 70
     0
  9
$VISRETAIN
 70
     0
  9
$PLINEGEN
 70
     0
  9
$PSLTSCALE
 70
     0
  0
ENDSEC
  0
SECTION
  2
TABLES
  0
TABLE
  2
VPORT
 70
     2
  0
VPORT
  2
*ACTIVE
 70
     0
 10
0.0
 20
0.0
 11
1.0
 21
1.0
 12
69.910849
 22
321.649913
 13
0.0
 23
0.0
 14
1.0
 24
1.0
 15
50.0
 25
50.0
 16
0.0
 26
0.0
 36
1.0
 17
0.0
 27
0.0
 37
0.0
 40
667.393668
 41
1.865779
 42
50.0
 43
0.0
 44
0.0
 50
0.0
 51
0.0
 71
     0
 72
   100
 73
     1
 74
     1
 75
     0
 76
     0
 77
     0
 78
     0
  0
ENDTAB
  0
TABLE
  2
LTYPE
 70
     1
  0
LTYPE
  2
CONTINUOUS
 70
     0
  3
Solid Line
 72
    65
 73
     0
 40
0.0
  0
ENDTAB
  0
TABLE
  2
LAYER
 70
     8
  0
LAYER
  2
0
 70
     0
 62
     7
  6
CONTINUOUS
  0
LAYER
  2
DEFPOINTS
 70
     0
 62
     7
  6
CONTINUOUS
  0
LAYER
  2
TEAM-BODY
 70
     0
 62
     2
  6
CONTINUOUS
  0
LAYER
  2
TEAM-MAS
 70
     0
 62
     9
  6
CONTINUOUS
  0
LAYER
  2
TEAM-TXT
 70
     0
 62
    11
  6
CONTINUOUS
  0
LAYER
  2
TEAM-DET1
 70
     0
 62
     4
  6
CONTINUOUS
  0
LAYER
  2
TEAM-KAN
 70
     0
 62
     6
  6
CONTINUOUS
  0
LAYER
  2
TEAM-INSP
 70
     0
 62
     5
  6
CONTINUOUS
  0
ENDTAB
  0
TABLE
  2
STYLE
 70
     2
  0
STYLE
  2
STANDARD
 70
     0
 40
0.0
 41
1.0
 50
0.0
 71
     0
 42
200.0
  3
txt
  4

  0
STYLE
  2
TEAM
 70
     0
 40
0.0
 41
0.8
 50
15.0
 71
     0
 42
7.0
  3
ROMANS.shx
  4

  0
ENDTAB
  0
TABLE
  2
VIEW
 70
     0
  0
ENDTAB
  0
TABLE
  2
UCS
 70
     0
  0
ENDTAB
  0
TABLE
  2
APPID
 70
     1
  0
APPID
  2
ACAD
 70
     0
  0
ENDTAB
  0
TABLE
  2
DIMSTYLE
 70
     1
  0
DIMSTYLE
  2
TEAM
 70
     0
  3

  4

  5

  6

  7

 40
0.0
 41
20.0
 42
10.0
 43
1.0
 44
1.0
 45
0.0
 46
0.0
 47
0.0
 48
0.0
140
35.0
141
1.0
142
0.0
143
25.4
144
1.0
145
0.0
146
1.0
147
15.0
 71
     0
 72
     0
 73
     0
 74
     0
 75
     0
 76
     0
 77
     0
 78
     0
170
     0
171
     2
172
     0
173
     0
174
     0
175
     0
176
     9
177
     9
178
    11
  0
ENDTAB
  0
ENDSEC
  0
SECTION
  2
BLOCKS
  0
BLOCK
  8
0
  2
$MODEL_SPACE
 70
     0
 10
0.0
 20
0.0
 30
0.0
  3
$MODEL_SPACE
  1

  0
ENDBLK
  5
195
  8
0
  0
BLOCK
 67
     1
  8
0
  2
$PAPER_SPACE
 70
     0
 10
0.0
 20
0.0
 30
0.0
  3
$PAPER_SPACE
  1

  0
ENDBLK
  5
193
 67
     1
  8
0
  0
BLOCK
  8
0
  2
*D0
 70
     1
 10
0.0
 20
0.0
 30
0.0
  3
*D0
  1

  0
LINE
  5
43
  8
0
  6
BYBLOCK
 62
     9
 10
8035.0
 20
396150.0
 30
0.0
 11
8463.049797
 21
396150.0
 31
0.0
  0
LINE
  5
44
  8
0
  6
BYBLOCK
 62
     9
 10
8400.758443
 20
396580.0
 30
0.0
 11
8463.049797
 21
396580.0
 31
0.0
  0
LINE
  5
45
  8
0
  6
BYBLOCK
 62
     9
 10
8462.049797
 20
396170.0
 30
0.0
 11
8462.049797
 21
396316.73622
 31
0.0
  0
LINE
  5
46
  8
0
  6
BYBLOCK
 62
     9
 10
8462.049797
 20
396560.0
 30
0.0
 11
8462.049797
 21
396413.26378
 31
0.0
  0
SOLID
  5
47
  8
0
  6
BYBLOCK
 62
     9
 10
8458.716464
 20
396170.0
 30
0.0
 11
8465.383131
 21
396170.0
 31
0.0
 12
8462.049797
 22
396150.0
 32
0.0
 13
8462.049797
 23
396150.0
 33
0.0
  0
SOLID
  5
48
  8
0
  6
BYBLOCK
 62
     9
 10
8458.716464
 20
396560.0
 30
0.0
 11
8465.383131
 21
396560.0
 31
0.0
 12
8462.049797
 22
396580.0
 32
0.0
 13
8462.049797
 23
396580.0
 33
0.0
  0
TEXT
  5
49
  8
0
  6
BYBLOCK
 62
    11
 10
8479.549797
 20
396326.48622
 30
0.0
 40
35.0
  1
430
 50
90.0
  0
POINT
  5
4A
  8
DEFPOINTS
  6
BYBLOCK
 62
     0
 10
8025.0
 20
396150.0
 30
0.0
  0
POINT
  5
4B
  8
DEFPOINTS
  6
BYBLOCK
 62
     0
 10
8390.758443
 20
396580.0
 30
0.0
  0
POINT
  5
4C
  8
DEFPOINTS
  6
BYBLOCK
 62
     0
 10
8462.049797
 20
396580.0
 30
0.0
  0
ENDBLK
  5
4E
  8
0
  0
BLOCK
  8
0
  2
*D1
 70
     1
 10
0.0
 20
0.0
 30
0.0
  3
*D1
  1

  0
LINE
  5
35
  8
0
  6
BYBLOCK
 62
     9
 10
8010.0
 20
396000.0
 30
0.0
 11
8525.430336
 21
396000.0
 31
0.0
  0
LINE
  5
36
  8
0
  6
BYBLOCK
 62
     9
 10
8400.758443
 20
396580.0
 30
0.0
 11
8525.430336
 21
396580.0
 31
0.0
  0
LINE
  5
37
  8
0
  6
BYBLOCK
 62
     9
 10
8524.430336
 20
396020.0
 30
0.0
 11
8524.430336
 21
396197.13189
 31
0.0
  0
LINE
  5
38
  8
0
  6
BYBLOCK
 62
     9
 10
8524.430336
 20
396560.0
 30
0.0
 11
8524.430336
 21
396382.86811
 31
0.0
  0
TEXT
  5
39
  8
0
  6
BYBLOCK
 62
    11
 10
8541.930336
 20
396206.88189
 30
0.0
 40
35.0
  1
561-586
 50
90.0
  0
SOLID
  5
3A
  8
0
  6
BYBLOCK
 62
     9
 10
8521.097002
 20
396020.0
 30
0.0
 11
8527.763669
 21
396020.0
 31
0.0
 12
8524.430336
 22
396000.0
 32
0.0
 13
8524.430336
 23
396000.0
 33
0.0
  0
SOLID
  5
3B
  8
0
  6
BYBLOCK
 62
     9
 10
8521.097002
 20
396560.0
 30
0.0
 11
8527.763669
 21
396560.0
 31
0.0
 12
8524.430336
 22
396580.0
 32
0.0
 13
8524.430336
 23
396580.0
 33
0.0
  0
POINT
  5
3C
  8
DEFPOINTS
  6
BYBLOCK
 62
     0
 10
8000.0
 20
396000.0
 30
0.0
  0
POINT
  5
3D
  8
DEFPOINTS
  6
BYBLOCK
 62
     0
 10
8390.758443
 20
396580.0
 30
0.0
  0
POINT
  5
3E
  8
DEFPOINTS
  6
BYBLOCK
 62
     0
 10
8524.430336
 20
396580.0
 30
0.0
  0
ENDBLK
  5
40
  8
0
  0
BLOCK
  8
0
  2
*D2
 70
     1
 10
0.0
 20
0.0
 30
0.0
  3
*D2
  1

  0
LINE
  5
22
  8
0
  6
BYBLOCK
 62
     9
 10
7600.0
 20
396582.096929
 30
0.0
 11
7600.0
 21
396638.536038
 31
0.0
  0
LINE
  5
23
  8
0
  6
BYBLOCK
 62
     9
 10
8400.0
 20
396582.096929
 30
0.0
 11
8400.0
 21
396638.536038
 31
0.0
  0
LINE
  5
24
  8
0
  6
BYBLOCK
 62
     9
 10
7620.0
 20
396637.536038
 30
0.0
 11
7953.48622
 21
396637.536038
 31
0.0
  0
LINE
  5
25
  8
0
  6
BYBLOCK
 62
     9
 10
8380.0
 20
396637.536038
 30
0.0
 11
8046.51378
 21
396637.536038
 31
0.0
  0
SOLID
  5
26
  8
0
  6
BYBLOCK
 62
     9
 10
7620.0
 20
396640.869371
 30
0.0
 11
7620.0
 21
396634.202704
 31
0.0
 12
7600.0
 22
396637.536038
 32
0.0
 13
7600.0
 23
396637.536038
 33
0.0
  0
SOLID
  5
27
  8
0
  6
BYBLOCK
 62
     9
 10
8380.0
 20
396640.869371
 30
0.0
 11
8380.0
 21
396634.202704
 31
0.0
 12
8400.0
 22
396637.536038
 32
0.0
 13
8400.0
 23
396637.536038
 33
0.0
  0
TEXT
  5
28
  8
0
  6
BYBLOCK
 62
    11
 10
7963.23622
 20
396620.036038
 30
0.0
 40
35.0
  1
800
  0
POINT
  5
29
  8
DEFPOINTS
  6
BYBLOCK
 62
     0
 10
7600.0
 20
396572.096929
 30
0.0
  0
POINT
  5
2B
  8
DEFPOINTS
  6
BYBLOCK
 62
     0
 10
8400.0
 20
396572.096929
 30
0.0
  0
POINT
  5
2C
  8
DEFPOINTS
  6
BYBLOCK
 62
     0
 10
8400.0
 20
396637.536038
 30
0.0
  0
ENDBLK
  5
2E
  8
0
  0
ENDSEC
  0
SECTION
  2
ENTITIES
  0
DIMENSION
  5
20
  8
TEAM-MAS
  2
*D2
 10
400.0
 20
637.536038
 30
0.0
 11
0.0
 21
637.536038
 31
0.0
 12
-8000.0
 22
-396000.0
 32
0.0
 13
-400.0
 23
572.096929
 33
0.0
 14
400.0
 24
572.096929
 34
0.0
  0
LINE
  5
2F
  8
TEAM-DET1
 10
-360.012765
 20
580.0
 30
0.0
 11
360.012765
 21
580.0
 31
0.0
  0
POLYLINE
  5
31
  8
TEAM-BODY
 66
     1
 10
0.0
 20
0.0
 30
0.0
  0
VERTEX
  5
19B
  8
TEAM-BODY
 10
384.0
 20
548.096929
 30
0.0
  0
VERTEX
  5
19C
  8
TEAM-BODY
 10
392.0
 20
548.096929
 30
0.0
 42
0.414214
  0
VERTEX
  5
19D
  8
TEAM-BODY
 10
400.0
 20
556.096929
 30
0.0
  0
VERTEX
  5
19E
  8
TEAM-BODY
 10
400.0
 20
572.096929
 30
0.0
 42
0.460626
  0
VERTEX
  5
19F
  8
TEAM-BODY
 10
390.758443
 20
580.0
 30
0.0
  0
VERTEX
  5
1A0
  8
TEAM-BODY
 10
360.012765
 20
580.0
 30
0.0
 42
0.390184
  0
VERTEX
  5
1A1
  8
TEAM-BODY
 10
335.098274
 20
557.065947
 30
0.0
  0
VERTEX
  5
1A2
  8
TEAM-BODY
 10
314.499626
 20
239.058253
 30
0.0
 42
-0.375544
  0
VERTEX
  5
1A3
  8
TEAM-BODY
 10
239.403606
 20
165.214054
 30
0.0
  0
VERTEX
  5
1A4
  8
TEAM-BODY
 10
40.0
 20
155.0
 30
0.0
 42
0.232609
  0
VERTEX
  5
1A5
  8
TEAM-BODY
 10
35.0
 20
152.5
 30
0.0
 42
-0.241952
  0
VERTEX
  5
1A6
  8
TEAM-BODY
 10
30.0
 20
150.0
 30
0.0
  0
VERTEX
  5
1A7
  8
TEAM-BODY
 10
25.0
 20
150.0
 30
0.0
  0
SEQEND
  5
1A8
  8
TEAM-BODY
  0
DIMENSION
  5
33
  8
TEAM-MAS
  2
*D1
 10
524.430336
 20
580.0
 30
0.0
 11
524.430336
 21
290.0
 31
0.0
 12
-8000.0
 22
-396000.0
 32
0.0
 70
   128
  1
561-586
 13
0.0
 23
0.0
 33
0.0
 14
390.758443
 24
580.0
 34
0.0
 50
90.0
  0
DIMENSION
  5
41
  8
TEAM-MAS
  2
*D0
 10
462.049797
 20
580.0
 30
0.0
 11
462.049797
 21
365.0
 31
0.0
 12
-8000.0
 22
-396000.0
 32
0.0
 13
25.0
 23
150.0
 33
0.0
 14
390.758443
 24
580.0
 34
0.0
 50
90.0
  0
CIRCLE
  5
4F
  8
TEAM-INSP
 10
0.0
 20
0.0
 30
0.0
 40
10.0
  0
TEXT
  5
51
  8
TEAM-TXT
 10
-298.647445
 20
525.088243
 30
0.0
 40
30.0
  1
team 111318
 41
0.7
 51
15.0
  7
TEAM
  0
LINE
  5
54
  8
TEAM-DET1
 10
-384.0
 20
548.096929
 30
0.0
 11
-334.421554
 21
548.096929
 31
0.0
  0
LINE
  5
55
  8
TEAM-KAN
 10
-25.0
 20
150.0
 30
0.0
 11
25.0
 21
150.0
 31
0.0
  0
POLYLINE
  5
57
  8
TEAM-BODY
 66
     1
 10
0.0
 20
0.0
 30
0.0
  0
VERTEX
  5
1A9
  8
TEAM-BODY
 10
-384.0
 20
548.096929
 30
0.0
  0
VERTEX
  5
1AA
  8
TEAM-BODY
 10
-392.0
 20
548.096929
 30
0.0
 42
-0.414214
  0
VERTEX
  5
1AB
  8
TEAM-BODY
 10
-400.0
 20
556.096929
 30
0.0
  0
VERTEX
  5
1AC
  8
TEAM-BODY
 10
-400.0
 20
572.096929
 30
0.0
 42
-0.460626
  0
VERTEX
  5
1AD
  8
TEAM-BODY
 10
-390.758443
 20
580.0
 30
0.0
  0
VERTEX
  5
1AE
  8
TEAM-BODY
 10
-360.012765
 20
580.0
 30
0.0
 42
-0.390184
  0
VERTEX
  5
1AF
  8
TEAM-BODY
 10
-335.098274
 20
557.065947
 30
0.0
  0
VERTEX
  5
1B0
  8
TEAM-BODY
 10
-314.499626
 20
239.058253
 30
0.0
 42
0.375544
  0
VERTEX
  5
1B1
  8
TEAM-BODY
 10
-239.403606
 20
165.214054
 30
0.0
  0
VERTEX
  5
1B2
  8
TEAM-BODY
 10
-40.0
 20
155.0
 30
0.0
 42
-0.232609
  0
VERTEX
  5
1B3
  8
TEAM-BODY
 10
-35.0
 20
152.5
 30
0.0
 42
0.241952
  0
VERTEX
  5
1B4
  8
TEAM-BODY
 10
-30.0
 20
150.0
 30
0.0
  0
VERTEX
  5
1B5
  8
TEAM-BODY
 10
-25.0
 20
150.0
 30
0.0
  0
SEQEND
  5
1B6
  8
TEAM-BODY
  0
LINE
  5
58
  8
TEAM-DET1
 10
384.0
 20
548.096929
 30
0.0
 11
334.421554
 21
548.096929
 31
0.0
  0
ENDSEC
  0
EOF
