  0
SECTION
  2
HEADER
  9
$ACADVER
  1
AC1009
  9
$INSBASE
 10
0.0
 20
0.0
 30
0.0
  9
$EXTMIN
 10
-401.881937
 20
-7.120055
 30
-0.001526
  9
$EXTMAX
 10
500.281176
 20
650.132482
 30
0.0
  9
$LIMMIN
 10
-401.881937
 20
-7.120055
  9
$LIMMAX
 10
500.281176
 20
650.132482
  9
$ORTHOMODE
 70
     1
  9
$REGENMODE
 70
     1
  9
$FILLMODE
 70
     1
  9
$QTEXTMODE
 70
     0
  9
$MIRRTEXT
 70
     0
  9
$DRAGMODE
 70
     2
  9
$LTSCALE
 40
50.0
  9
$OSMODE
 70
     7
  9
$ATTMODE
 70
     1
  9
$TEXTSIZE
 40
200.0
  9
$TRACEWID
 40
1.0
  9
$TEXTSTYLE
  7
STANDARD
  9
$CLAYER
  8
TEAM-MAS
  9
$CELTYPE
  6
BYLAYER
  9
$CECOLOR
 62
   256
  9
$DIMSCALE
 40
0.0
  9
$DIMASZ
 40
20.0
  9
$DIMEXO
 40
10.0
  9
$DIMDLI
 40
1.0
  9
$DIMRND
 40
0.0
  9
$DIMDLE
 40
0.0
  9
$DIMEXE
 40
1.0
  9
$DIMTP
 40
0.0
  9
$DIMTM
 40
0.0
  9
$DIMTXT
 40
35.0
  9
$DIMCEN
 40
1.0
  9
$DIMTSZ
 40
0.0
  9
$DIMTOL
 70
     0
  9
$DIMLIM
 70
     0
  9
$DIMTIH
 70
     0
  9
$DIMTOH
 70
     0
  9
$DIMSE1
 70
     0
  9
$DIMSE2
 70
     0
  9
$DIMTAD
 70
     0
  9
$DIMZIN
 70
     0
  9
$DIMBLK
  1

  9
$DIMASO
 70
     1
  9
$DIMSHO
 70
     0
  9
$DIMPOST
  1

  9
$DIMAPOST
  1

  9
$DIMALT
 70
     0
  9
$DIMALTD
 70
     2
  9
$DIMALTF
 40
25.4
  9
$DIMLFAC
 40
1.0
  9
$DIMTOFL
 70
     0
  9
$DIMTVP
 40
0.0
  9
$DIMTIX
 70
     0
  9
$DIMSOXD
 70
     0
  9
$DIMSAH
 70
     0
  9
$DIMBLK1
  1

  9
$DIMBLK2
  1

  9
$DIMSTYLE
  2
TEAM
  9
$DIMCLRD
 70
     9
  9
$DIMCLRE
 70
     9
  9
$DIMCLRT
 70
    11
  9
$DIMTFAC
 40
1.0
  9
$DIMGAP
 40
7.0
  9
$LUNITS
 70
     2
  9
$LUPREC
 70
     1
  9
$SKETCHINC
 40
1.0
  9
$FILLETRAD
 40
5.0
  9
$AUNITS
 70
     0
  9
$AUPREC
 70
     0
  9
$MENU
  1
ROPLANS
  9
$ELEVATION
 40
0.0
  9
$PELEVATION
 40
0.0
  9
$THICKNESS
 40
0.0
  9
$LIMCHECK
 70
     0
  9
$BLIPMODE
 70
     1
  9
$CHAMFERA
 40
0.0
  9
$CHAMFERB
 40
0.0
  9
$SKPOLY
 70
     0
  9
$TDCREATE
 40
2450392.957851
  9
$TDUPDATE
 40
2455944.698999
  9
$TDINDWG
 40
3.037655
  9
$TDUSRTIMER
 40
3.037655
  9
$USRTIMER
 70
     1
  9
$ANGBASE
 50
0.0
  9
$ANGDIR
 70
     0
  9
$PDMODE
 70
     0
  9
$PDSIZE
 40
0.0
  9
$PLINEWID
 40
0.0
  9
$COORDS
 70
     2
  9
$SPLFRAME
 70
     0
  9
$SPLINETYPE
 70
     6
  9
$SPLINESEGS
 70
     8
  9
$ATTDIA
 70
     0
  9
$ATTREQ
 70
     0
  9
$HANDLING
 70
     1
  9
$HANDSEED
  5
103
  9
$SURFTAB1
 70
    24
  9
$SURFTAB2
 70
    24
  9
$SURFTYPE
 70
     6
  9
$SURFU
 70
     6
  9
$SURFV
 70
     6
  9
$UCSNAME
  2

  9
$UCSORG
 10
0.0
 20
0.0
 30
0.0
  9
$UCSXDIR
 10
1.0
 20
0.0
 30
0.0
  9
$UCSYDIR
 10
0.0
 20
1.0
 30
0.0
  9
$PUCSNAME
  2

  9
$PUCSORG
 10
0.0
 20
0.0
 30
0.0
  9
$PUCSXDIR
 10
1.0
 20
0.0
 30
0.0
  9
$PUCSYDIR
 10
0.0
 20
1.0
 30
0.0
  9
$USERI1
 70
     0
  9
$USERI2
 70
     0
  9
$USERI3
 70
     0
  9
$USERI4
 70
     0
  9
$USERI5
 70
     0
  9
$USERR1
 40
0.0
  9
$USERR2
 40
0.0
  9
$USERR3
 40
0.0
  9
$USERR4
 40
0.0
  9
$USERR5
 40
0.0
  9
$WORLDVIEW
 70
     1
  9
$SHADEDGE
 70
     0
  9
$SHADEDIF
 70
    70
  9
$TILEMODE
 70
     1
  9
$MAXACTVP
 70
    16
  9
$PLIMCHECK
 70
     0
  9
$PEXTMIN
 10
-0.805942
 20
0.005011
 30
0.0
  9
$PEXTMAX
 10
20.250094
 20
11.356329
 30
0.0
  9
$PLIMMIN
 10
0.0
 20
0.0
  9
$PLIMMAX
 10
12.0
 20
9.0
  9
$UNITMODE
 70
     0
  9
$VISRETAIN
 70
     0
  9
$PLINEGEN
 70
     0
  9
$PSLTSCALE
 70
     0
  0
ENDSEC
  0
SECTION
  2
TABLES
  0
TABLE
  2
VPORT
 70
     2
  0
VPORT
  2
*ACTIVE
 70
     0
 10
0.0
 20
0.0
 11
1.0
 21
1.0
 12
49.19962
 22
321.506213
 13
0.0
 23
0.0
 14
1.0
 24
1.0
 15
20.0
 25
20.0
 16
0.0
 26
0.0
 36
1.0
 17
0.0
 27
0.0
 37
0.0
 40
661.373242
 41
1.903766
 42
50.0
 43
0.0
 44
0.0
 50
0.0
 51
0.0
 71
     0
 72
   100
 73
     1
 74
     1
 75
     0
 76
     0
 77
     0
 78
     0
  0
ENDTAB
  0
TABLE
  2
LTYPE
 70
     2
  0
LTYPE
  2
CONTINUOUS
 70
     0
  3
Solid Line
 72
    65
 73
     0
 40
0.0
  0
LTYPE
  2
22
 70
     0
  3

 72
    65
 73
     2
 40
1.4
 49
1.2
 49
-0.2
  0
ENDTAB
  0
TABLE
  2
LAYER
 70
    10
  0
LAYER
  2
0
 70
     0
 62
     7
  6
CONTINUOUS
  0
LAYER
  2
DEFPOINTS
 70
     0
 62
     7
  6
CONTINUOUS
  0
LAYER
  2
TEAM-BODY
 70
     0
 62
     2
  6
CONTINUOUS
  0
LAYER
  2
TEAM-MAS
 70
     0
 62
     9
  6
CONTINUOUS
  0
LAYER
  2
TEAM-TXT
 70
     0
 62
    11
  6
CONTINUOUS
  0
LAYER
  2
TEAM-DET1
 70
     0
 62
     4
  6
CONTINUOUS
  0
LAYER
  2
TEAM-HIDE
 70
     0
 62
     8
  6
22
  0
LAYER
  2
TEAM-KAN
 70
     0
 62
     6
  6
CONTINUOUS
  0
LAYER
  2
TEAM-DET3
 70
     0
 62
    14
  6
CONTINUOUS
  0
LAYER
  2
TEAM-INSP
 70
     0
 62
     5
  6
CONTINUOUS
  0
ENDTAB
  0
TABLE
  2
STYLE
 70
     2
  0
STYLE
  2
STANDARD
 70
     0
 40
0.0
 41
1.0
 50
0.0
 71
     0
 42
200.0
  3
txt
  4

  0
STYLE
  2
TEAM
 70
     0
 40
0.0
 41
0.8
 50
15.0
 71
     0
 42
7.0
  3
ROMANS.shx
  4

  0
ENDTAB
  0
TABLE
  2
VIEW
 70
     0
  0
ENDTAB
  0
TABLE
  2
UCS
 70
     0
  0
ENDTAB
  0
TABLE
  2
APPID
 70
     1
  0
APPID
  2
ACAD
 70
     0
  0
ENDTAB
  0
TABLE
  2
DIMSTYLE
 70
     1
  0
DIMSTYLE
  2
TEAM
 70
     0
  3

  4

  5

  6

  7

 40
0.0
 41
20.0
 42
10.0
 43
1.0
 44
1.0
 45
0.0
 46
0.0
 47
0.0
 48
0.0
140
35.0
141
1.0
142
0.0
143
25.4
144
1.0
145
0.0
146
1.0
147
7.0
 71
     0
 72
     0
 73
     0
 74
     0
 75
     0
 76
     0
 77
     0
 78
     0
170
     0
171
     2
172
     0
173
     0
174
     0
175
     0
176
     9
177
     9
178
    11
  0
ENDTAB
  0
ENDSEC
  0
SECTION
  2
BLOCKS
  0
BLOCK
  8
0
  2
$MODEL_SPACE
 70
     0
 10
0.0
 20
0.0
 30
0.0
  3
$MODEL_SPACE
  1

  0
ENDBLK
  5
E0
  8
0
  0
BLOCK
 67
     1
  8
0
  2
$PAPER_SPACE
 70
     0
 10
0.0
 20
0.0
 30
0.0
  3
$PAPER_SPACE
  1

  0
ENDBLK
  5
DE
 67
     1
  8
0
  0
BLOCK
  8
0
  2
*D0
 70
     1
 10
0.0
 20
0.0
 30
0.0
  3
*D0
  1

  0
LINE
  5
22
  8
0
  6
BYBLOCK
 62
     9
 10
3600.0
 20
276602.096929
 30
0.0
 11
3600.0
 21
276633.612424
 31
0.0
  0
LINE
  5
23
  8
0
  6
BYBLOCK
 62
     9
 10
4400.0
 20
276602.096929
 30
0.0
 11
4400.0
 21
276633.612424
 31
0.0
  0
LINE
  5
24
  8
0
  6
BYBLOCK
 62
     9
 10
3620.0
 20
276632.612424
 30
0.0
 11
3952.166667
 21
276632.612424
 31
0.0
  0
LINE
  5
25
  8
0
  6
BYBLOCK
 62
     9
 10
4380.0
 20
276632.612424
 30
0.0
 11
4047.833333
 21
276632.612424
 31
0.0
  0
SOLID
  5
26
  8
0
  6
BYBLOCK
 62
     9
 10
3620.0
 20
276635.945757
 30
0.0
 11
3620.0
 21
276629.27909
 31
0.0
 12
3600.0
 22
276632.612424
 32
0.0
 13
3600.0
 23
276632.612424
 33
0.0
  0
SOLID
  5
27
  8
0
  6
BYBLOCK
 62
     9
 10
4380.0
 20
276635.945757
 30
0.0
 11
4380.0
 21
276629.27909
 31
0.0
 12
4400.0
 22
276632.612424
 32
0.0
 13
4400.0
 23
276632.612424
 33
0.0
  0
TEXT
  5
28
  8
0
  6
BYBLOCK
 62
    11
 10
3959.166667
 20
276615.112424
 30
0.0
 40
35.0
  1
800
  0
POINT
  5
29
  8
DEFPOINTS
  6
BYBLOCK
 62
     0
 10
3600.0
 20
276592.096929
 30
0.0
  0
POINT
  5
2B
  8
DEFPOINTS
  6
BYBLOCK
 62
     0
 10
4400.0
 20
276592.096929
 30
0.0
  0
POINT
  5
2C
  8
DEFPOINTS
  6
BYBLOCK
 62
     0
 10
4400.0
 20
276632.612424
 30
0.0
  0
ENDBLK
  5
2E
  8
0
  0
BLOCK
  8
0
  2
*D1
 70
     1
 10
0.0
 20
0.0
 30
0.0
  3
*D1
  1

  0
LINE
  5
57
  8
0
  6
BYBLOCK
 62
     9
 10
4035.0
 20
276170.0
 30
0.0
 11
4435.927146
 21
276170.0
 31
0.0
  0
LINE
  5
58
  8
0
  6
BYBLOCK
 62
     9
 10
4400.758443
 20
276600.0
 30
0.0
 11
4435.927146
 21
276600.0
 31
0.0
  0
LINE
  5
59
  8
0
  6
BYBLOCK
 62
     9
 10
4434.927146
 20
276190.0
 30
0.0
 11
4434.927146
 21
276334.25
 31
0.0
  0
LINE
  5
5A
  8
0
  6
BYBLOCK
 62
     9
 10
4434.927146
 20
276580.0
 30
0.0
 11
4434.927146
 21
276435.75
 31
0.0
  0
SOLID
  5
5B
  8
0
  6
BYBLOCK
 62
     9
 10
4431.593813
 20
276190.0
 30
0.0
 11
4438.26048
 21
276190.0
 31
0.0
 12
4434.927146
 22
276170.0
 32
0.0
 13
4434.927146
 23
276170.0
 33
0.0
  0
SOLID
  5
5C
  8
0
  6
BYBLOCK
 62
     9
 10
4431.593813
 20
276580.0
 30
0.0
 11
4438.26048
 21
276580.0
 31
0.0
 12
4434.927146
 22
276600.0
 32
0.0
 13
4434.927146
 23
276600.0
 33
0.0
  0
TEXT
  5
5D
  8
0
  6
BYBLOCK
 62
    11
 10
4452.427146
 20
276341.25
 30
0.0
 40
35.0
  1
430
 50
90.0
  0
POINT
  5
5E
  8
DEFPOINTS
  6
BYBLOCK
 62
     0
 10
4025.0
 20
276170.0
 30
0.0
  0
POINT
  5
5F
  8
DEFPOINTS
  6
BYBLOCK
 62
     0
 10
4390.758443
 20
276600.0
 30
0.0
  0
POINT
  5
60
  8
DEFPOINTS
  6
BYBLOCK
 62
     0
 10
4434.927146
 20
276600.0
 30
0.0
  0
ENDBLK
  5
62
  8
0
  0
BLOCK
  8
0
  2
*D2
 70
     1
 10
0.0
 20
0.0
 30
0.0
  3
*D2
  1

  0
LINE
  5
49
  8
0
  6
BYBLOCK
 62
     9
 10
4010.0
 20
276000.0
 30
0.0
 11
4483.7537
 21
276000.0
 31
0.0
  0
LINE
  5
4A
  8
0
  6
BYBLOCK
 62
     9
 10
4400.758443
 20
276600.0
 30
0.0
 11
4483.7537
 21
276600.0
 31
0.0
  0
LINE
  5
4B
  8
0
  6
BYBLOCK
 62
     9
 10
4482.7537
 20
276020.0
 30
0.0
 11
4482.7537
 21
276252.166667
 31
0.0
  0
LINE
  5
4C
  8
0
  6
BYBLOCK
 62
     9
 10
4482.7537
 20
276580.0
 30
0.0
 11
4482.7537
 21
276347.833333
 31
0.0
  0
SOLID
  5
4D
  8
0
  6
BYBLOCK
 62
     9
 10
4479.420367
 20
276020.0
 30
0.0
 11
4486.087034
 21
276020.0
 31
0.0
 12
4482.7537
 22
276000.0
 32
0.0
 13
4482.7537
 23
276000.0
 33
0.0
  0
SOLID
  5
4E
  8
0
  6
BYBLOCK
 62
     9
 10
4479.420367
 20
276580.0
 30
0.0
 11
4486.087034
 21
276580.0
 31
0.0
 12
4482.7537
 22
276600.0
 32
0.0
 13
4482.7537
 23
276600.0
 33
0.0
  0
TEXT
  5
4F
  8
0
  6
BYBLOCK
 62
    11
 10
4500.2537
 20
276259.166667
 30
0.0
 40
35.0
  1
600
 50
90.0
  0
POINT
  5
50
  8
DEFPOINTS
  6
BYBLOCK
 62
     0
 10
4000.0
 20
276000.0
 30
0.0
  0
POINT
  5
51
  8
DEFPOINTS
  6
BYBLOCK
 62
     0
 10
4390.758443
 20
276600.0
 30
0.0
  0
POINT
  5
52
  8
DEFPOINTS
  6
BYBLOCK
 62
     0
 10
4482.7537
 20
276600.0
 30
0.0
  0
ENDBLK
  5
54
  8
0
  0
ENDSEC
  0
SECTION
  2
ENTITIES
  0
DIMENSION
  5
20
  8
TEAM-MAS
  2
*D0
 10
400.0
 20
632.612424
 30
0.0
 11
0.0
 21
632.612424
 31
0.0
 12
-4000.0
 22
-276000.0
 32
0.0
 13
-400.0
 23
592.096929
 33
0.0
 14
400.0
 24
592.096929
 34
0.0
  0
POLYLINE
  5
2F
  8
TEAM-BODY
 66
     1
 10
0.0
 20
0.0
 30
0.0
  0
VERTEX
  5
E6
  8
TEAM-BODY
 10
-384.0
 20
568.096929
 30
0.0
  0
VERTEX
  5
E7
  8
TEAM-BODY
 10
-392.0
 20
568.096929
 30
0.0
 42
-0.414214
  0
VERTEX
  5
E8
  8
TEAM-BODY
 10
-400.0
 20
576.096929
 30
0.0
  0
VERTEX
  5
E9
  8
TEAM-BODY
 10
-400.0
 20
592.096929
 30
0.0
 42
-0.460626
  0
VERTEX
  5
EA
  8
TEAM-BODY
 10
-390.758443
 20
600.0
 30
0.0
  0
VERTEX
  5
EB
  8
TEAM-BODY
 10
-360.012765
 20
600.0
 30
0.0
 42
-0.390184
  0
VERTEX
  5
EC
  8
TEAM-BODY
 10
-335.098274
 20
577.065947
 30
0.0
  0
VERTEX
  5
ED
  8
TEAM-BODY
 10
-264.499626
 20
259.058253
 30
0.0
 42
0.375544
  0
VERTEX
  5
EE
  8
TEAM-BODY
 10
-189.403606
 20
185.214054
 30
0.0
  0
VERTEX
  5
EF
  8
TEAM-BODY
 10
-40.0
 20
175.0
 30
0.0
 42
-0.232609
  0
VERTEX
  5
F0
  8
TEAM-BODY
 10
-35.0
 20
172.5
 30
0.0
 42
0.241952
  0
VERTEX
  5
F1
  8
TEAM-BODY
 10
-30.0
 20
170.0
 30
0.0
  0
VERTEX
  5
F2
  8
TEAM-BODY
 10
-25.0
 20
170.0
 30
0.0
  0
SEQEND
  5
F3
  8
TEAM-BODY
  0
TEXT
  5
31
  8
TEAM-TXT
 10
-298.647445
 20
545.088243
 30
0.0
 40
30.0
  1
team 111360
 41
0.7
 51
15.0
  7
TEAM
  0
LINE
  5
34
  8
TEAM-HIDE
 10
196.698117
 20
0.0
 30
0.0
 11
-198.463063
 21
0.0
 31
0.0
  0
LINE
  5
37
  8
TEAM-DET1
 10
-360.012765
 20
600.0
 30
0.0
 11
360.012765
 21
600.0
 31
0.0
  0
LINE
  5
39
  8
TEAM-DET1
 10
-384.0
 20
568.096929
 30
0.0
 11
-334.421554
 21
568.096929
 31
0.0
  0
LINE
  5
3A
  8
TEAM-DET3
 10
-198.463063
 20
0.0
 30
0.0
 11
-198.463063
 21
40.0
 31
0.0
  0
LINE
  5
3C
  8
TEAM-DET3
 10
-168.463063
 20
0.0
 30
0.0
 11
-168.463063
 21
40.0
 31
0.0
  0
LINE
  5
3D
  8
TEAM-DET3
 10
-168.463063
 20
40.0
 30
0.0
 11
-198.463063
 21
40.0
 31
0.0
  0
LINE
  5
3E
  8
TEAM-DET3
 10
-193.463063
 20
40.0
 30
0.0
 11
-193.463063
 21
88.237384
 31
0.0
  0
LINE
  5
3F
  8
TEAM-DET3
 10
-173.463063
 20
88.237384
 30
0.0
 11
-193.463063
 21
88.237384
 31
0.0
  0
LINE
  5
40
  8
TEAM-DET3
 10
-173.463063
 20
40.0
 30
0.0
 11
-173.463063
 21
88.237384
 31
0.0
  0
LINE
  5
41
  8
TEAM-DET3
 10
-198.463063
 20
0.0
 30
0.0
 11
-168.463063
 21
0.0
 31
0.0
  0
LINE
  5
42
  8
TEAM-DET3
 10
-189.04512
 20
132.1941
 30
0.0
 11
-189.04512
 21
185.189546
 31
0.0
  0
LINE
  5
43
  8
TEAM-DET3
 10
-177.881007
 20
132.1941
 30
0.0
 11
-177.881007
 21
184.426305
 31
0.0
  0
LINE
  5
44
  8
TEAM-DET3
 10
-173.463063
 20
88.237384
 30
0.0
 11
-177.881007
 21
132.1941
 31
0.0
  0
LINE
  5
45
  8
TEAM-DET3
 10
-193.463063
 20
88.237384
 30
0.0
 11
-189.04512
 21
132.1941
 31
0.0
  0
LINE
  5
46
  8
TEAM-DET3
 10
-189.04512
 20
132.1941
 30
0.0
 11
-177.881007
 21
132.1941
 31
0.0
  0
DIMENSION
  5
47
  8
TEAM-MAS
  2
*D2
 10
482.7537
 20
600.0
 30
0.0
 11
482.7537
 21
300.0
 31
0.0
 12
-4000.0
 22
-276000.0
 32
0.0
 13
0.0
 23
0.0
 33
0.0
 14
390.758443
 24
600.0
 34
0.0
 50
90.0
  0
DIMENSION
  5
55
  8
TEAM-MAS
  2
*D1
 10
434.927146
 20
600.0
 30
0.0
 11
434.927146
 21
385.0
 31
0.0
 12
-4000.0
 22
-276000.0
 32
0.0
 13
25.0
 23
170.0
 33
0.0
 14
390.758443
 24
600.0
 34
0.0
 50
90.0
  0
LINE
  5
63
  8
TEAM-DET1
 10
384.0
 20
568.096929
 30
0.0
 11
334.421554
 21
568.096929
 31
0.0
  0
LINE
  5
64
  8
TEAM-DET3
 10
191.698117
 20
88.237384
 30
0.0
 11
171.698117
 21
88.237384
 31
0.0
  0
LINE
  5
65
  8
TEAM-DET3
 10
196.698117
 20
40.0
 30
0.0
 11
166.698117
 21
40.0
 31
0.0
  0
LINE
  5
66
  8
TEAM-DET3
 10
166.698117
 20
0.0
 30
0.0
 11
196.698117
 21
0.0
 31
0.0
  0
LINE
  5
67
  8
TEAM-DET3
 10
176.116061
 20
132.1941
 30
0.0
 11
187.280174
 21
132.1941
 31
0.0
  0
LINE
  5
68
  8
TEAM-DET3
 10
171.698117
 20
40.0
 30
0.0
 11
171.698117
 21
88.237384
 31
0.0
  0
LINE
  5
69
  8
TEAM-DET3
 10
166.698117
 20
0.0
 30
0.0
 11
166.698117
 21
40.0
 31
0.0
  0
LINE
  5
6A
  8
TEAM-DET3
 10
176.116061
 20
132.1941
 30
0.0
 11
176.116061
 21
184.305644
 31
0.0
  0
LINE
  5
6B
  8
TEAM-DET3
 10
171.698117
 20
88.237384
 30
0.0
 11
176.116061
 21
132.1941
 31
0.0
  0
LINE
  5
6C
  8
TEAM-DET3
 10
191.698117
 20
40.0
 30
0.0
 11
191.698117
 21
88.237384
 31
0.0
  0
LINE
  5
6D
  8
TEAM-DET3
 10
196.698117
 20
0.0
 30
0.0
 11
196.698117
 21
40.0
 31
0.0
  0
LINE
  5
6E
  8
TEAM-DET3
 10
187.280174
 20
132.1941
 30
0.0
 11
187.280174
 21
185.068884
 31
0.0
  0
LINE
  5
6F
  8
TEAM-DET3
 10
191.698117
 20
88.237384
 30
0.0
 11
187.280174
 21
132.1941
 31
0.0
  0
CIRCLE
  5
70
  8
TEAM-INSP
 10
0.0
 20
0.0
 30
0.0
 40
7.1
  0
LINE
  5
72
  8
TEAM-KAN
 10
-25.0
 20
170.0
 30
0.0
 11
25.0
 21
170.0
 31
0.0
  0
POLYLINE
  5
74
  8
TEAM-BODY
 66
     1
 10
0.0
 20
0.0
 30
0.0
  0
VERTEX
  5
F4
  8
TEAM-BODY
 10
384.0
 20
568.096929
 30
0.0
  0
VERTEX
  5
F5
  8
TEAM-BODY
 10
392.0
 20
568.096929
 30
0.0
 42
0.414214
  0
VERTEX
  5
F6
  8
TEAM-BODY
 10
400.0
 20
576.096929
 30
0.0
  0
VERTEX
  5
F7
  8
TEAM-BODY
 10
400.0
 20
592.096929
 30
0.0
 42
0.460626
  0
VERTEX
  5
F8
  8
TEAM-BODY
 10
390.758443
 20
600.0
 30
0.0
  0
VERTEX
  5
F9
  8
TEAM-BODY
 10
360.012765
 20
600.0
 30
0.0
 42
0.390184
  0
VERTEX
  5
FA
  8
TEAM-BODY
 10
335.098274
 20
577.065947
 30
0.0
  0
VERTEX
  5
FB
  8
TEAM-BODY
 10
264.499626
 20
259.058253
 30
0.0
 42
-0.375544
  0
VERTEX
  5
FC
  8
TEAM-BODY
 10
189.403606
 20
185.214054
 30
0.0
  0
VERTEX
  5
FD
  8
TEAM-BODY
 10
40.0
 20
175.0
 30
0.0
 42
0.232609
  0
VERTEX
  5
FE
  8
TEAM-BODY
 10
35.0
 20
172.5
 30
0.0
 42
-0.241952
  0
VERTEX
  5
FF
  8
TEAM-BODY
 10
30.0
 20
170.0
 30
0.0
  0
VERTEX
  5
100
  8
TEAM-BODY
 10
25.0
 20
170.0
 30
0.0
  0
SEQEND
  5
101
  8
TEAM-BODY
  0
ENDSEC
  0
EOF
