  0
SECTION
  2
HEADER
  9
$ACADVER
  1
AC1009
  9
$INSBASE
 10
0.0
 20
0.0
 30
0.0
  9
$EXTMIN
 10
-376.256032
 20
-10.01947
 30
-0.001526
  9
$EXTMAX
 10
473.63522
 20
628.070585
 30
0.0
  9
$LIMMIN
 10
-376.256032
 20
-10.01947
  9
$LIMMAX
 10
473.63522
 20
628.070585
  9
$ORTHOMODE
 70
     1
  9
$REGENMODE
 70
     1
  9
$FILLMODE
 70
     1
  9
$QTEXTMODE
 70
     0
  9
$MIRRTEXT
 70
     0
  9
$DRAGMODE
 70
     2
  9
$LTSCALE
 40
50.0
  9
$OSMODE
 70
     7
  9
$ATTMODE
 70
     1
  9
$TEXTSIZE
 40
200.0
  9
$TRACEWID
 40
1.0
  9
$TEXTSTYLE
  7
STANDARD
  9
$CLAYER
  8
TEAM-MAS
  9
$CELTYPE
  6
BYLAYER
  9
$CECOLOR
 62
   256
  9
$DIMSCALE
 40
0.0
  9
$DIMASZ
 40
20.0
  9
$DIMEXO
 40
10.0
  9
$DIMDLI
 40
1.0
  9
$DIMRND
 40
0.0
  9
$DIMDLE
 40
0.0
  9
$DIMEXE
 40
1.0
  9
$DIMTP
 40
0.0
  9
$DIMTM
 40
0.0
  9
$DIMTXT
 40
35.0
  9
$DIMCEN
 40
1.0
  9
$DIMTSZ
 40
0.0
  9
$DIMTOL
 70
     0
  9
$DIMLIM
 70
     0
  9
$DIMTIH
 70
     0
  9
$DIMTOH
 70
     0
  9
$DIMSE1
 70
     0
  9
$DIMSE2
 70
     0
  9
$DIMTAD
 70
     0
  9
$DIMZIN
 70
     0
  9
$DIMBLK
  1

  9
$DIMASO
 70
     1
  9
$DIMSHO
 70
     0
  9
$DIMPOST
  1

  9
$DIMAPOST
  1

  9
$DIMALT
 70
     0
  9
$DIMALTD
 70
     2
  9
$DIMALTF
 40
25.4
  9
$DIMLFAC
 40
1.0
  9
$DIMTOFL
 70
     0
  9
$DIMTVP
 40
0.0
  9
$DIMTIX
 70
     0
  9
$DIMSOXD
 70
     0
  9
$DIMSAH
 70
     0
  9
$DIMBLK1
  1

  9
$DIMBLK2
  1

  9
$DIMSTYLE
  2
TEAM
  9
$DIMCLRD
 70
     9
  9
$DIMCLRE
 70
     9
  9
$DIMCLRT
 70
    11
  9
$DIMTFAC
 40
1.0
  9
$DIMGAP
 40
7.0
  9
$LUNITS
 70
     2
  9
$LUPREC
 70
     1
  9
$SKETCHINC
 40
1.0
  9
$FILLETRAD
 40
5.0
  9
$AUNITS
 70
     0
  9
$AUPREC
 70
     0
  9
$MENU
  1
ROPLANS
  9
$ELEVATION
 40
0.0
  9
$PELEVATION
 40
0.0
  9
$THICKNESS
 40
0.0
  9
$LIMCHECK
 70
     0
  9
$BLIPMODE
 70
     1
  9
$CHAMFERA
 40
0.0
  9
$CHAMFERB
 40
0.0
  9
$SKPOLY
 70
     0
  9
$TDCREATE
 40
2450392.957851
  9
$TDUPDATE
 40
2455944.698999
  9
$TDINDWG
 40
3.037655
  9
$TDUSRTIMER
 40
3.037655
  9
$USRTIMER
 70
     1
  9
$ANGBASE
 50
0.0
  9
$ANGDIR
 70
     0
  9
$PDMODE
 70
     0
  9
$PDSIZE
 40
0.0
  9
$PLINEWID
 40
0.0
  9
$COORDS
 70
     2
  9
$SPLFRAME
 70
     0
  9
$SPLINETYPE
 70
     6
  9
$SPLINESEGS
 70
     8
  9
$ATTDIA
 70
     0
  9
$ATTREQ
 70
     0
  9
$HANDLING
 70
     1
  9
$HANDSEED
  5
B1
  9
$SURFTAB1
 70
    24
  9
$SURFTAB2
 70
    24
  9
$SURFTYPE
 70
     6
  9
$SURFU
 70
     6
  9
$SURFV
 70
     6
  9
$UCSNAME
  2

  9
$UCSORG
 10
0.0
 20
0.0
 30
0.0
  9
$UCSXDIR
 10
1.0
 20
0.0
 30
0.0
  9
$UCSYDIR
 10
0.0
 20
1.0
 30
0.0
  9
$PUCSNAME
  2

  9
$PUCSORG
 10
0.0
 20
0.0
 30
0.0
  9
$PUCSXDIR
 10
1.0
 20
0.0
 30
0.0
  9
$PUCSYDIR
 10
0.0
 20
1.0
 30
0.0
  9
$USERI1
 70
     0
  9
$USERI2
 70
     0
  9
$USERI3
 70
     0
  9
$USERI4
 70
     0
  9
$USERI5
 70
     0
  9
$USERR1
 40
0.0
  9
$USERR2
 40
0.0
  9
$USERR3
 40
0.0
  9
$USERR4
 40
0.0
  9
$USERR5
 40
0.0
  9
$WORLDVIEW
 70
     1
  9
$SHADEDGE
 70
     0
  9
$SHADEDIF
 70
    70
  9
$TILEMODE
 70
     1
  9
$MAXACTVP
 70
    16
  9
$PLIMCHECK
 70
     0
  9
$PEXTMIN
 10
-0.805942
 20
0.005011
 30
0.0
  9
$PEXTMAX
 10
20.250094
 20
11.356329
 30
0.0
  9
$PLIMMIN
 10
0.0
 20
0.0
  9
$PLIMMAX
 10
12.0
 20
9.0
  9
$UNITMODE
 70
     0
  9
$VISRETAIN
 70
     0
  9
$PLINEGEN
 70
     0
  9
$PSLTSCALE
 70
     0
  0
ENDSEC
  0
SECTION
  2
TABLES
  0
TABLE
  2
VPORT
 70
     2
  0
VPORT
  2
*ACTIVE
 70
     0
 10
0.0
 20
0.0
 11
1.0
 21
1.0
 12
48.689594
 22
309.025557
 13
0.0
 23
0.0
 14
1.0
 24
1.0
 15
20.0
 25
20.0
 16
0.0
 26
0.0
 36
1.0
 17
0.0
 27
0.0
 37
0.0
 40
642.09062
 41
1.903766
 42
50.0
 43
0.0
 44
0.0
 50
0.0
 51
0.0
 71
     0
 72
   100
 73
     1
 74
     1
 75
     0
 76
     0
 77
     0
 78
     0
  0
ENDTAB
  0
TABLE
  2
LTYPE
 70
     2
  0
LTYPE
  2
CONTINUOUS
 70
     0
  3
Solid Line
 72
    65
 73
     0
 40
0.0
  0
LTYPE
  2
22
 70
     0
  3

 72
    65
 73
     2
 40
1.4
 49
1.2
 49
-0.2
  0
ENDTAB
  0
TABLE
  2
LAYER
 70
     9
  0
LAYER
  2
0
 70
     0
 62
     7
  6
CONTINUOUS
  0
LAYER
  2
DEFPOINTS
 70
     0
 62
     7
  6
CONTINUOUS
  0
LAYER
  2
TEAM-BODY
 70
     0
 62
     2
  6
CONTINUOUS
  0
LAYER
  2
TEAM-MAS
 70
     0
 62
     9
  6
CONTINUOUS
  0
LAYER
  2
TEAM-TXT
 70
     0
 62
    11
  6
CONTINUOUS
  0
LAYER
  2
TEAM-DET1
 70
     0
 62
     4
  6
CONTINUOUS
  0
LAYER
  2
TEAM-HIDE
 70
     0
 62
     8
  6
22
  0
LAYER
  2
TEAM-KAN
 70
     0
 62
     6
  6
CONTINUOUS
  0
LAYER
  2
TEAM-INSP
 70
     0
 62
     5
  6
CONTINUOUS
  0
ENDTAB
  0
TABLE
  2
STYLE
 70
     2
  0
STYLE
  2
STANDARD
 70
     0
 40
0.0
 41
1.0
 50
0.0
 71
     0
 42
200.0
  3
txt
  4

  0
STYLE
  2
TEAM
 70
     0
 40
0.0
 41
0.8
 50
15.0
 71
     0
 42
7.0
  3
ROMANS.shx
  4

  0
ENDTAB
  0
TABLE
  2
VIEW
 70
     0
  0
ENDTAB
  0
TABLE
  2
UCS
 70
     0
  0
ENDTAB
  0
TABLE
  2
APPID
 70
     1
  0
APPID
  2
ACAD
 70
     0
  0
ENDTAB
  0
TABLE
  2
DIMSTYLE
 70
     1
  0
DIMSTYLE
  2
TEAM
 70
     0
  3

  4

  5

  6

  7

 40
0.0
 41
20.0
 42
10.0
 43
1.0
 44
1.0
 45
0.0
 46
0.0
 47
0.0
 48
0.0
140
35.0
141
1.0
142
0.0
143
25.4
144
1.0
145
0.0
146
1.0
147
7.0
 71
     0
 72
     0
 73
     0
 74
     0
 75
     0
 76
     0
 77
     0
 78
     0
170
     0
171
     2
172
     0
173
     0
174
     0
175
     0
176
     9
177
     9
178
    11
  0
ENDTAB
  0
ENDSEC
  0
SECTION
  2
BLOCKS
  0
BLOCK
  8
0
  2
$MODEL_SPACE
 70
     0
 10
0.0
 20
0.0
 30
0.0
  3
$MODEL_SPACE
  1

  0
ENDBLK
  5
AA
  8
0
  0
BLOCK
 67
     1
  8
0
  2
$PAPER_SPACE
 70
     0
 10
0.0
 20
0.0
 30
0.0
  3
$PAPER_SPACE
  1

  0
ENDBLK
  5
A8
 67
     1
  8
0
  0
BLOCK
  8
0
  2
*D0
 70
     1
 10
0.0
 20
0.0
 30
0.0
  3
*D0
  1

  0
LINE
  5
3F
  8
0
  6
BYBLOCK
 62
     9
 10
8379.000006
 20
284580.0
 30
0.0
 11
8411.807739
 21
284580.0
 31
0.0
  0
LINE
  5
40
  8
0
  6
BYBLOCK
 62
     9
 10
8036.33
 20
284149.999994
 30
0.0
 11
8411.807739
 21
284149.999994
 31
0.0
  0
LINE
  5
41
  8
0
  6
BYBLOCK
 62
     9
 10
8410.807739
 20
284560.0
 30
0.0
 11
8410.807739
 21
284415.749997
 31
0.0
  0
LINE
  5
42
  8
0
  6
BYBLOCK
 62
     9
 10
8410.807739
 20
284169.999994
 30
0.0
 11
8410.807739
 21
284314.249997
 31
0.0
  0
SOLID
  5
43
  8
0
  6
BYBLOCK
 62
     9
 10
8407.474406
 20
284560.0
 30
0.0
 11
8414.141072
 21
284560.0
 31
0.0
 12
8410.807739
 22
284580.0
 32
0.0
 13
8410.807739
 23
284580.0
 33
0.0
  0
SOLID
  5
44
  8
0
  6
BYBLOCK
 62
     9
 10
8407.474406
 20
284169.999994
 30
0.0
 11
8414.141072
 21
284169.999994
 31
0.0
 12
8410.807739
 22
284149.999994
 32
0.0
 13
8410.807739
 23
284149.999994
 33
0.0
  0
TEXT
  5
45
  8
0
  6
BYBLOCK
 62
    11
 10
8428.307739
 20
284321.249997
 30
0.0
 40
35.0
  1
430
 50
90.0
  0
POINT
  5
46
  8
DEFPOINTS
  6
BYBLOCK
 62
     0
 10
8369.000006
 20
284580.0
 30
0.0
  0
POINT
  5
47
  8
DEFPOINTS
  6
BYBLOCK
 62
     0
 10
8026.33
 20
284149.999994
 30
0.0
  0
POINT
  5
48
  8
DEFPOINTS
  6
BYBLOCK
 62
     0
 10
8410.807739
 20
284149.999994
 30
0.0
  0
ENDBLK
  5
4A
  8
0
  0
BLOCK
  8
0
  2
*D1
 70
     1
 10
0.0
 20
0.0
 30
0.0
  3
*D1
  1

  0
LINE
  5
31
  8
0
  6
BYBLOCK
 62
     9
 10
8375.000006
 20
284584.0
 30
0.0
 11
8375.000006
 21
284611.551111
 31
0.0
  0
LINE
  5
32
  8
0
  6
BYBLOCK
 62
     9
 10
7624.999994
 20
284584.0
 30
0.0
 11
7624.999994
 21
284611.551111
 31
0.0
  0
LINE
  5
33
  8
0
  6
BYBLOCK
 62
     9
 10
8355.000006
 20
284610.551111
 30
0.0
 11
8050.75
 21
284610.551111
 31
0.0
  0
LINE
  5
34
  8
0
  6
BYBLOCK
 62
     9
 10
7644.999994
 20
284610.551111
 30
0.0
 11
7949.25
 21
284610.551111
 31
0.0
  0
SOLID
  5
35
  8
0
  6
BYBLOCK
 62
     9
 10
8355.000006
 20
284613.884445
 30
0.0
 11
8355.000006
 21
284607.217778
 31
0.0
 12
8375.000006
 22
284610.551111
 32
0.0
 13
8375.000006
 23
284610.551111
 33
0.0
  0
SOLID
  5
36
  8
0
  6
BYBLOCK
 62
     9
 10
7644.999994
 20
284613.884445
 30
0.0
 11
7644.999994
 21
284607.217778
 31
0.0
 12
7624.999994
 22
284610.551111
 32
0.0
 13
7624.999994
 23
284610.551111
 33
0.0
  0
TEXT
  5
37
  8
0
  6
BYBLOCK
 62
    11
 10
7956.25
 20
284593.051111
 30
0.0
 40
35.0
  1
750
  0
POINT
  5
38
  8
DEFPOINTS
  6
BYBLOCK
 62
     0
 10
8375.000006
 20
284574.0
 30
0.0
  0
POINT
  5
39
  8
DEFPOINTS
  6
BYBLOCK
 62
     0
 10
7624.999994
 20
284574.0
 30
0.0
  0
POINT
  5
3A
  8
DEFPOINTS
  6
BYBLOCK
 62
     0
 10
7624.999994
 20
284610.551111
 30
0.0
  0
ENDBLK
  5
3C
  8
0
  0
BLOCK
  8
0
  2
*D2
 70
     1
 10
0.0
 20
0.0
 30
0.0
  3
*D2
  1

  0
LINE
  5
22
  8
0
  6
BYBLOCK
 62
     9
 10
8379.000006
 20
284580.0
 30
0.0
 11
8457.109321
 21
284580.0
 31
0.0
  0
LINE
  5
23
  8
0
  6
BYBLOCK
 62
     9
 10
8379.000006
 20
284000.0
 30
0.0
 11
8457.109321
 21
284000.0
 31
0.0
  0
LINE
  5
24
  8
0
  6
BYBLOCK
 62
     9
 10
8456.109321
 20
284560.0
 30
0.0
 11
8456.109321
 21
284340.75
 31
0.0
  0
LINE
  5
25
  8
0
  6
BYBLOCK
 62
     9
 10
8456.109321
 20
284020.0
 30
0.0
 11
8456.109321
 21
284239.25
 31
0.0
  0
SOLID
  5
26
  8
0
  6
BYBLOCK
 62
     9
 10
8452.775987
 20
284560.0
 30
0.0
 11
8459.442654
 21
284560.0
 31
0.0
 12
8456.109321
 22
284580.0
 32
0.0
 13
8456.109321
 23
284580.0
 33
0.0
  0
SOLID
  5
27
  8
0
  6
BYBLOCK
 62
     9
 10
8452.775987
 20
284020.0
 30
0.0
 11
8459.442654
 21
284020.0
 31
0.0
 12
8456.109321
 22
284000.0
 32
0.0
 13
8456.109321
 23
284000.0
 33
0.0
  0
TEXT
  5
28
  8
0
  6
BYBLOCK
 62
    11
 10
8473.609321
 20
284246.25
 30
0.0
 40
35.0
  1
580
 50
90.0
  0
POINT
  5
29
  8
DEFPOINTS
  6
BYBLOCK
 62
     0
 10
8369.000006
 20
284580.0
 30
0.0
  0
POINT
  5
2B
  8
DEFPOINTS
  6
BYBLOCK
 62
     0
 10
8369.000006
 20
284000.0
 30
0.0
  0
POINT
  5
2C
  8
DEFPOINTS
  6
BYBLOCK
 62
     0
 10
8456.109321
 20
284000.0
 30
0.0
  0
ENDBLK
  5
2E
  8
0
  0
ENDSEC
  0
SECTION
  2
ENTITIES
  0
DIMENSION
  5
20
  8
TEAM-MAS
  2
*D2
 10
456.109321
 20
0.0
 30
0.0
 11
456.109321
 21
290.0
 31
0.0
 12
-8000.0
 22
-284000.0
 32
0.0
 13
369.000006
 23
580.0
 33
0.0
 14
369.000006
 24
0.0
 34
0.0
 50
90.0
1001
ACAD
1000
DSTYLE
1002
{
1070
    40
1040
1.0
1002
}
  0
DIMENSION
  5
2F
  8
TEAM-MAS
  2
*D1
 10
-375.000006
 20
610.551111
 30
0.0
 11
0.0
 21
610.551111
 31
0.0
 12
-8000.0
 22
-284000.0
 32
0.0
 13
375.000006
 23
574.0
 33
0.0
 14
-375.000006
 24
574.0
 34
0.0
1001
ACAD
1000
DSTYLE
1002
{
1070
    40
1040
1.0
1002
}
  0
DIMENSION
  5
3D
  8
TEAM-MAS
  2
*D0
 10
410.807739
 20
149.999994
 30
0.0
 11
410.807739
 21
364.999997
 31
0.0
 12
-8000.0
 22
-284000.0
 32
0.0
 13
369.000006
 23
580.0
 33
0.0
 14
26.33
 24
149.999994
 34
0.0
 50
90.0
1001
ACAD
1000
DSTYLE
1002
{
1070
    40
1040
1.0
1002
}
  0
ARC
  5
4B
  8
TEAM-BODY
 10
-3663.110055
 20
998.110006
 30
0.0
 40
4000.00006
 50
353.3633
 51
353.5389
  0
ARC
  5
4D
  8
TEAM-BODY
 10
184.630003
 20
249.189995
 30
0.0
 40
80.000001
 50
275.5171
 51
348.982
  0
ARC
  5
4E
  8
TEAM-BODY
 10
369.000006
 20
574.0
 30
0.0
 40
6.0
 50
0.0
 51
90.0
  0
ARC
  5
4F
  8
TEAM-BODY
 10
369.000006
 20
554.0
 30
0.0
 40
6.0
 50
270.0
 51
0.0
  0
ARC
  5
50
  8
TEAM-BODY
 10
-3653.785113
 20
997.513994
 30
0.0
 40
3990.675871
 50
348.968439
 51
352.609685
  0
LINE
  5
51
  8
TEAM-BODY
 10
303.740005
 20
484.199999
 30
0.0
 11
310.080005
 21
535.809999
 31
0.0
  0
LINE
  5
52
  8
TEAM-BODY
 10
375.000006
 20
574.0
 30
0.0
 11
375.000006
 21
554.0
 31
0.0
  0
ARC
  5
53
  8
TEAM-DET1
 10
245.580004
 20
428.369998
 30
0.0
 40
50.000001
 50
320.4125
 51
351.7082
  0
ARC
  5
55
  8
TEAM-DET1
 10
155.360002
 20
246.589995
 30
0.0
 40
80.000001
 50
274.6421
 51
348.9438
  0
ARC
  5
56
  8
TEAM-DET1
 10
304.810005
 20
343.069996
 30
0.0
 40
50.000001
 50
140.4093
 51
170.6911
  0
LINE
  5
57
  8
TEAM-DET1
 10
266.280004
 20
374.939997
 30
0.0
 11
284.120004
 21
396.509997
 31
0.0
  0
ARC
  5
58
  8
TEAM-DET1
 10
-3672.55175
 20
996.550462
 30
0.0
 40
3980.684183
 50
348.91564
 51
350.669379
  0
TEXT
  5
59
  8
TEAM-TXT
 10
-279.001804
 20
498.130046
 30
0.0
 40
30.0
  1
team 111364
 41
0.8
 51
15.0
  7
TEAM
  0
ARC
  5
5C
  8
TEAM-BODY
 10
3663.120055
 20
998.110006
 30
0.0
 40
4000.00006
 50
186.4611
 51
186.6367
  0
ARC
  5
5D
  8
TEAM-BODY
 10
-184.620003
 20
249.189995
 30
0.0
 40
80.000001
 50
191.018
 51
264.4829
  0
ARC
  5
5E
  8
TEAM-BODY
 10
-369.000006
 20
574.0
 30
0.0
 40
6.0
 50
90.0
 51
180.0
  0
ARC
  5
5F
  8
TEAM-BODY
 10
-369.000006
 20
554.0
 30
0.0
 40
6.0
 50
180.0
 51
270.0
  0
ARC
  5
60
  8
TEAM-BODY
 10
3653.794855
 20
997.513977
 30
0.0
 40
3990.675613
 50
187.390315
 51
191.031462
  0
ARC
  5
61
  8
TEAM-BODY
 10
41.092434
 20
2160.715578
 30
0.0
 40
2004.781447
 50
263.314199
 51
268.825514
  0
LINE
  5
62
  8
TEAM-BODY
 10
-303.730005
 20
484.199999
 30
0.0
 11
-310.080005
 21
535.809999
 31
0.0
  0
LINE
  5
63
  8
TEAM-BODY
 10
-375.000006
 20
574.0
 30
0.0
 11
-375.000006
 21
554.0
 31
0.0
  0
ARC
  5
64
  8
TEAM-KAN
 10
-29.7
 20
157.999994
 30
0.0
 40
8.0
 50
212.821
 51
270.0
  0
ARC
  5
66
  8
TEAM-KAN
 10
-43.980001
 20
148.779994
 30
0.0
 40
9.0
 50
32.83831
 51
88.74409
  0
ARC
  5
67
  8
TEAM-KAN
 10
29.7
 20
157.999994
 30
0.0
 40
8.0
 50
270.0
 51
327.179
  0
ARC
  5
68
  8
TEAM-KAN
 10
43.990001
 20
148.779994
 30
0.0
 40
9.0
 50
91.2559
 51
147.1617
  0
LINE
  5
69
  8
TEAM-KAN
 10
0.0
 20
149.999994
 30
0.0
 11
-29.7
 21
149.999994
 31
0.0
  0
LINE
  5
6A
  8
TEAM-KAN
 10
0.0
 20
149.999994
 30
0.0
 11
29.7
 21
149.999994
 31
0.0
  0
ARC
  5
6B
  8
TEAM-DET1
 10
-245.580004
 20
428.369998
 30
0.0
 40
50.000001
 50
188.2918
 51
219.5875
  0
ARC
  5
6C
  8
TEAM-DET1
 10
-155.350002
 20
246.589995
 30
0.0
 40
80.000001
 50
191.0562
 51
265.3579
  0
ARC
  5
6D
  8
TEAM-DET1
 10
-304.800005
 20
343.069996
 30
0.0
 40
50.000001
 50
9.30889
 51
39.59065
  0
LINE
  5
6E
  8
TEAM-DET1
 10
-266.270004
 20
374.939997
 30
0.0
 11
-284.110004
 21
396.509997
 31
0.0
  0
ARC
  5
6F
  8
TEAM-DET1
 10
3672.55175
 20
996.550462
 30
0.0
 40
3980.684183
 50
189.330621
 51
191.08436
  0
CIRCLE
  5
70
  8
TEAM-INSP
 10
0.0
 20
0.0
 30
0.0
 40
10.0
  0
ARC
  5
72
  8
TEAM-BODY
 10
-41.092434
 20
2160.715578
 30
0.0
 40
2004.781447
 50
271.174486
 51
276.685801
  0
LINE
  5
73
  8
TEAM-BODY
 10
369.000006
 20
548.0
 30
0.0
 11
-369.000006
 21
548.0
 31
0.0
  0
LINE
  5
74
  8
TEAM-BODY
 10
369.000006
 20
580.0
 30
0.0
 11
-369.000006
 21
580.0
 31
0.0
  0
LINE
  5
75
  8
TEAM-HIDE
 10
369.000006
 20
0.0
 30
0.0
 11
-369.000006
 21
0.0
 31
0.0
  0
ENDSEC
  0
EOF
