  0
SECTION
  2
HEADER
  9
$ACADVER
  1
AC1009
  9
$INSBASE
 10
0.0
 20
0.0
 30
0.0
  9
$EXTMIN
 10
-910.521079
 20
-410.478301
 30
-0.001526
  9
$EXTMAX
 10
953.572531
 20
489.542231
 30
0.0
  9
$LIMMIN
 10
-910.521079
 20
-410.478301
  9
$LIMMAX
 10
953.572531
 20
489.542231
  9
$ORTHOMODE
 70
     1
  9
$REGENMODE
 70
     1
  9
$FILLMODE
 70
     1
  9
$QTEXTMODE
 70
     0
  9
$MIRRTEXT
 70
     0
  9
$DRAGMODE
 70
     2
  9
$LTSCALE
 40
50.0
  9
$OSMODE
 70
     7
  9
$ATTMODE
 70
     1
  9
$TEXTSIZE
 40
200.0
  9
$TRACEWID
 40
1.0
  9
$TEXTSTYLE
  7
STANDARD
  9
$CLAYER
  8
TEAM-MAS
  9
$CELTYPE
  6
BYLAYER
  9
$CECOLOR
 62
   256
  9
$DIMSCALE
 40
0.0
  9
$DIMASZ
 40
20.0
  9
$DIMEXO
 40
10.0
  9
$DIMDLI
 40
1.0
  9
$DIMRND
 40
0.0
  9
$DIMDLE
 40
0.0
  9
$DIMEXE
 40
1.0
  9
$DIMTP
 40
0.0
  9
$DIMTM
 40
0.0
  9
$DIMTXT
 40
35.0
  9
$DIMCEN
 40
1.0
  9
$DIMTSZ
 40
0.0
  9
$DIMTOL
 70
     0
  9
$DIMLIM
 70
     0
  9
$DIMTIH
 70
     0
  9
$DIMTOH
 70
     0
  9
$DIMSE1
 70
     0
  9
$DIMSE2
 70
     0
  9
$DIMTAD
 70
     0
  9
$DIMZIN
 70
     0
  9
$DIMBLK
  1

  9
$DIMASO
 70
     1
  9
$DIMSHO
 70
     0
  9
$DIMPOST
  1

  9
$DIMAPOST
  1

  9
$DIMALT
 70
     0
  9
$DIMALTD
 70
     2
  9
$DIMALTF
 40
25.4
  9
$DIMLFAC
 40
1.0
  9
$DIMTOFL
 70
     0
  9
$DIMTVP
 40
0.0
  9
$DIMTIX
 70
     0
  9
$DIMSOXD
 70
     0
  9
$DIMSAH
 70
     0
  9
$DIMBLK1
  1

  9
$DIMBLK2
  1

  9
$DIMSTYLE
  2
TEAM
  9
$DIMCLRD
 70
     9
  9
$DIMCLRE
 70
     9
  9
$DIMCLRT
 70
    11
  9
$DIMTFAC
 40
1.0
  9
$DIMGAP
 40
7.0
  9
$LUNITS
 70
     2
  9
$LUPREC
 70
     1
  9
$SKETCHINC
 40
1.0
  9
$FILLETRAD
 40
5.0
  9
$AUNITS
 70
     0
  9
$AUPREC
 70
     0
  9
$MENU
  1
ROPLANS
  9
$ELEVATION
 40
0.0
  9
$PELEVATION
 40
0.0
  9
$THICKNESS
 40
0.0
  9
$LIMCHECK
 70
     0
  9
$BLIPMODE
 70
     1
  9
$CHAMFERA
 40
0.0
  9
$CHAMFERB
 40
0.0
  9
$SKPOLY
 70
     0
  9
$TDCREATE
 40
2450392.957851
  9
$TDUPDATE
 40
2455944.698999
  9
$TDINDWG
 40
3.037655
  9
$TDUSRTIMER
 40
3.037655
  9
$USRTIMER
 70
     1
  9
$ANGBASE
 50
0.0
  9
$ANGDIR
 70
     0
  9
$PDMODE
 70
     0
  9
$PDSIZE
 40
0.0
  9
$PLINEWID
 40
0.0
  9
$COORDS
 70
     2
  9
$SPLFRAME
 70
     0
  9
$SPLINETYPE
 70
     6
  9
$SPLINESEGS
 70
     8
  9
$ATTDIA
 70
     0
  9
$ATTREQ
 70
     0
  9
$HANDLING
 70
     1
  9
$HANDSEED
  5
260
  9
$SURFTAB1
 70
    24
  9
$SURFTAB2
 70
    24
  9
$SURFTYPE
 70
     6
  9
$SURFU
 70
     6
  9
$SURFV
 70
     6
  9
$UCSNAME
  2

  9
$UCSORG
 10
0.0
 20
0.0
 30
0.0
  9
$UCSXDIR
 10
1.0
 20
0.0
 30
0.0
  9
$UCSYDIR
 10
0.0
 20
1.0
 30
0.0
  9
$PUCSNAME
  2

  9
$PUCSORG
 10
0.0
 20
0.0
 30
0.0
  9
$PUCSXDIR
 10
1.0
 20
0.0
 30
0.0
  9
$PUCSYDIR
 10
0.0
 20
1.0
 30
0.0
  9
$USERI1
 70
     0
  9
$USERI2
 70
     0
  9
$USERI3
 70
     0
  9
$USERI4
 70
     0
  9
$USERI5
 70
     0
  9
$USERR1
 40
0.0
  9
$USERR2
 40
0.0
  9
$USERR3
 40
0.0
  9
$USERR4
 40
0.0
  9
$USERR5
 40
0.0
  9
$WORLDVIEW
 70
     1
  9
$SHADEDGE
 70
     0
  9
$SHADEDIF
 70
    70
  9
$TILEMODE
 70
     1
  9
$MAXACTVP
 70
    16
  9
$PLIMCHECK
 70
     0
  9
$PEXTMIN
 10
-0.805942
 20
0.005011
 30
0.0
  9
$PEXTMAX
 10
20.250094
 20
11.356329
 30
0.0
  9
$PLIMMIN
 10
0.0
 20
0.0
  9
$PLIMMAX
 10
12.0
 20
9.0
  9
$UNITMODE
 70
     0
  9
$VISRETAIN
 70
     0
  9
$PLINEGEN
 70
     0
  9
$PSLTSCALE
 70
     0
  0
ENDSEC
  0
SECTION
  2
TABLES
  0
TABLE
  2
VPORT
 70
     2
  0
VPORT
  2
*ACTIVE
 70
     0
 10
0.0
 20
0.0
 11
1.0
 21
1.0
 12
21.525726
 22
39.531965
 13
0.0
 23
0.0
 14
1.0
 24
1.0
 15
20.0
 25
20.0
 16
0.0
 26
0.0
 36
1.0
 17
0.0
 27
0.0
 37
0.0
 40
982.38589
 41
1.903766
 42
50.0
 43
0.0
 44
0.0
 50
0.0
 51
0.0
 71
     0
 72
   100
 73
     1
 74
     1
 75
     0
 76
     0
 77
     0
 78
     0
  0
ENDTAB
  0
TABLE
  2
LTYPE
 70
     2
  0
LTYPE
  2
CONTINUOUS
 70
     0
  3
Solid Line
 72
    65
 73
     0
 40
0.0
  0
LTYPE
  2
31
 70
     0
  3

 72
    65
 73
     4
 40
2.1
 49
1.5
 49
-0.3
 49
0.0
 49
-0.3
  0
ENDTAB
  0
TABLE
  2
LAYER
 70
     9
  0
LAYER
  2
0
 70
     0
 62
     7
  6
CONTINUOUS
  0
LAYER
  2
DEFPOINTS
 70
     0
 62
     7
  6
CONTINUOUS
  0
LAYER
  2
TEAM-BODY
 70
     0
 62
     2
  6
CONTINUOUS
  0
LAYER
  2
TEAM-AXE
 70
     0
 62
    10
  6
31
  0
LAYER
  2
TEAM-MAS
 70
     0
 62
     9
  6
CONTINUOUS
  0
LAYER
  2
TEAM-TXT
 70
     0
 62
    11
  6
CONTINUOUS
  0
LAYER
  2
TEAM-DET1
 70
     0
 62
     4
  6
CONTINUOUS
  0
LAYER
  2
TEAM-KAN
 70
     0
 62
     6
  6
CONTINUOUS
  0
LAYER
  2
TEAM-INSP
 70
     0
 62
     5
  6
CONTINUOUS
  0
ENDTAB
  0
TABLE
  2
STYLE
 70
     2
  0
STYLE
  2
STANDARD
 70
     0
 40
0.0
 41
1.0
 50
0.0
 71
     0
 42
200.0
  3
txt
  4

  0
STYLE
  2
TEAM
 70
     0
 40
0.0
 41
0.8
 50
15.0
 71
     0
 42
7.0
  3
ROMANS.shx
  4

  0
ENDTAB
  0
TABLE
  2
VIEW
 70
     0
  0
ENDTAB
  0
TABLE
  2
UCS
 70
     0
  0
ENDTAB
  0
TABLE
  2
APPID
 70
     1
  0
APPID
  2
ACAD
 70
     0
  0
ENDTAB
  0
TABLE
  2
DIMSTYLE
 70
     1
  0
DIMSTYLE
  2
TEAM
 70
     0
  3

  4

  5

  6

  7

 40
0.0
 41
20.0
 42
10.0
 43
1.0
 44
1.0
 45
0.0
 46
0.0
 47
0.0
 48
0.0
140
35.0
141
1.0
142
0.0
143
25.4
144
1.0
145
0.0
146
1.0
147
7.0
 71
     0
 72
     0
 73
     0
 74
     0
 75
     0
 76
     0
 77
     0
 78
     0
170
     0
171
     2
172
     0
173
     0
174
     0
175
     0
176
     9
177
     9
178
    11
  0
ENDTAB
  0
ENDSEC
  0
SECTION
  2
BLOCKS
  0
BLOCK
  8
0
  2
$MODEL_SPACE
 70
     0
 10
0.0
 20
0.0
 30
0.0
  3
$MODEL_SPACE
  1

  0
ENDBLK
  5
1C3
  8
0
  0
BLOCK
 67
     1
  8
0
  2
$PAPER_SPACE
 70
     0
 10
0.0
 20
0.0
 30
0.0
  3
$PAPER_SPACE
  1

  0
ENDBLK
  5
1C1
 67
     1
  8
0
  0
BLOCK
  8
0
  2
*D0
 70
     1
 10
0.0
 20
0.0
 30
0.0
  3
*D0
  1

  0
LINE
  5
31
  8
0
  6
BYBLOCK
 62
     9
 10
900.0
 20
288390.000006
 30
0.0
 11
900.0
 21
288473.015083
 31
0.0
  0
LINE
  5
32
  8
0
  6
BYBLOCK
 62
     9
 10
-900.000027
 20
288390.000006
 30
0.0
 11
-900.000027
 21
288473.015083
 31
0.0
  0
LINE
  5
33
  8
0
  6
BYBLOCK
 62
     9
 10
880.0
 20
288472.015083
 30
0.0
 11
59.499987
 21
288472.015083
 31
0.0
  0
LINE
  5
34
  8
0
  6
BYBLOCK
 62
     9
 10
-880.000027
 20
288472.015083
 30
0.0
 11
-59.500013
 21
288472.015083
 31
0.0
  0
SOLID
  5
35
  8
0
  6
BYBLOCK
 62
     9
 10
880.0
 20
288475.348417
 30
0.0
 11
880.0
 21
288468.68175
 31
0.0
 12
900.0
 22
288472.015083
 32
0.0
 13
900.0
 23
288472.015083
 33
0.0
  0
SOLID
  5
36
  8
0
  6
BYBLOCK
 62
     9
 10
-880.000027
 20
288475.348417
 30
0.0
 11
-880.000027
 21
288468.68175
 31
0.0
 12
-900.000027
 22
288472.015083
 32
0.0
 13
-900.000027
 23
288472.015083
 33
0.0
  0
TEXT
  5
37
  8
0
  6
BYBLOCK
 62
    11
 10
-52.500013
 20
288454.515083
 30
0.0
 40
35.0
  1
1800
  0
POINT
  5
38
  8
DEFPOINTS
  6
BYBLOCK
 62
     0
 10
900.0
 20
288380.000006
 30
0.0
  0
POINT
  5
39
  8
DEFPOINTS
  6
BYBLOCK
 62
     0
 10
-900.000027
 20
288380.000006
 30
0.0
  0
POINT
  5
3A
  8
DEFPOINTS
  6
BYBLOCK
 62
     0
 10
-900.000027
 20
288472.015083
 30
0.0
  0
ENDBLK
  5
3C
  8
0
  0
BLOCK
  8
0
  2
*D1
 70
     1
 10
0.0
 20
0.0
 30
0.0
  3
*D1
  1

  0
LINE
  5
22
  8
0
  6
BYBLOCK
 62
     9
 10
900.0
 20
288390.000006
 30
0.0
 11
900.0
 21
288431.580931
 31
0.0
  0
LINE
  5
23
  8
0
  6
BYBLOCK
 62
     9
 10
-0.000013
 20
288010.0
 30
0.0
 11
-0.000013
 21
288431.580931
 31
0.0
  0
LINE
  5
24
  8
0
  6
BYBLOCK
 62
     9
 10
880.0
 20
288430.580931
 30
0.0
 11
497.833327
 21
288430.580931
 31
0.0
  0
LINE
  5
25
  8
0
  6
BYBLOCK
 62
     9
 10
19.999987
 20
288430.580931
 30
0.0
 11
402.16666
 21
288430.580931
 31
0.0
  0
SOLID
  5
26
  8
0
  6
BYBLOCK
 62
     9
 10
880.0
 20
288433.914265
 30
0.0
 11
880.0
 21
288427.247598
 31
0.0
 12
900.0
 22
288430.580931
 32
0.0
 13
900.0
 23
288430.580931
 33
0.0
  0
SOLID
  5
27
  8
0
  6
BYBLOCK
 62
     9
 10
19.999987
 20
288433.914265
 30
0.0
 11
19.999987
 21
288427.247598
 31
0.0
 12
-0.000013
 22
288430.580931
 32
0.0
 13
-0.000013
 23
288430.580931
 33
0.0
  0
TEXT
  5
28
  8
0
  6
BYBLOCK
 62
    11
 10
409.16666
 20
288413.080931
 30
0.0
 40
35.0
  1
900
  0
POINT
  5
29
  8
DEFPOINTS
  6
BYBLOCK
 62
     0
 10
900.0
 20
288380.000006
 30
0.0
  0
POINT
  5
2B
  8
DEFPOINTS
  6
BYBLOCK
 62
     0
 10
-0.000013
 20
288000.0
 30
0.0
  0
POINT
  5
2C
  8
DEFPOINTS
  6
BYBLOCK
 62
     0
 10
-0.000013
 20
288430.580931
 30
0.0
  0
ENDBLK
  5
2E
  8
0
  0
BLOCK
  8
0
  2
*D2
 70
     1
 10
0.0
 20
0.0
 30
0.0
  3
*D2
  1

  0
LINE
  5
59
  8
0
  6
BYBLOCK
 62
     9
 10
890.0
 20
288400.000006
 30
0.0
 11
937.015962
 21
288400.000006
 31
0.0
  0
LINE
  5
5A
  8
0
  6
BYBLOCK
 62
     9
 10
890.0
 20
287599.999994
 30
0.0
 11
937.015962
 21
287599.999994
 31
0.0
  0
LINE
  5
5B
  8
0
  6
BYBLOCK
 62
     9
 10
936.015962
 20
288380.000006
 30
0.0
 11
936.015962
 21
288047.833333
 31
0.0
  0
LINE
  5
5C
  8
0
  6
BYBLOCK
 62
     9
 10
936.015962
 20
287619.999994
 30
0.0
 11
936.015962
 21
287952.166667
 31
0.0
  0
SOLID
  5
5D
  8
0
  6
BYBLOCK
 62
     9
 10
932.682628
 20
288380.000006
 30
0.0
 11
939.349295
 21
288380.000006
 31
0.0
 12
936.015962
 22
288400.000006
 32
0.0
 13
936.015962
 23
288400.000006
 33
0.0
  0
SOLID
  5
5E
  8
0
  6
BYBLOCK
 62
     9
 10
932.682628
 20
287619.999994
 30
0.0
 11
939.349295
 21
287619.999994
 31
0.0
 12
936.015962
 22
287599.999994
 32
0.0
 13
936.015962
 23
287599.999994
 33
0.0
  0
TEXT
  5
5F
  8
0
  6
BYBLOCK
 62
    11
 10
953.515962
 20
287959.166667
 30
0.0
 40
35.0
  1
800
 50
90.0
  0
POINT
  5
60
  8
DEFPOINTS
  6
BYBLOCK
 62
     0
 10
880.0
 20
288400.000006
 30
0.0
  0
POINT
  5
61
  8
DEFPOINTS
  6
BYBLOCK
 62
     0
 10
880.0
 20
287599.999994
 30
0.0
  0
POINT
  5
62
  8
DEFPOINTS
  6
BYBLOCK
 62
     0
 10
936.015962
 20
287599.999994
 30
0.0
  0
ENDBLK
  5
64
  8
0
  0
ENDSEC
  0
SECTION
  2
ENTITIES
  0
DIMENSION
  5
20
  8
TEAM-MAS
  2
*D1
 10
-0.000013
 20
430.580931
 30
0.0
 11
449.999993
 21
430.580931
 31
0.0
 12
0.0
 22
-288000.0
 32
0.0
 13
900.0
 23
380.000006
 33
0.0
 14
-0.000013
 24
0.0
 34
0.0
1001
ACAD
1000
DSTYLE
1002
{
1070
    40
1040
1.0
1002
}
  0
DIMENSION
  5
2F
  8
TEAM-MAS
  2
*D0
 10
-900.000027
 20
472.015083
 30
0.0
 11
-0.000013
 21
472.015083
 31
0.0
 12
0.0
 22
-288000.0
 32
0.0
 13
900.0
 23
380.000006
 33
0.0
 14
-900.000027
 24
380.000006
 34
0.0
1001
ACAD
1000
DSTYLE
1002
{
1070
    40
1040
1.0
1002
}
  0
POLYLINE
  5
3D
  8
TEAM-BODY
 66
     1
 10
0.0
 20
0.0
 30
0.0
  0
VERTEX
  5
1C9
  8
TEAM-BODY
 10
900.0
 20
0.0
 30
0.0
  0
VERTEX
  5
1CA
  8
TEAM-BODY
 10
900.0
 20
-380.000006
 30
0.0
 42
-0.414214
  0
VERTEX
  5
1CB
  8
TEAM-BODY
 10
880.0
 20
-400.000006
 30
0.0
  0
VERTEX
  5
1CC
  8
TEAM-BODY
 10
-880.000027
 20
-400.000006
 30
0.0
 42
-0.414214
  0
VERTEX
  5
1CD
  8
TEAM-BODY
 10
-900.000027
 20
-380.000006
 30
0.0
  0
VERTEX
  5
1CE
  8
TEAM-BODY
 10
-900.000027
 20
0.0
 30
0.0
  0
SEQEND
  5
1CF
  8
TEAM-BODY
  0
POLYLINE
  5
3F
  8
TEAM-DET1
 66
     1
 10
0.0
 20
0.0
 30
0.0
  0
VERTEX
  5
1D0
  8
TEAM-DET1
 10
-840.000026
 20
0.0
 30
0.0
 42
0.414214
  0
VERTEX
  5
1D1
  8
TEAM-DET1
 10
-500.000021
 20
-340.000005
 30
0.0
  0
VERTEX
  5
1D2
  8
TEAM-DET1
 10
499.999994
 20
-340.000005
 30
0.0
 42
0.414214
  0
VERTEX
  5
1D3
  8
TEAM-DET1
 10
839.999999
 20
0.0
 30
0.0
  0
SEQEND
  5
1D4
  8
TEAM-DET1
  0
POLYLINE
  5
41
  8
TEAM-DET1
 66
     1
 10
0.0
 20
0.0
 30
0.0
  0
VERTEX
  5
1D5
  8
TEAM-DET1
 10
-840.000026
 20
0.0
 30
0.0
 42
-0.414214
  0
VERTEX
  5
1D6
  8
TEAM-DET1
 10
-500.000021
 20
340.000005
 30
0.0
  0
VERTEX
  5
1D7
  8
TEAM-DET1
 10
499.999994
 20
340.000005
 30
0.0
 42
-0.414214
  0
VERTEX
  5
1D8
  8
TEAM-DET1
 10
839.999999
 20
0.0
 30
0.0
  0
SEQEND
  5
1D9
  8
TEAM-DET1
  0
POLYLINE
  5
42
  8
TEAM-BODY
 66
     1
 10
0.0
 20
0.0
 30
0.0
  0
VERTEX
  5
1DA
  8
TEAM-BODY
 10
900.0
 20
0.0
 30
0.0
  0
VERTEX
  5
1DB
  8
TEAM-BODY
 10
900.0
 20
380.000006
 30
0.0
 42
0.414214
  0
VERTEX
  5
1DC
  8
TEAM-BODY
 10
880.0
 20
400.000006
 30
0.0
  0
VERTEX
  5
1DD
  8
TEAM-BODY
 10
-880.000027
 20
400.000006
 30
0.0
 42
0.414214
  0
VERTEX
  5
1DE
  8
TEAM-BODY
 10
-900.000027
 20
380.000006
 30
0.0
  0
VERTEX
  5
1DF
  8
TEAM-BODY
 10
-900.000027
 20
0.0
 30
0.0
  0
SEQEND
  5
1E0
  8
TEAM-BODY
  0
POLYLINE
  5
43
  8
TEAM-DET1
 66
     1
 10
0.0
 20
0.0
 30
0.0
  0
VERTEX
  5
1E1
  8
TEAM-DET1
 10
-614.959733
 20
-228.255928
 30
0.0
 42
0.146587
  0
VERTEX
  5
1E2
  8
TEAM-DET1
 10
-450.00002
 20
-277.680004
 30
0.0
  0
VERTEX
  5
1E3
  8
TEAM-DET1
 10
449.999993
 20
-277.680004
 30
0.0
 42
0.146582
  0
VERTEX
  5
1E4
  8
TEAM-DET1
 10
614.954021
 20
-228.259671
 30
0.0
  0
SEQEND
  5
1E5
  8
TEAM-DET1
  0
POLYLINE
  5
44
  8
TEAM-BODY
 66
     1
 10
0.0
 20
0.0
 30
0.0
  0
VERTEX
  5
1E6
  8
TEAM-BODY
 10
516.229994
 20
0.0
 30
0.0
 42
-0.414214
  0
VERTEX
  5
1E7
  8
TEAM-BODY
 10
344.729992
 20
-171.500003
 30
0.0
  0
VERTEX
  5
1E8
  8
TEAM-BODY
 10
-344.730019
 20
-171.500003
 30
0.0
 42
-0.414214
  0
VERTEX
  5
1E9
  8
TEAM-BODY
 10
-516.230021
 20
0.0
 30
0.0
  0
SEQEND
  5
1EA
  8
TEAM-BODY
  0
POLYLINE
  5
45
  8
TEAM-BODY
 66
     1
 10
0.0
 20
0.0
 30
0.0
  0
VERTEX
  5
1EB
  8
TEAM-BODY
 10
516.229994
 20
0.0
 30
0.0
 42
0.414214
  0
VERTEX
  5
1EC
  8
TEAM-BODY
 10
344.729992
 20
171.500003
 30
0.0
  0
VERTEX
  5
1ED
  8
TEAM-BODY
 10
-344.730019
 20
171.500003
 30
0.0
 42
0.414214
  0
VERTEX
  5
1EE
  8
TEAM-BODY
 10
-516.230021
 20
0.0
 30
0.0
  0
SEQEND
  5
1EF
  8
TEAM-BODY
  0
POLYLINE
  5
46
  8
TEAM-DET1
 66
     1
 10
0.0
 20
0.0
 30
0.0
  0
VERTEX
  5
1F0
  8
TEAM-DET1
 10
-614.959733
 20
228.255928
 30
0.0
 42
-0.146587
  0
VERTEX
  5
1F1
  8
TEAM-DET1
 10
-450.00002
 20
277.680004
 30
0.0
  0
VERTEX
  5
1F2
  8
TEAM-DET1
 10
449.999993
 20
277.680004
 30
0.0
 42
-0.146582
  0
VERTEX
  5
1F3
  8
TEAM-DET1
 10
614.954021
 20
228.259671
 30
0.0
  0
SEQEND
  5
1F4
  8
TEAM-DET1
  0
LINE
  5
47
  8
TEAM-AXE
 10
-0.000013
 20
63.000001
 30
0.0
 11
-0.000013
 21
-63.000001
 31
0.0
  0
LINE
  5
4A
  8
TEAM-AXE
 10
62.999987
 20
0.0
 30
0.0
 11
-63.000014
 21
0.0
 31
0.0
  0
CIRCLE
  5
4B
  8
TEAM-INSP
 10
0.0
 20
0.0
 30
0.0
 40
10.0
  0
LINE
  5
4D
  8
TEAM-AXE
 10
-34.390014
 20
332.000005
 30
0.0
 11
34.379987
 21
332.000005
 31
0.0
  0
POLYLINE
  5
4E
  8
TEAM-KAN
 66
     1
 10
0.0
 20
0.0
 30
0.0
  0
VERTEX
  5
1F5
  8
TEAM-KAN
 10
24.169987
 20
330.160005
 30
0.0
  0
VERTEX
  5
1F6
  8
TEAM-KAN
 10
24.729987
 20
330.450005
 30
0.0
  0
VERTEX
  5
1F7
  8
TEAM-KAN
 10
25.179987
 20
330.750005
 30
0.0
  0
VERTEX
  5
1F8
  8
TEAM-KAN
 10
25.539987
 20
331.060005
 30
0.0
  0
VERTEX
  5
1F9
  8
TEAM-KAN
 10
25.789987
 20
331.370005
 30
0.0
  0
VERTEX
  5
1FA
  8
TEAM-KAN
 10
25.949987
 20
331.680005
 30
0.0
  0
VERTEX
  5
1FB
  8
TEAM-KAN
 10
25.999987
 20
332.000005
 30
0.0
  0
SEQEND
  5
1FC
  8
TEAM-KAN
  0
POLYLINE
  5
50
  8
TEAM-DET1
 66
     1
 10
0.0
 20
0.0
 30
0.0
  0
VERTEX
  5
1FD
  8
TEAM-DET1
 10
-25.540014
 20
332.930005
 30
0.0
  0
VERTEX
  5
1FE
  8
TEAM-DET1
 10
-25.800014
 20
332.620005
 30
0.0
  0
VERTEX
  5
1FF
  8
TEAM-DET1
 10
-25.950014
 20
332.310005
 30
0.0
  0
VERTEX
  5
200
  8
TEAM-DET1
 10
-26.000014
 20
332.000005
 30
0.0
  0
VERTEX
  5
201
  8
TEAM-DET1
 10
-25.950014
 20
331.680005
 30
0.0
  0
VERTEX
  5
202
  8
TEAM-DET1
 10
-25.800014
 20
331.370005
 30
0.0
  0
VERTEX
  5
203
  8
TEAM-DET1
 10
-25.540014
 20
331.060005
 30
0.0
  0
VERTEX
  5
204
  8
TEAM-DET1
 10
-25.190014
 20
330.750005
 30
0.0
  0
VERTEX
  5
205
  8
TEAM-DET1
 10
-24.730014
 20
330.450005
 30
0.0
  0
VERTEX
  5
206
  8
TEAM-DET1
 10
-24.170014
 20
330.160005
 30
0.0
  0
VERTEX
  5
207
  8
TEAM-DET1
 10
-23.530014
 20
329.870005
 30
0.0
  0
VERTEX
  5
208
  8
TEAM-DET1
 10
-22.780014
 20
329.590005
 30
0.0
  0
VERTEX
  5
209
  8
TEAM-DET1
 10
-21.950014
 20
329.320005
 30
0.0
  0
VERTEX
  5
20A
  8
TEAM-DET1
 10
-21.030014
 20
329.060005
 30
0.0
  0
VERTEX
  5
20B
  8
TEAM-DET1
 10
-20.030014
 20
328.810005
 30
0.0
  0
VERTEX
  5
20C
  8
TEAM-DET1
 10
-18.950014
 20
328.570005
 30
0.0
  0
VERTEX
  5
20D
  8
TEAM-DET1
 10
-17.800014
 20
328.350005
 30
0.0
  0
VERTEX
  5
20E
  8
TEAM-DET1
 10
-16.570014
 20
328.140005
 30
0.0
  0
VERTEX
  5
20F
  8
TEAM-DET1
 10
-15.280014
 20
327.950005
 30
0.0
  0
VERTEX
  5
210
  8
TEAM-DET1
 10
-13.930014
 20
327.780005
 30
0.0
  0
VERTEX
  5
211
  8
TEAM-DET1
 10
-12.530014
 20
327.620005
 30
0.0
  0
VERTEX
  5
212
  8
TEAM-DET1
 10
-11.070014
 20
327.470005
 30
0.0
  0
VERTEX
  5
213
  8
TEAM-DET1
 10
-9.570014
 20
327.350005
 30
0.0
  0
VERTEX
  5
214
  8
TEAM-DET1
 10
-8.030014
 20
327.240005
 30
0.0
  0
VERTEX
  5
215
  8
TEAM-DET1
 10
-6.470014
 20
327.150005
 30
0.0
  0
VERTEX
  5
216
  8
TEAM-DET1
 10
-4.870014
 20
327.090005
 30
0.0
  0
VERTEX
  5
217
  8
TEAM-DET1
 10
-3.260014
 20
327.040005
 30
0.0
  0
VERTEX
  5
218
  8
TEAM-DET1
 10
-1.630014
 20
327.010005
 30
0.0
  0
VERTEX
  5
219
  8
TEAM-DET1
 10
-0.000013
 20
327.000005
 30
0.0
  0
VERTEX
  5
21A
  8
TEAM-DET1
 10
1.629987
 20
327.010005
 30
0.0
  0
VERTEX
  5
21B
  8
TEAM-DET1
 10
3.259987
 20
327.040005
 30
0.0
  0
VERTEX
  5
21C
  8
TEAM-DET1
 10
4.869987
 20
327.090005
 30
0.0
  0
VERTEX
  5
21D
  8
TEAM-DET1
 10
6.469987
 20
327.150005
 30
0.0
  0
VERTEX
  5
21E
  8
TEAM-DET1
 10
8.029987
 20
327.240005
 30
0.0
  0
VERTEX
  5
21F
  8
TEAM-DET1
 10
9.569987
 20
327.350005
 30
0.0
  0
VERTEX
  5
220
  8
TEAM-DET1
 10
11.069987
 20
327.470005
 30
0.0
  0
VERTEX
  5
221
  8
TEAM-DET1
 10
12.519987
 20
327.620005
 30
0.0
  0
VERTEX
  5
222
  8
TEAM-DET1
 10
13.929987
 20
327.780005
 30
0.0
  0
VERTEX
  5
223
  8
TEAM-DET1
 10
15.279987
 20
327.950005
 30
0.0
  0
VERTEX
  5
224
  8
TEAM-DET1
 10
16.569987
 20
328.140005
 30
0.0
  0
VERTEX
  5
225
  8
TEAM-DET1
 10
17.799987
 20
328.350005
 30
0.0
  0
VERTEX
  5
226
  8
TEAM-DET1
 10
18.949987
 20
328.570005
 30
0.0
  0
VERTEX
  5
227
  8
TEAM-DET1
 10
20.029987
 20
328.810005
 30
0.0
  0
VERTEX
  5
228
  8
TEAM-DET1
 10
21.029987
 20
329.060005
 30
0.0
  0
VERTEX
  5
229
  8
TEAM-DET1
 10
21.949987
 20
329.320005
 30
0.0
  0
VERTEX
  5
22A
  8
TEAM-DET1
 10
22.779987
 20
329.590005
 30
0.0
  0
VERTEX
  5
22B
  8
TEAM-DET1
 10
23.519987
 20
329.870005
 30
0.0
  0
VERTEX
  5
22C
  8
TEAM-DET1
 10
24.169987
 20
330.160005
 30
0.0
  0
SEQEND
  5
22D
  8
TEAM-DET1
  0
POLYLINE
  5
51
  8
TEAM-DET1
 66
     1
 10
0.0
 20
0.0
 30
0.0
  0
VERTEX
  5
22E
  8
TEAM-DET1
 10
25.999987
 20
332.000005
 30
0.0
  0
VERTEX
  5
22F
  8
TEAM-DET1
 10
25.949987
 20
332.310005
 30
0.0
  0
VERTEX
  5
230
  8
TEAM-DET1
 10
25.789987
 20
332.620005
 30
0.0
  0
VERTEX
  5
231
  8
TEAM-DET1
 10
25.539987
 20
332.930005
 30
0.0
  0
VERTEX
  5
232
  8
TEAM-DET1
 10
25.179987
 20
333.240005
 30
0.0
  0
VERTEX
  5
233
  8
TEAM-DET1
 10
24.729987
 20
333.540005
 30
0.0
  0
VERTEX
  5
234
  8
TEAM-DET1
 10
24.169987
 20
333.840005
 30
0.0
  0
VERTEX
  5
235
  8
TEAM-DET1
 10
23.519987
 20
334.120005
 30
0.0
  0
VERTEX
  5
236
  8
TEAM-DET1
 10
22.779987
 20
334.410005
 30
0.0
  0
VERTEX
  5
237
  8
TEAM-DET1
 10
21.949987
 20
334.680005
 30
0.0
  0
VERTEX
  5
238
  8
TEAM-DET1
 10
21.029987
 20
334.940005
 30
0.0
  0
VERTEX
  5
239
  8
TEAM-DET1
 10
20.029987
 20
335.180005
 30
0.0
  0
VERTEX
  5
23A
  8
TEAM-DET1
 10
18.949987
 20
335.420005
 30
0.0
  0
VERTEX
  5
23B
  8
TEAM-DET1
 10
17.799987
 20
335.640005
 30
0.0
  0
VERTEX
  5
23C
  8
TEAM-DET1
 10
16.569987
 20
335.850005
 30
0.0
  0
VERTEX
  5
23D
  8
TEAM-DET1
 10
15.279987
 20
336.040005
 30
0.0
  0
VERTEX
  5
23E
  8
TEAM-DET1
 10
13.929987
 20
336.220005
 30
0.0
  0
VERTEX
  5
23F
  8
TEAM-DET1
 10
12.519987
 20
336.380005
 30
0.0
  0
VERTEX
  5
240
  8
TEAM-DET1
 10
11.069987
 20
336.520005
 30
0.0
  0
VERTEX
  5
241
  8
TEAM-DET1
 10
9.569987
 20
336.650005
 30
0.0
  0
VERTEX
  5
242
  8
TEAM-DET1
 10
8.029987
 20
336.750005
 30
0.0
  0
VERTEX
  5
243
  8
TEAM-DET1
 10
6.469987
 20
336.840005
 30
0.0
  0
VERTEX
  5
244
  8
TEAM-DET1
 10
4.869987
 20
336.910005
 30
0.0
  0
VERTEX
  5
245
  8
TEAM-DET1
 10
3.259987
 20
336.960005
 30
0.0
  0
VERTEX
  5
246
  8
TEAM-DET1
 10
1.629987
 20
336.990005
 30
0.0
  0
VERTEX
  5
247
  8
TEAM-DET1
 10
-0.000013
 20
337.000005
 30
0.0
  0
VERTEX
  5
248
  8
TEAM-DET1
 10
-1.630014
 20
336.990005
 30
0.0
  0
VERTEX
  5
249
  8
TEAM-DET1
 10
-3.260014
 20
336.960005
 30
0.0
  0
VERTEX
  5
24A
  8
TEAM-DET1
 10
-4.870014
 20
336.910005
 30
0.0
  0
VERTEX
  5
24B
  8
TEAM-DET1
 10
-6.470014
 20
336.840005
 30
0.0
  0
VERTEX
  5
24C
  8
TEAM-DET1
 10
-8.030014
 20
336.750005
 30
0.0
  0
VERTEX
  5
24D
  8
TEAM-DET1
 10
-9.570014
 20
336.650005
 30
0.0
  0
VERTEX
  5
24E
  8
TEAM-DET1
 10
-11.070014
 20
336.520005
 30
0.0
  0
VERTEX
  5
24F
  8
TEAM-DET1
 10
-12.530014
 20
336.380005
 30
0.0
  0
VERTEX
  5
250
  8
TEAM-DET1
 10
-13.930014
 20
336.220005
 30
0.0
  0
VERTEX
  5
251
  8
TEAM-DET1
 10
-15.280014
 20
336.040005
 30
0.0
  0
VERTEX
  5
252
  8
TEAM-DET1
 10
-16.570014
 20
335.850005
 30
0.0
  0
VERTEX
  5
253
  8
TEAM-DET1
 10
-17.800014
 20
335.640005
 30
0.0
  0
VERTEX
  5
254
  8
TEAM-DET1
 10
-18.950014
 20
335.420005
 30
0.0
  0
VERTEX
  5
255
  8
TEAM-DET1
 10
-20.030014
 20
335.180005
 30
0.0
  0
VERTEX
  5
256
  8
TEAM-DET1
 10
-21.030014
 20
334.940005
 30
0.0
  0
VERTEX
  5
257
  8
TEAM-DET1
 10
-21.950014
 20
334.680005
 30
0.0
  0
VERTEX
  5
258
  8
TEAM-DET1
 10
-22.780014
 20
334.410005
 30
0.0
  0
VERTEX
  5
259
  8
TEAM-DET1
 10
-23.530014
 20
334.120005
 30
0.0
  0
VERTEX
  5
25A
  8
TEAM-DET1
 10
-24.170014
 20
333.840005
 30
0.0
  0
VERTEX
  5
25B
  8
TEAM-DET1
 10
-24.730014
 20
333.540005
 30
0.0
  0
VERTEX
  5
25C
  8
TEAM-DET1
 10
-25.190014
 20
333.240005
 30
0.0
  0
VERTEX
  5
25D
  8
TEAM-DET1
 10
-25.540014
 20
332.930005
 30
0.0
  0
SEQEND
  5
25E
  8
TEAM-DET1
  0
CIRCLE
  5
52
  8
TEAM-KAN
 10
-0.000013
 20
0.0
 30
0.0
 40
26.0
  0
CIRCLE
  5
53
  8
TEAM-DET1
 10
-0.000013
 20
0.0
 30
0.0
 40
45.000001
  0
TEXT
  5
54
  8
TEAM-TXT
 10
-876.362922
 20
342.433104
 30
0.0
 40
30.0
  1
team 111365
 41
0.8
 51
15.0
  7
TEAM
  0
DIMENSION
  5
57
  8
TEAM-MAS
  2
*D2
 10
936.015962
 20
-400.000006
 30
0.0
 11
936.015962
 21
0.0
 31
0.0
 12
0.0
 22
-288000.0
 32
0.0
 13
880.0
 23
400.000006
 33
0.0
 14
880.0
 24
-400.000006
 34
0.0
 50
90.0
1001
ACAD
1000
DSTYLE
1002
{
1070
    40
1040
1.0
1002
}
  0
ENDSEC
  0
EOF
