  0
SECTION
  2
HEADER
  9
$ACADVER
  1
AC1009
  9
$INSBASE
 10
0.0
 20
0.0
 30
0.0
  9
$EXTMIN
 10
-901.332188
 20
-10.019646
 30
-0.001526
  9
$EXTMAX
 10
957.605888
 20
633.826336
 30
0.0
  9
$LIMMIN
 10
-894.000027
 20
0.0
  9
$LIMMAX
 10
957.605888
 20
633.826336
  9
$ORTHOMODE
 70
     1
  9
$REGENMODE
 70
     1
  9
$FILLMODE
 70
     1
  9
$QTEXTMODE
 70
     0
  9
$MIRRTEXT
 70
     0
  9
$DRAGMODE
 70
     2
  9
$LTSCALE
 40
50.0
  9
$OSMODE
 70
     7
  9
$ATTMODE
 70
     1
  9
$TEXTSIZE
 40
200.0
  9
$TRACEWID
 40
1.0
  9
$TEXTSTYLE
  7
STANDARD
  9
$CLAYER
  8
TEAM-MAS
  9
$CELTYPE
  6
BYLAYER
  9
$CECOLOR
 62
   256
  9
$DIMSCALE
 40
0.0
  9
$DIMASZ
 40
20.0
  9
$DIMEXO
 40
10.0
  9
$DIMDLI
 40
1.0
  9
$DIMRND
 40
0.0
  9
$DIMDLE
 40
0.0
  9
$DIMEXE
 40
1.0
  9
$DIMTP
 40
0.0
  9
$DIMTM
 40
0.0
  9
$DIMTXT
 40
35.0
  9
$DIMCEN
 40
1.0
  9
$DIMTSZ
 40
0.0
  9
$DIMTOL
 70
     0
  9
$DIMLIM
 70
     0
  9
$DIMTIH
 70
     0
  9
$DIMTOH
 70
     0
  9
$DIMSE1
 70
     0
  9
$DIMSE2
 70
     0
  9
$DIMTAD
 70
     0
  9
$DIMZIN
 70
     0
  9
$DIMBLK
  1

  9
$DIMASO
 70
     1
  9
$DIMSHO
 70
     0
  9
$DIMPOST
  1

  9
$DIMAPOST
  1

  9
$DIMALT
 70
     0
  9
$DIMALTD
 70
     2
  9
$DIMALTF
 40
25.4
  9
$DIMLFAC
 40
1.0
  9
$DIMTOFL
 70
     0
  9
$DIMTVP
 40
0.0
  9
$DIMTIX
 70
     0
  9
$DIMSOXD
 70
     0
  9
$DIMSAH
 70
     0
  9
$DIMBLK1
  1

  9
$DIMBLK2
  1

  9
$DIMSTYLE
  2
TEAM
  9
$DIMCLRD
 70
     9
  9
$DIMCLRE
 70
     9
  9
$DIMCLRT
 70
    11
  9
$DIMTFAC
 40
1.0
  9
$DIMGAP
 40
7.0
  9
$LUNITS
 70
     2
  9
$LUPREC
 70
     1
  9
$SKETCHINC
 40
1.0
  9
$FILLETRAD
 40
5.0
  9
$AUNITS
 70
     0
  9
$AUPREC
 70
     0
  9
$MENU
  1
ROPLANS
  9
$ELEVATION
 40
0.0
  9
$PELEVATION
 40
0.0
  9
$THICKNESS
 40
0.0
  9
$LIMCHECK
 70
     0
  9
$BLIPMODE
 70
     1
  9
$CHAMFERA
 40
0.0
  9
$CHAMFERB
 40
0.0
  9
$SKPOLY
 70
     0
  9
$TDCREATE
 40
2450392.957851
  9
$TDUPDATE
 40
2455944.698999
  9
$TDINDWG
 40
3.037655
  9
$TDUSRTIMER
 40
3.037655
  9
$USRTIMER
 70
     1
  9
$ANGBASE
 50
0.0
  9
$ANGDIR
 70
     0
  9
$PDMODE
 70
     0
  9
$PDSIZE
 40
0.0
  9
$PLINEWID
 40
0.0
  9
$COORDS
 70
     2
  9
$SPLFRAME
 70
     0
  9
$SPLINETYPE
 70
     6
  9
$SPLINESEGS
 70
     8
  9
$ATTDIA
 70
     0
  9
$ATTREQ
 70
     0
  9
$HANDLING
 70
     1
  9
$HANDSEED
  5
B9
  9
$SURFTAB1
 70
    24
  9
$SURFTAB2
 70
    24
  9
$SURFTYPE
 70
     6
  9
$SURFU
 70
     6
  9
$SURFV
 70
     6
  9
$UCSNAME
  2

  9
$UCSORG
 10
0.0
 20
0.0
 30
0.0
  9
$UCSXDIR
 10
1.0
 20
0.0
 30
0.0
  9
$UCSYDIR
 10
0.0
 20
1.0
 30
0.0
  9
$PUCSNAME
  2

  9
$PUCSORG
 10
0.0
 20
0.0
 30
0.0
  9
$PUCSXDIR
 10
1.0
 20
0.0
 30
0.0
  9
$PUCSYDIR
 10
0.0
 20
1.0
 30
0.0
  9
$USERI1
 70
     0
  9
$USERI2
 70
     0
  9
$USERI3
 70
     0
  9
$USERI4
 70
     0
  9
$USERI5
 70
     0
  9
$USERR1
 40
0.0
  9
$USERR2
 40
0.0
  9
$USERR3
 40
0.0
  9
$USERR4
 40
0.0
  9
$USERR5
 40
0.0
  9
$WORLDVIEW
 70
     1
  9
$SHADEDGE
 70
     0
  9
$SHADEDIF
 70
    70
  9
$TILEMODE
 70
     1
  9
$MAXACTVP
 70
    16
  9
$PLIMCHECK
 70
     0
  9
$PEXTMIN
 10
-0.805942
 20
0.005011
 30
0.0
  9
$PEXTMAX
 10
20.250094
 20
11.356329
 30
0.0
  9
$PLIMMIN
 10
0.0
 20
0.0
  9
$PLIMMAX
 10
12.0
 20
9.0
  9
$UNITMODE
 70
     0
  9
$VISRETAIN
 70
     0
  9
$PLINEGEN
 70
     0
  9
$PSLTSCALE
 70
     0
  0
ENDSEC
  0
SECTION
  2
TABLES
  0
TABLE
  2
VPORT
 70
     2
  0
VPORT
  2
*ACTIVE
 70
     0
 10
0.0
 20
0.0
 11
1.0
 21
1.0
 12
28.13685
 22
311.903345
 13
0.0
 23
0.0
 14
1.0
 24
1.0
 15
20.0
 25
20.0
 16
0.0
 26
0.0
 36
1.0
 17
0.0
 27
0.0
 37
0.0
 40
979.6689
 41
1.903766
 42
50.0
 43
0.0
 44
0.0
 50
0.0
 51
0.0
 71
     0
 72
   100
 73
     1
 74
     1
 75
     0
 76
     0
 77
     0
 78
     0
  0
ENDTAB
  0
TABLE
  2
LTYPE
 70
     3
  0
LTYPE
  2
CONTINUOUS
 70
     0
  3
Solid Line
 72
    65
 73
     0
 40
0.0
  0
LTYPE
  2
31
 70
     0
  3

 72
    65
 73
     4
 40
2.1
 49
1.5
 49
-0.3
 49
0.0
 49
-0.3
  0
LTYPE
  2
22
 70
     0
  3

 72
    65
 73
     2
 40
1.4
 49
1.2
 49
-0.2
  0
ENDTAB
  0
TABLE
  2
LAYER
 70
    10
  0
LAYER
  2
0
 70
     0
 62
     7
  6
CONTINUOUS
  0
LAYER
  2
DEFPOINTS
 70
     0
 62
     7
  6
CONTINUOUS
  0
LAYER
  2
TEAM-BODY
 70
     0
 62
     2
  6
CONTINUOUS
  0
LAYER
  2
TEAM-AXE
 70
     0
 62
    10
  6
31
  0
LAYER
  2
TEAM-MAS
 70
     0
 62
     9
  6
CONTINUOUS
  0
LAYER
  2
TEAM-TXT
 70
     0
 62
    11
  6
CONTINUOUS
  0
LAYER
  2
TEAM-DET1
 70
     0
 62
     4
  6
CONTINUOUS
  0
LAYER
  2
TEAM-HIDE
 70
     0
 62
     8
  6
22
  0
LAYER
  2
TEAM-KAN
 70
     0
 62
     6
  6
CONTINUOUS
  0
LAYER
  2
TEAM-INSP
 70
     0
 62
     5
  6
CONTINUOUS
  0
ENDTAB
  0
TABLE
  2
STYLE
 70
     2
  0
STYLE
  2
STANDARD
 70
     0
 40
0.0
 41
1.0
 50
0.0
 71
     0
 42
200.0
  3
txt
  4

  0
STYLE
  2
TEAM
 70
     0
 40
0.0
 41
0.8
 50
15.0
 71
     0
 42
7.0
  3
ROMANS.shx
  4

  0
ENDTAB
  0
TABLE
  2
VIEW
 70
     0
  0
ENDTAB
  0
TABLE
  2
UCS
 70
     0
  0
ENDTAB
  0
TABLE
  2
APPID
 70
     1
  0
APPID
  2
ACAD
 70
     0
  0
ENDTAB
  0
TABLE
  2
DIMSTYLE
 70
     1
  0
DIMSTYLE
  2
TEAM
 70
     0
  3

  4

  5

  6

  7

 40
0.0
 41
20.0
 42
10.0
 43
1.0
 44
1.0
 45
0.0
 46
0.0
 47
0.0
 48
0.0
140
35.0
141
1.0
142
0.0
143
25.4
144
1.0
145
0.0
146
1.0
147
7.0
 71
     0
 72
     0
 73
     0
 74
     0
 75
     0
 76
     0
 77
     0
 78
     0
170
     0
171
     2
172
     0
173
     0
174
     0
175
     0
176
     9
177
     9
178
    11
  0
ENDTAB
  0
ENDSEC
  0
SECTION
  2
BLOCKS
  0
BLOCK
  8
0
  2
$MODEL_SPACE
 70
     0
 10
0.0
 20
0.0
 30
0.0
  3
$MODEL_SPACE
  1

  0
ENDBLK
  5
B2
  8
0
  0
BLOCK
 67
     1
  8
0
  2
$PAPER_SPACE
 70
     0
 10
0.0
 20
0.0
 30
0.0
  3
$PAPER_SPACE
  1

  0
ENDBLK
  5
B0
 67
     1
  8
0
  0
BLOCK
  8
0
  2
*D0
 70
     1
 10
0.0
 20
0.0
 30
0.0
  3
*D0
  1

  0
LINE
  5
22
  8
0
  6
BYBLOCK
 62
     9
 10
8899.99495
 20
288584.24613
 30
0.0
 11
8899.99495
 21
288617.306687
 31
0.0
  0
LINE
  5
23
  8
0
  6
BYBLOCK
 62
     9
 10
7099.999973
 20
288584.24613
 30
0.0
 11
7099.999973
 21
288617.306687
 31
0.0
  0
LINE
  5
24
  8
0
  6
BYBLOCK
 62
     9
 10
8879.99495
 20
288616.306687
 30
0.0
 11
8059.497461
 21
288616.306687
 31
0.0
  0
LINE
  5
25
  8
0
  6
BYBLOCK
 62
     9
 10
7119.999973
 20
288616.306687
 30
0.0
 11
7940.497461
 21
288616.306687
 31
0.0
  0
SOLID
  5
26
  8
0
  6
BYBLOCK
 62
     9
 10
8879.99495
 20
288619.64002
 30
0.0
 11
8879.99495
 21
288612.973353
 31
0.0
 12
8899.99495
 22
288616.306687
 32
0.0
 13
8899.99495
 23
288616.306687
 33
0.0
  0
SOLID
  5
27
  8
0
  6
BYBLOCK
 62
     9
 10
7119.999973
 20
288619.64002
 30
0.0
 11
7119.999973
 21
288612.973353
 31
0.0
 12
7099.999973
 22
288616.306687
 32
0.0
 13
7099.999973
 23
288616.306687
 33
0.0
  0
TEXT
  5
28
  8
0
  6
BYBLOCK
 62
    11
 10
7947.497461
 20
288598.806687
 30
0.0
 40
35.0
  1
1800
  0
POINT
  5
29
  8
DEFPOINTS
  6
BYBLOCK
 62
     0
 10
8899.99495
 20
288574.24613
 30
0.0
  0
POINT
  5
2B
  8
DEFPOINTS
  6
BYBLOCK
 62
     0
 10
7099.999973
 20
288574.24613
 30
0.0
  0
POINT
  5
2C
  8
DEFPOINTS
  6
BYBLOCK
 62
     0
 10
7099.999973
 20
288616.306687
 30
0.0
  0
ENDBLK
  5
2E
  8
0
  0
BLOCK
  8
0
  2
*D1
 70
     1
 10
0.0
 20
0.0
 30
0.0
  3
*D1
  1

  0
LINE
  5
4D
  8
0
  6
BYBLOCK
 62
     9
 10
8904.0
 20
288580.0
 30
0.0
 11
8941.049196
 21
288580.0
 31
0.0
  0
LINE
  5
4E
  8
0
  6
BYBLOCK
 62
     9
 10
8035.999987
 20
288149.999994
 30
0.0
 11
8941.049196
 21
288149.999994
 31
0.0
  0
LINE
  5
4F
  8
0
  6
BYBLOCK
 62
     9
 10
8940.049196
 20
288560.0
 30
0.0
 11
8940.049196
 21
288415.749997
 31
0.0
  0
LINE
  5
50
  8
0
  6
BYBLOCK
 62
     9
 10
8940.049196
 20
288169.999994
 30
0.0
 11
8940.049196
 21
288314.249997
 31
0.0
  0
SOLID
  5
51
  8
0
  6
BYBLOCK
 62
     9
 10
8936.715863
 20
288560.0
 30
0.0
 11
8943.382529
 21
288560.0
 31
0.0
 12
8940.049196
 22
288580.0
 32
0.0
 13
8940.049196
 23
288580.0
 33
0.0
  0
SOLID
  5
52
  8
0
  6
BYBLOCK
 62
     9
 10
8936.715863
 20
288169.999994
 30
0.0
 11
8943.382529
 21
288169.999994
 31
0.0
 12
8940.049196
 22
288149.999994
 32
0.0
 13
8940.049196
 23
288149.999994
 33
0.0
  0
TEXT
  5
53
  8
0
  6
BYBLOCK
 62
    11
 10
8957.549196
 20
288321.249997
 30
0.0
 40
35.0
  1
430
 50
90.0
  0
POINT
  5
54
  8
DEFPOINTS
  6
BYBLOCK
 62
     0
 10
8894.0
 20
288580.0
 30
0.0
  0
POINT
  5
55
  8
DEFPOINTS
  6
BYBLOCK
 62
     0
 10
8025.999987
 20
288149.999994
 30
0.0
  0
POINT
  5
56
  8
DEFPOINTS
  6
BYBLOCK
 62
     0
 10
8940.049196
 20
288149.999994
 30
0.0
  0
ENDBLK
  5
58
  8
0
  0
BLOCK
  8
0
  2
*D2
 70
     1
 10
0.0
 20
0.0
 30
0.0
  3
*D2
  1

  0
LINE
  5
3E
  8
0
  6
BYBLOCK
 62
     9
 10
7973.999986
 20
288139.999994
 30
0.0
 11
7973.999986
 21
288100.059306
 31
0.0
  0
LINE
  5
3F
  8
0
  6
BYBLOCK
 62
     9
 10
8025.999987
 20
288139.999994
 30
0.0
 11
8025.999987
 21
288100.059306
 31
0.0
  0
LINE
  5
40
  8
0
  6
BYBLOCK
 62
     9
 10
7953.999986
 20
288101.059306
 30
0.0
 11
7933.999986
 21
288101.059306
 31
0.0
  0
LINE
  5
41
  8
0
  6
BYBLOCK
 62
     9
 10
8045.999987
 20
288101.059306
 30
0.0
 11
8065.999987
 21
288101.059306
 31
0.0
  0
TEXT
  5
42
  8
0
  6
BYBLOCK
 62
    11
 10
8077.321051
 20
288083.559306
 30
0.0
 40
35.0
  1
52
  0
LINE
  5
43
  8
0
  6
BYBLOCK
 62
     9
 10
7973.999986
 20
288101.059306
 30
0.0
 11
8025.999987
 21
288101.059306
 31
0.0
  0
SOLID
  5
44
  8
0
  6
BYBLOCK
 62
     9
 10
7953.999986
 20
288104.392639
 30
0.0
 11
7953.999986
 21
288097.725973
 31
0.0
 12
7973.999986
 22
288101.059306
 32
0.0
 13
7973.999986
 23
288101.059306
 33
0.0
  0
SOLID
  5
45
  8
0
  6
BYBLOCK
 62
     9
 10
8045.999987
 20
288104.392639
 30
0.0
 11
8045.999987
 21
288097.725973
 31
0.0
 12
8025.999987
 22
288101.059306
 32
0.0
 13
8025.999987
 23
288101.059306
 33
0.0
  0
POINT
  5
46
  8
DEFPOINTS
  6
BYBLOCK
 62
     0
 10
7973.999986
 20
288149.999994
 30
0.0
  0
POINT
  5
47
  8
DEFPOINTS
  6
BYBLOCK
 62
     0
 10
8025.999987
 20
288149.999994
 30
0.0
  0
POINT
  5
48
  8
DEFPOINTS
  6
BYBLOCK
 62
     0
 10
8025.999987
 20
288101.059306
 30
0.0
  0
ENDBLK
  5
4A
  8
0
  0
ENDSEC
  0
SECTION
  2
ENTITIES
  0
DIMENSION
  5
20
  8
TEAM-MAS
  2
*D0
 10
-900.000027
 20
616.306687
 30
0.0
 11
-0.002539
 21
616.306687
 31
0.0
 12
-8000.0
 22
-288000.0
 32
0.0
 13
899.99495
 23
574.24613
 33
0.0
 14
-900.000027
 24
574.24613
 34
0.0
1001
ACAD
1000
DSTYLE
1002
{
1070
    40
1040
1.0
1002
}
  0
ARC
  5
2F
  8
TEAM-BODY
 10
1130.800869
 20
1550.980606
 30
0.0
 40
2197.030713
 50
207.162561
 51
216.972287
  0
TEXT
  5
31
  8
TEAM-TXT
 10
-780.887192
 20
497.930774
 30
0.0
 40
30.0
  1
team 111365
 41
0.8
 51
15.0
  7
TEAM
  0
LINE
  5
34
  8
TEAM-HIDE
 10
-894.000027
 20
0.0
 30
0.0
 11
900.0
 21
0.0
 31
0.0
  0
LINE
  5
37
  8
TEAM-BODY
 10
-894.000027
 20
580.0
 30
0.0
 11
894.0
 21
580.0
 31
0.0
  0
LINE
  5
38
  8
TEAM-BODY
 10
-894.000027
 20
548.0
 30
0.0
 11
894.0
 21
548.0
 31
0.0
  0
LINE
  5
39
  8
TEAM-BODY
 10
-900.000027
 20
554.0
 30
0.0
 11
-900.000027
 21
574.0
 31
0.0
  0
ARC
  5
3A
  8
TEAM-BODY
 10
-894.000027
 20
554.0
 30
0.0
 40
6.0
 50
180.0
 51
270.0
  0
ARC
  5
3B
  8
TEAM-BODY
 10
-894.000027
 20
574.0
 30
0.0
 40
6.0
 50
90.0
 51
180.0
  0
DIMENSION
  5
3C
  8
TEAM-MAS
  2
*D2
 10
25.999987
 20
101.059306
 30
0.0
 11
106.487718
 21
101.059306
 31
0.0
 12
-8000.0
 22
-288000.0
 32
0.0
 70
   128
 13
-26.000014
 23
149.999994
 33
0.0
 14
25.999987
 24
149.999994
 34
0.0
1001
ACAD
1000
DSTYLE
1002
{
1070
    40
1040
1.0
1002
}
  0
DIMENSION
  5
4B
  8
TEAM-MAS
  2
*D1
 10
940.049196
 20
149.999994
 30
0.0
 11
940.049196
 21
364.999997
 31
0.0
 12
-8000.0
 22
-288000.0
 32
0.0
 13
894.0
 23
580.0
 33
0.0
 14
25.999987
 24
149.999994
 34
0.0
 50
90.0
1001
ACAD
1000
DSTYLE
1002
{
1070
    40
1040
1.0
1002
}
  0
LINE
  5
59
  8
TEAM-AXE
 10
-0.000013
 20
473.599998
 30
0.0
 11
-0.000013
 21
546.399999
 31
0.0
  0
LINE
  5
5C
  8
TEAM-BODY
 10
900.0
 20
554.0
 30
0.0
 11
900.0
 21
574.0
 31
0.0
  0
ARC
  5
5D
  8
TEAM-BODY
 10
894.0
 20
554.0
 30
0.0
 40
6.0
 50
270.0
 51
0.0
  0
ARC
  5
5E
  8
TEAM-BODY
 10
894.0
 20
574.0
 30
0.0
 40
6.0
 50
0.0
 51
90.0
  0
ARC
  5
5F
  8
TEAM-BODY
 10
-1130.810864
 20
1550.980599
 30
0.0
 40
2197.030682
 50
323.027813
 51
332.837439
  0
LINE
  5
60
  8
TEAM-AXE
 10
-0.000013
 20
129.999993
 30
0.0
 11
-0.000013
 21
580.0
 31
0.0
  0
ARC
  5
61
  8
TEAM-KAN
 10
-43.890014
 20
149.439994
 30
0.0
 40
12.0
 50
30.19602
 51
88.48913
  0
ARC
  5
63
  8
TEAM-KAN
 10
-43.890014
 20
149.439994
 30
0.0
 40
9.0
 50
30.20452
 51
88.48275
  0
ARC
  5
64
  8
TEAM-KAN
 10
-29.190014
 20
157.999994
 30
0.0
 40
8.0
 50
210.196
 51
270.0
  0
ARC
  5
65
  8
TEAM-KAN
 10
-29.190014
 20
157.999994
 30
0.0
 40
5.0
 50
210.1888
 51
270.0
  0
LINE
  5
66
  8
TEAM-KAN
 10
-26.000014
 20
149.999994
 30
0.0
 11
-26.000014
 21
152.999994
 31
0.0
  0
ARC
  5
67
  8
TEAM-BODY
 10
-0.000013
 20
1660.810016
 30
0.0
 40
1500.000023
 50
268.5
 51
271.5
  0
LINE
  5
68
  8
TEAM-KAN
 10
-29.190014
 20
149.999994
 30
0.0
 11
29.189987
 21
149.999994
 31
0.0
  0
LINE
  5
69
  8
TEAM-KAN
 10
-29.190014
 20
152.999994
 30
0.0
 11
29.189987
 21
152.999994
 31
0.0
  0
ARC
  5
6A
  8
TEAM-KAN
 10
43.879987
 20
149.439994
 30
0.0
 40
12.0
 50
91.51086
 51
149.8134
  0
ARC
  5
6B
  8
TEAM-KAN
 10
43.879987
 20
149.439994
 30
0.0
 40
9.0
 50
91.49239
 51
149.808
  0
ARC
  5
6C
  8
TEAM-KAN
 10
29.189987
 20
157.999994
 30
0.0
 40
8.0
 50
270.0
 51
329.804
  0
ARC
  5
6D
  8
TEAM-KAN
 10
29.189987
 20
157.999994
 30
0.0
 40
5.0
 50
270.0
 51
329.7887
  0
LINE
  5
6E
  8
TEAM-KAN
 10
25.999987
 20
149.999994
 30
0.0
 11
25.999987
 21
152.999994
 31
0.0
  0
CIRCLE
  5
6F
  8
TEAM-KAN
 10
-0.000013
 20
509.999999
 30
0.0
 40
26.0
  0
LINE
  5
70
  8
TEAM-AXE
 10
-36.400014
 20
509.999999
 30
0.0
 11
36.399987
 21
509.999999
 31
0.0
  0
CIRCLE
  5
71
  8
TEAM-INSP
 10
0.0
 20
0.0
 30
0.0
 40
10.0
  0
LINE
  5
73
  8
TEAM-BODY
 10
39.259987
 20
161.329994
 30
0.0
 11
516.239994
 21
173.819994
 31
0.0
  0
ARC
  5
74
  8
TEAM-BODY
 10
-512.570021
 20
313.769996
 30
0.0
 40
140.000002
 50
216.9447
 51
268.5003
  0
LINE
  5
75
  8
TEAM-BODY
 10
-39.270014
 20
161.329994
 30
0.0
 11
-516.230021
 21
173.819994
 31
0.0
  0
LINE
  5
76
  8
TEAM-DET1
 10
-0.000013
 20
222.999995
 30
0.0
 11
-562.330022
 21
237.719995
 31
0.0
  0
LINE
  5
78
  8
TEAM-DET1
 10
562.319995
 20
237.719995
 30
0.0
 11
-0.000013
 21
222.999995
 31
0.0
  0
ARC
  5
79
  8
TEAM-DET1
 10
-0.000013
 20
-1605.860033
 30
0.0
 40
2000.00003
 50
72.61723
 51
107.3829
  0
ARC
  5
7A
  8
TEAM-DET1
 10
-0.000013
 20
-1595.800033
 30
0.0
 40
2000.00003
 50
72.46965
 51
107.5304
  0
ARC
  5
7B
  8
TEAM-DET1
 10
-0.000013
 20
-1640.000033
 30
0.0
 40
2000.00003
 50
73.11889
 51
106.8812
  0
ARC
  5
7C
  8
TEAM-DET1
 10
-0.000013
 20
-1570.000032
 30
0.0
 40
2000.00003
 50
72.09136
 51
107.9086
  0
ARC
  5
7D
  8
TEAM-BODY
 10
512.569994
 20
313.769996
 30
0.0
 40
140.000002
 50
271.5013
 51
323.0553
  0
ENDSEC
  0
EOF
