  0
SECTION
  2
HEADER
  9
$ACADVER
  1
AC1009
  9
$INSBASE
 10
0.0
 20
0.0
 30
0.0
  9
$EXTMIN
 10
-804.867446
 20
-379.798236
 30
0.0
  9
$EXTMAX
 10
854.290073
 20
462.640442
 30
0.000005
  9
$LIMMIN
 10
-804.867446
 20
-379.798236
  9
$LIMMAX
 10
854.290073
 20
462.640442
  9
$ORTHOMODE
 70
     1
  9
$REGENMODE
 70
     1
  9
$FILLMODE
 70
     1
  9
$QTEXTMODE
 70
     0
  9
$MIRRTEXT
 70
     0
  9
$DRAGMODE
 70
     2
  9
$LTSCALE
 40
50.0
  9
$OSMODE
 70
     0
  9
$ATTMODE
 70
     1
  9
$TEXTSIZE
 40
200.0
  9
$TRACEWID
 40
1.0
  9
$TEXTSTYLE
  7
STANDARD
  9
$CLAYER
  8
TEAM-MAS
  9
$CELTYPE
  6
BYLAYER
  9
$CECOLOR
 62
   256
  9
$DIMSCALE
 40
0.0
  9
$DIMASZ
 40
20.0
  9
$DIMEXO
 40
10.0
  9
$DIMDLI
 40
1.0
  9
$DIMRND
 40
0.0
  9
$DIMDLE
 40
0.0
  9
$DIMEXE
 40
1.0
  9
$DIMTP
 40
0.0
  9
$DIMTM
 40
0.0
  9
$DIMTXT
 40
35.0
  9
$DIMCEN
 40
1.0
  9
$DIMTSZ
 40
0.0
  9
$DIMTOL
 70
     0
  9
$DIMLIM
 70
     0
  9
$DIMTIH
 70
     0
  9
$DIMTOH
 70
     0
  9
$DIMSE1
 70
     0
  9
$DIMSE2
 70
     0
  9
$DIMTAD
 70
     0
  9
$DIMZIN
 70
     0
  9
$DIMBLK
  1

  9
$DIMASO
 70
     1
  9
$DIMSHO
 70
     0
  9
$DIMPOST
  1

  9
$DIMAPOST
  1

  9
$DIMALT
 70
     0
  9
$DIMALTD
 70
     2
  9
$DIMALTF
 40
25.4
  9
$DIMLFAC
 40
1.0
  9
$DIMTOFL
 70
     0
  9
$DIMTVP
 40
0.0
  9
$DIMTIX
 70
     0
  9
$DIMSOXD
 70
     0
  9
$DIMSAH
 70
     0
  9
$DIMBLK1
  1

  9
$DIMBLK2
  1

  9
$DIMSTYLE
  2
TEAM
  9
$DIMCLRD
 70
     9
  9
$DIMCLRE
 70
     9
  9
$DIMCLRT
 70
    11
  9
$DIMTFAC
 40
1.0
  9
$DIMGAP
 40
7.0
  9
$LUNITS
 70
     2
  9
$LUPREC
 70
     1
  9
$SKETCHINC
 40
1.0
  9
$FILLETRAD
 40
50.0
  9
$AUNITS
 70
     0
  9
$AUPREC
 70
     0
  9
$MENU
  1
ROPLANS
  9
$ELEVATION
 40
0.0
  9
$PELEVATION
 40
0.0
  9
$THICKNESS
 40
0.0
  9
$LIMCHECK
 70
     0
  9
$BLIPMODE
 70
     1
  9
$CHAMFERA
 40
0.0
  9
$CHAMFERB
 40
0.0
  9
$SKPOLY
 70
     0
  9
$TDCREATE
 40
2450392.957851
  9
$TDUPDATE
 40
2456124.650986
  9
$TDINDWG
 40
2.269834
  9
$TDUSRTIMER
 40
2.269834
  9
$USRTIMER
 70
     1
  9
$ANGBASE
 50
0.0
  9
$ANGDIR
 70
     0
  9
$PDMODE
 70
     0
  9
$PDSIZE
 40
0.0
  9
$PLINEWID
 40
0.0
  9
$COORDS
 70
     2
  9
$SPLFRAME
 70
     0
  9
$SPLINETYPE
 70
     6
  9
$SPLINESEGS
 70
     8
  9
$ATTDIA
 70
     0
  9
$ATTREQ
 70
     0
  9
$HANDLING
 70
     1
  9
$HANDSEED
  5
184
  9
$SURFTAB1
 70
    24
  9
$SURFTAB2
 70
    24
  9
$SURFTYPE
 70
     6
  9
$SURFU
 70
     6
  9
$SURFV
 70
     6
  9
$UCSNAME
  2

  9
$UCSORG
 10
0.0
 20
0.0
 30
0.0
  9
$UCSXDIR
 10
1.0
 20
0.0
 30
0.0
  9
$UCSYDIR
 10
0.0
 20
1.0
 30
0.0
  9
$PUCSNAME
  2

  9
$PUCSORG
 10
0.0
 20
0.0
 30
0.0
  9
$PUCSXDIR
 10
1.0
 20
0.0
 30
0.0
  9
$PUCSYDIR
 10
0.0
 20
1.0
 30
0.0
  9
$USERI1
 70
     0
  9
$USERI2
 70
     0
  9
$USERI3
 70
     0
  9
$USERI4
 70
     0
  9
$USERI5
 70
     0
  9
$USERR1
 40
0.0
  9
$USERR2
 40
0.0
  9
$USERR3
 40
0.0
  9
$USERR4
 40
0.0
  9
$USERR5
 40
0.0
  9
$WORLDVIEW
 70
     1
  9
$SHADEDGE
 70
     0
  9
$SHADEDIF
 70
    70
  9
$TILEMODE
 70
     1
  9
$MAXACTVP
 70
    16
  9
$PLIMCHECK
 70
     0
  9
$PEXTMIN
 10
-0.805942
 20
0.005011
 30
0.0
  9
$PEXTMAX
 10
20.250094
 20
11.356329
 30
0.0
  9
$PLIMMIN
 10
0.0
 20
0.0
  9
$PLIMMAX
 10
12.0
 20
9.0
  9
$UNITMODE
 70
     0
  9
$VISRETAIN
 70
     0
  9
$PLINEGEN
 70
     0
  9
$PSLTSCALE
 70
     0
  0
ENDSEC
  0
SECTION
  2
TABLES
  0
TABLE
  2
VPORT
 70
     2
  0
VPORT
  2
*ACTIVE
 70
     0
 10
0.0
 20
0.0
 11
1.0
 21
1.0
 12
24.711314
 22
41.421103
 13
0.0
 23
0.0
 14
1.0
 24
1.0
 15
50.0
 25
50.0
 16
0.0
 26
0.0
 36
1.0
 17
0.0
 27
0.0
 37
0.0
 40
870.725108
 41
1.911765
 42
50.0
 43
0.0
 44
0.0
 50
0.0
 51
0.0
 71
     0
 72
   100
 73
     1
 74
     1
 75
     0
 76
     0
 77
     0
 78
     0
  0
ENDTAB
  0
TABLE
  2
LTYPE
 70
     2
  0
LTYPE
  2
CONTINUOUS
 70
     0
  3
Solid Line
 72
    65
 73
     0
 40
0.0
  0
LTYPE
  2
31
 70
     0
  3

 72
    65
 73
     4
 40
2.1
 49
1.5
 49
-0.3
 49
0.0
 49
-0.3
  0
ENDTAB
  0
TABLE
  2
LAYER
 70
     8
  0
LAYER
  2
0
 70
     0
 62
     7
  6
CONTINUOUS
  0
LAYER
  2
DEFPOINTS
 70
     0
 62
     7
  6
CONTINUOUS
  0
LAYER
  2
TEAM-BODY
 70
     0
 62
     2
  6
CONTINUOUS
  0
LAYER
  2
TEAM-AXE
 70
     0
 62
    10
  6
31
  0
LAYER
  2
TEAM-MAS
 70
     0
 62
     9
  6
CONTINUOUS
  0
LAYER
  2
TEAM-TXT
 70
     0
 62
    11
  6
CONTINUOUS
  0
LAYER
  2
TEAM-DET1
 70
     0
 62
     4
  6
CONTINUOUS
  0
LAYER
  2
TEAM-INSP
 70
     0
 62
     5
  6
CONTINUOUS
  0
ENDTAB
  0
TABLE
  2
STYLE
 70
     2
  0
STYLE
  2
STANDARD
 70
     0
 40
0.0
 41
1.0
 50
0.0
 71
     0
 42
200.0
  3
txt
  4

  0
STYLE
  2
TEAM
 70
     0
 40
0.0
 41
0.8
 50
15.0
 71
     0
 42
7.0
  3
ROMANS.shx
  4

  0
ENDTAB
  0
TABLE
  2
VIEW
 70
     0
  0
ENDTAB
  0
TABLE
  2
UCS
 70
     0
  0
ENDTAB
  0
TABLE
  2
APPID
 70
     1
  0
APPID
  2
ACAD
 70
     0
  0
ENDTAB
  0
TABLE
  2
DIMSTYLE
 70
     1
  0
DIMSTYLE
  2
TEAM
 70
     0
  3

  4

  5

  6

  7

 40
0.0
 41
20.0
 42
10.0
 43
1.0
 44
1.0
 45
0.0
 46
0.0
 47
0.0
 48
0.0
140
35.0
141
1.0
142
0.0
143
25.4
144
1.0
145
0.0
146
1.0
147
7.0
 71
     0
 72
     0
 73
     0
 74
     0
 75
     0
 76
     0
 77
     0
 78
     0
170
     0
171
     2
172
     0
173
     0
174
     0
175
     0
176
     9
177
     9
178
    11
  0
ENDTAB
  0
ENDSEC
  0
SECTION
  2
BLOCKS
  0
BLOCK
  8
0
  2
$MODEL_SPACE
 70
     0
 10
0.0
 20
0.0
 30
0.0
  3
$MODEL_SPACE
  1

  0
ENDBLK
  5
10F
  8
0
  0
BLOCK
 67
     1
  8
0
  2
$PAPER_SPACE
 70
     0
 10
0.0
 20
0.0
 30
0.0
  3
$PAPER_SPACE
  1

  0
ENDBLK
  5
10D
 67
     1
  8
0
  0
BLOCK
  8
0
  2
*D0
 70
     1
 10
0.0
 20
0.0
 30
0.0
  3
*D0
  1

  0
LINE
  5
8A
  8
0
  6
BYBLOCK
 62
     9
 10
4800.0
 20
362.0
 30
0.0
 11
4800.0
 21
411.74034
 31
0.0
  0
LINE
  5
8B
  8
0
  6
BYBLOCK
 62
     9
 10
4490.0
 20
10.0
 30
0.0
 11
4490.0
 21
411.74034
 31
0.0
  0
LINE
  5
8C
  8
0
  6
BYBLOCK
 62
     9
 10
4780.0
 20
410.74034
 30
0.0
 11
4689.916667
 21
410.74034
 31
0.0
  0
LINE
  5
8D
  8
0
  6
BYBLOCK
 62
     9
 10
4510.0
 20
410.74034
 30
0.0
 11
4600.083333
 21
410.74034
 31
0.0
  0
SOLID
  5
8E
  8
0
  6
BYBLOCK
 62
     9
 10
4780.0
 20
414.073673
 30
0.0
 11
4780.0
 21
407.407006
 31
0.0
 12
4800.0
 22
410.74034
 32
0.0
 13
4800.0
 23
410.74034
 33
0.0
  0
SOLID
  5
8F
  8
0
  6
BYBLOCK
 62
     9
 10
4510.0
 20
414.073673
 30
0.0
 11
4510.0
 21
407.407006
 31
0.0
 12
4490.0
 22
410.74034
 32
0.0
 13
4490.0
 23
410.74034
 33
0.0
  0
TEXT
  5
90
  8
0
  6
BYBLOCK
 62
    11
 10
4607.083333
 20
393.24034
 30
0.0
 40
35.0
  1
310
  0
POINT
  5
91
  8
DEFPOINTS
  6
BYBLOCK
 62
     0
 10
4800.0
 20
352.0
 30
0.0
  0
POINT
  5
92
  8
DEFPOINTS
  6
BYBLOCK
 62
     0
 10
4490.0
 20
0.0
 30
0.0
  0
POINT
  5
93
  8
DEFPOINTS
  6
BYBLOCK
 62
     0
 10
4490.0
 20
410.74034
 30
0.0
  0
ENDBLK
  5
95
  8
0
  0
BLOCK
  8
0
  2
*D1
 70
     1
 10
0.0
 20
0.0
 30
0.0
  3
*D1
  1

  0
LINE
  5
22
  8
0
  6
BYBLOCK
 62
     9
 10
4800.0
 20
362.0
 30
0.0
 11
4800.0
 21
446.083588
 31
0.0
  0
LINE
  5
23
  8
0
  6
BYBLOCK
 62
     9
 10
3200.0
 20
362.0
 30
0.0
 11
3200.0
 21
446.083588
 31
0.0
  0
LINE
  5
24
  8
0
  6
BYBLOCK
 62
     9
 10
4780.0
 20
445.083588
 30
0.0
 11
4059.5
 21
445.083588
 31
0.0
  0
LINE
  5
25
  8
0
  6
BYBLOCK
 62
     9
 10
3220.0
 20
445.083588
 30
0.0
 11
3940.5
 21
445.083588
 31
0.0
  0
SOLID
  5
26
  8
0
  6
BYBLOCK
 62
     9
 10
4780.0
 20
448.416921
 30
0.0
 11
4780.0
 21
441.750255
 31
0.0
 12
4800.0
 22
445.083588
 32
0.0
 13
4800.0
 23
445.083588
 33
0.0
  0
SOLID
  5
27
  8
0
  6
BYBLOCK
 62
     9
 10
3220.0
 20
448.416921
 30
0.0
 11
3220.0
 21
441.750255
 31
0.0
 12
3200.0
 22
445.083588
 32
0.0
 13
3200.0
 23
445.083588
 33
0.0
  0
TEXT
  5
28
  8
0
  6
BYBLOCK
 62
    11
 10
3947.5
 20
427.583588
 30
0.0
 40
35.0
  1
1600
  0
POINT
  5
29
  8
DEFPOINTS
  6
BYBLOCK
 62
     0
 10
4800.0
 20
352.0
 30
0.0
  0
POINT
  5
2B
  8
DEFPOINTS
  6
BYBLOCK
 62
     0
 10
3200.0
 20
352.0
 30
0.0
  0
POINT
  5
2C
  8
DEFPOINTS
  6
BYBLOCK
 62
     0
 10
3200.0
 20
445.083588
 30
0.0
  0
ENDBLK
  5
2E
  8
0
  0
BLOCK
  8
0
  2
*D2
 70
     1
 10
0.0
 20
0.0
 30
0.0
  3
*D2
  1

  0
LINE
  5
7C
  8
0
  6
BYBLOCK
 62
     9
 10
4787.0
 20
375.0
 30
0.0
 11
4837.694439
 21
375.0
 31
0.0
  0
LINE
  5
7D
  8
0
  6
BYBLOCK
 62
     9
 10
4787.0
 20
-375.0
 30
0.0
 11
4837.694439
 21
-375.0
 31
0.0
  0
LINE
  5
7E
  8
0
  6
BYBLOCK
 62
     9
 10
4836.694439
 20
355.0
 30
0.0
 11
4836.694439
 21
50.75
 31
0.0
  0
LINE
  5
7F
  8
0
  6
BYBLOCK
 62
     9
 10
4836.694439
 20
-355.0
 30
0.0
 11
4836.694439
 21
-50.75
 31
0.0
  0
SOLID
  5
80
  8
0
  6
BYBLOCK
 62
     9
 10
4833.361105
 20
355.0
 30
0.0
 11
4840.027772
 21
355.0
 31
0.0
 12
4836.694439
 22
375.0
 32
0.0
 13
4836.694439
 23
375.0
 33
0.0
  0
SOLID
  5
81
  8
0
  6
BYBLOCK
 62
     9
 10
4833.361105
 20
-355.0
 30
0.0
 11
4840.027772
 21
-355.0
 31
0.0
 12
4836.694439
 22
-375.0
 32
0.0
 13
4836.694439
 23
-375.0
 33
0.0
  0
TEXT
  5
82
  8
0
  6
BYBLOCK
 62
    11
 10
4854.194439
 20
-43.75
 30
0.0
 40
35.0
  1
750
 50
90.0
  0
POINT
  5
83
  8
DEFPOINTS
  6
BYBLOCK
 62
     0
 10
4777.0
 20
375.0
 30
0.0
  0
POINT
  5
84
  8
DEFPOINTS
  6
BYBLOCK
 62
     0
 10
4777.0
 20
-375.0
 30
0.0
  0
POINT
  5
85
  8
DEFPOINTS
  6
BYBLOCK
 62
     0
 10
4836.694439
 20
-375.0
 30
0.0
  0
ENDBLK
  5
87
  8
0
  0
ENDSEC
  0
SECTION
  2
ENTITIES
  0
DIMENSION
  5
20
  8
TEAM-MAS
  2
*D1
 10
-800.0
 20
445.083588
 30
0.0
 11
0.0
 21
445.083588
 31
0.0
 12
-4000.0
 22
0.0
 32
0.0
 13
800.0
 23
352.0
 33
0.0
 14
-800.0
 24
352.0
 34
0.0
1001
ACAD
1000
DSTYLE
1002
{
1070
    40
1040
1.0
1002
}
  0
ARC
  5
2F
  8
TEAM-BODY
 10
-483.808594
 20
24686.812988
 30
0.0
 40
25000.0
 50
269.777954
 51
272.187469
  0
ARC
  5
31
  8
TEAM-BODY
 10
-483.829102
 20
-24686.812012
 30
0.0
 40
25000.0
 50
87.824989
 51
90.221992
  0
LINE
  5
32
  8
TEAM-BODY
 10
777.0
 20
-375.0
 30
0.0
 11
-777.0
 21
-375.0
 31
0.0
  0
LINE
  5
33
  8
TEAM-BODY
 10
777.0
 20
375.0
 30
0.0
 11
-777.0
 21
375.0
 31
0.0
  0
LINE
  5
34
  8
TEAM-AXE
 10
800.0
 20
0.0
 30
0.0
 11
-800.0
 21
0.0
 31
0.0
  0
LINE
  5
37
  8
TEAM-BODY
 10
375.0
 20
-150.0
 30
0.0
 11
-258.210938
 21
-150.0
 31
0.0
  0
LINE
  5
38
  8
TEAM-BODY
 10
375.0
 20
150.0
 30
0.0
 11
-258.210938
 21
150.0
 31
0.0
  0
TEXT
  5
39
  8
TEAM-TXT
 10
-544.896831
 20
229.506245
 30
0.0
 40
30.0
  1
team 111381
 41
0.7
 51
15.0
  7
TEAM
  0
ARC
  5
3C
  8
TEAM-BODY
 10
-777.0
 20
-352.0
 30
0.0
 40
23.0
 50
180.0
 51
270.0
  0
ARC
  5
3D
  8
TEAM-BODY
 10
-777.0
 20
352.0
 30
0.0
 40
23.0
 50
90.0
 51
180.0
  0
ARC
  5
3E
  8
TEAM-BODY
 10
1274.84375
 20
0.0
 30
0.0
 40
2000.0
 50
179.283768
 51
180.716217
  0
ARC
  5
3F
  8
TEAM-BODY
 10
255.0
 20
-25.02002
 30
0.0
 40
980.0
 50
179.998825
 51
190.711182
  0
ARC
  5
40
  8
TEAM-BODY
 10
255.0
 20
25.020019
 30
0.0
 40
980.0
 50
169.288803
 51
180.00116
  0
ARC
  5
41
  8
TEAM-BODY
 10
-580.19043
 20
-183.0
 30
0.0
 40
130.0
 50
190.711151
 51
269.778351
  0
ARC
  5
42
  8
TEAM-BODY
 10
-580.19043
 20
183.0
 30
0.0
 40
130.0
 50
90.221657
 51
169.288834
  0
LINE
  5
43
  8
TEAM-BODY
 10
-800.0
 20
352.0
 30
0.0
 11
-800.0
 21
-352.0
 31
0.0
  0
ARC
  5
44
  8
TEAM-BODY
 10
-258.210938
 20
-70.0
 30
0.0
 40
80.0
 50
187.180801
 51
270.0
  0
ARC
  5
45
  8
TEAM-BODY
 10
-258.210938
 20
70.0
 30
0.0
 40
80.0
 50
90.0
 51
172.819199
  0
ARC
  5
46
  8
TEAM-BODY
 10
297.396972
 20
0.0
 30
0.0
 40
640.0
 50
172.819229
 51
187.180756
  0
POLYLINE
  5
47
  8
TEAM-DET1
 66
     1
 10
0.0
 20
0.0
 30
0.0
  0
VERTEX
  5
115
  8
TEAM-DET1
 10
691.546875
 20
-26.0
 30
0.0
  0
VERTEX
  5
116
  8
TEAM-DET1
 10
693.161133
 20
-25.658936
 30
0.0
  0
VERTEX
  5
117
  8
TEAM-DET1
 10
694.66748
 20
-24.70166
 30
0.0
  0
VERTEX
  5
118
  8
TEAM-DET1
 10
695.990234
 20
-23.292481
 30
0.0
  0
VERTEX
  5
119
  8
TEAM-DET1
 10
697.099121
 20
-21.624268
 30
0.0
  0
VERTEX
  5
11A
  8
TEAM-DET1
 10
698.0
 20
-19.861328
 30
0.0
  0
VERTEX
  5
11B
  8
TEAM-DET1
 10
698.719726
 20
-18.116455
 30
0.0
  0
VERTEX
  5
11C
  8
TEAM-DET1
 10
699.289551
 20
-16.454102
 30
0.0
  0
VERTEX
  5
11D
  8
TEAM-DET1
 10
699.740722
 20
-14.904541
 30
0.0
  0
VERTEX
  5
11E
  8
TEAM-DET1
 10
700.098633
 20
-13.47583
 30
0.0
  0
VERTEX
  5
11F
  8
TEAM-DET1
 10
700.384765
 20
-12.164551
 30
0.0
  0
VERTEX
  5
120
  8
TEAM-DET1
 10
700.614746
 20
-10.961182
 30
0.0
  0
VERTEX
  5
121
  8
TEAM-DET1
 10
701.177734
 20
-6.997315
 30
0.0
  0
VERTEX
  5
122
  8
TEAM-DET1
 10
701.498535
 20
-2.555176
 30
0.0
  0
VERTEX
  5
123
  8
TEAM-DET1
 10
701.433105
 20
3.914062
 30
0.0
  0
VERTEX
  5
124
  8
TEAM-DET1
 10
700.614746
 20
10.961181
 30
0.0
  0
VERTEX
  5
125
  8
TEAM-DET1
 10
700.384765
 20
12.164551
 30
0.0
  0
VERTEX
  5
126
  8
TEAM-DET1
 10
700.098633
 20
13.47583
 30
0.0
  0
VERTEX
  5
127
  8
TEAM-DET1
 10
699.740722
 20
14.904541
 30
0.0
  0
VERTEX
  5
128
  8
TEAM-DET1
 10
699.289551
 20
16.454101
 30
0.0
  0
VERTEX
  5
129
  8
TEAM-DET1
 10
698.719726
 20
18.116455
 30
0.0
  0
VERTEX
  5
12A
  8
TEAM-DET1
 10
698.0
 20
19.861328
 30
0.0
  0
VERTEX
  5
12B
  8
TEAM-DET1
 10
697.099121
 20
21.624267
 30
0.0
  0
VERTEX
  5
12C
  8
TEAM-DET1
 10
695.990234
 20
23.29248
 30
0.0
  0
VERTEX
  5
12D
  8
TEAM-DET1
 10
694.66748
 20
24.70166
 30
0.0
  0
VERTEX
  5
12E
  8
TEAM-DET1
 10
693.161133
 20
25.658935
 30
0.0
  0
VERTEX
  5
12F
  8
TEAM-DET1
 10
691.546875
 20
26.0
 30
0.0
  0
VERTEX
  5
130
  8
TEAM-DET1
 10
689.932617
 20
25.658935
 30
0.0
  0
VERTEX
  5
131
  8
TEAM-DET1
 10
688.426269
 20
24.70166
 30
0.0
  0
VERTEX
  5
132
  8
TEAM-DET1
 10
687.103515
 20
23.29248
 30
0.0
  0
VERTEX
  5
133
  8
TEAM-DET1
 10
685.994629
 20
21.624267
 30
0.0
  0
VERTEX
  5
134
  8
TEAM-DET1
 10
685.093261
 20
19.861328
 30
0.0
  0
VERTEX
  5
135
  8
TEAM-DET1
 10
684.374023
 20
18.116455
 30
0.0
  0
VERTEX
  5
136
  8
TEAM-DET1
 10
683.804199
 20
16.454101
 30
0.0
  0
VERTEX
  5
137
  8
TEAM-DET1
 10
683.353027
 20
14.904541
 30
0.0
  0
VERTEX
  5
138
  8
TEAM-DET1
 10
682.995117
 20
13.47583
 30
0.0
  0
VERTEX
  5
139
  8
TEAM-DET1
 10
682.708984
 20
12.164551
 30
0.0
  0
VERTEX
  5
13A
  8
TEAM-DET1
 10
682.479004
 20
10.961181
 30
0.0
  0
VERTEX
  5
13B
  8
TEAM-DET1
 10
682.292969
 20
9.854492
 30
0.0
  0
VERTEX
  5
13C
  8
TEAM-DET1
 10
681.832031
 20
6.165283
 30
0.0
  0
VERTEX
  5
13D
  8
TEAM-DET1
 10
681.57373
 20
1.902588
 30
0.0
  0
VERTEX
  5
13E
  8
TEAM-DET1
 10
681.706543
 20
-4.630371
 30
0.0
  0
VERTEX
  5
13F
  8
TEAM-DET1
 10
682.708984
 20
-12.164551
 30
0.0
  0
VERTEX
  5
140
  8
TEAM-DET1
 10
682.995117
 20
-13.47583
 30
0.0
  0
VERTEX
  5
141
  8
TEAM-DET1
 10
683.353027
 20
-14.904541
 30
0.0
  0
VERTEX
  5
142
  8
TEAM-DET1
 10
683.804199
 20
-16.454102
 30
0.0
  0
VERTEX
  5
143
  8
TEAM-DET1
 10
684.374023
 20
-18.116455
 30
0.0
  0
VERTEX
  5
144
  8
TEAM-DET1
 10
685.09375
 20
-19.861328
 30
0.0
  0
SEQEND
  5
145
  8
TEAM-DET1
  0
DIMENSION
  5
7A
  8
TEAM-MAS
  2
*D2
 10
836.694439
 20
-375.0
 30
0.0
 11
836.694439
 21
0.0
 31
0.0
 12
-4000.0
 22
0.0
 32
0.0
 13
777.0
 23
375.0
 33
0.0
 14
777.0
 24
-375.0
 34
0.0
 50
90.0
1001
ACAD
1000
DSTYLE
1002
{
1070
    40
1040
1.0
1002
}
  0
DIMENSION
  5
88
  8
TEAM-MAS
  2
*D0
 10
490.0
 20
410.74034
 30
0.0
 11
645.0
 21
410.74034
 31
0.0
 12
-4000.0
 22
0.0
 32
0.0
 13
800.0
 23
352.0
 33
0.0
 14
490.0
 24
0.0
 34
0.0
1001
ACAD
1000
DSTYLE
1002
{
1070
    40
1040
1.0
1002
}
  0
CIRCLE
  5
96
  8
TEAM-INSP
 10
0.0
 20
0.0
 30
0.0
 40
10.0
  0
CIRCLE
  5
98
  8
TEAM-BODY
 10
490.0
 20
0.0
 30
0.0
 40
26.0
  0
POLYLINE
  5
99
  8
TEAM-BODY
 66
     1
 10
0.0
 20
0.0
 30
0.0
  0
VERTEX
  5
146
  8
TEAM-BODY
 10
470.428222
 20
-294.96875
 30
0.0
  0
VERTEX
  5
147
  8
TEAM-BODY
 10
474.333496
 20
-294.96875
 30
0.0
  0
VERTEX
  5
148
  8
TEAM-BODY
 10
492.978515
 20
-293.316895
 30
0.0
  0
VERTEX
  5
149
  8
TEAM-BODY
 10
511.380371
 20
-290.042969
 30
0.0
  0
VERTEX
  5
14A
  8
TEAM-BODY
 10
529.386719
 20
-285.205567
 30
0.0
  0
VERTEX
  5
14B
  8
TEAM-BODY
 10
546.858398
 20
-278.886231
 30
0.0
  0
VERTEX
  5
14C
  8
TEAM-BODY
 10
563.674316
 20
-271.1875
 30
0.0
  0
VERTEX
  5
14D
  8
TEAM-BODY
 10
579.731933
 20
-262.226075
 30
0.0
  0
VERTEX
  5
14E
  8
TEAM-BODY
 10
594.951172
 20
-252.12793
 30
0.0
  0
VERTEX
  5
14F
  8
TEAM-BODY
 10
609.270508
 20
-241.021485
 30
0.0
  0
VERTEX
  5
150
  8
TEAM-BODY
 10
622.649414
 20
-229.035645
 30
0.0
  0
VERTEX
  5
151
  8
TEAM-BODY
 10
635.064453
 20
-216.292969
 30
0.0
  0
VERTEX
  5
152
  8
TEAM-BODY
 10
646.506836
 20
-202.908203
 30
0.0
  0
VERTEX
  5
153
  8
TEAM-BODY
 10
656.97998
 20
-188.987305
 30
0.0
  0
VERTEX
  5
154
  8
TEAM-BODY
 10
666.496582
 20
-174.624024
 30
0.0
  0
VERTEX
  5
155
  8
TEAM-BODY
 10
675.077148
 20
-159.900391
 30
0.0
  0
VERTEX
  5
156
  8
TEAM-BODY
 10
682.745117
 20
-144.888672
 30
0.0
  0
VERTEX
  5
157
  8
TEAM-BODY
 10
689.52832
 20
-129.648438
 30
0.0
  0
VERTEX
  5
158
  8
TEAM-BODY
 10
695.453613
 20
-114.230469
 30
0.0
  0
VERTEX
  5
159
  8
TEAM-BODY
 10
700.548828
 20
-98.676758
 30
0.0
  0
VERTEX
  5
15A
  8
TEAM-BODY
 10
704.839844
 20
-83.019532
 30
0.0
  0
VERTEX
  5
15B
  8
TEAM-BODY
 10
708.348633
 20
-67.28711
 30
0.0
  0
VERTEX
  5
15C
  8
TEAM-BODY
 10
711.095703
 20
-51.5
 30
0.0
  0
VERTEX
  5
15D
  8
TEAM-BODY
 10
713.097656
 20
-35.675293
 30
0.0
  0
VERTEX
  5
15E
  8
TEAM-BODY
 10
714.365234
 20
-19.827149
 30
0.0
  0
VERTEX
  5
15F
  8
TEAM-BODY
 10
714.907226
 20
-3.965821
 30
0.0
  0
VERTEX
  5
160
  8
TEAM-BODY
 10
714.726562
 20
11.897461
 30
0.0
  0
VERTEX
  5
161
  8
TEAM-BODY
 10
713.822265
 20
27.753418
 30
0.0
  0
VERTEX
  5
162
  8
TEAM-BODY
 10
712.188965
 20
43.591308
 30
0.0
  0
VERTEX
  5
163
  8
TEAM-BODY
 10
709.816406
 20
59.398925
 30
0.0
  0
VERTEX
  5
164
  8
TEAM-BODY
 10
706.690429
 20
75.161133
 30
0.0
  0
VERTEX
  5
165
  8
TEAM-BODY
 10
702.793457
 20
90.859375
 30
0.0
  0
VERTEX
  5
166
  8
TEAM-BODY
 10
698.103515
 20
106.46875
 30
0.0
  0
VERTEX
  5
167
  8
TEAM-BODY
 10
692.596191
 20
121.958984
 30
0.0
  0
VERTEX
  5
168
  8
TEAM-BODY
 10
686.245605
 20
137.293945
 30
0.0
  0
VERTEX
  5
169
  8
TEAM-BODY
 10
679.023437
 20
152.426758
 30
0.0
  0
VERTEX
  5
16A
  8
TEAM-BODY
 10
670.902344
 20
167.302734
 30
0.0
  0
VERTEX
  5
16B
  8
TEAM-BODY
 10
661.856933
 20
181.855468
 30
0.0
  0
VERTEX
  5
16C
  8
TEAM-BODY
 10
651.863769
 20
196.008789
 30
0.0
  0
VERTEX
  5
16D
  8
TEAM-BODY
 10
640.907226
 20
209.673828
 30
0.0
  0
VERTEX
  5
16E
  8
TEAM-BODY
 10
628.978515
 20
222.751465
 30
0.0
  0
VERTEX
  5
16F
  8
TEAM-BODY
 10
616.07959
 20
235.130859
 30
0.0
  0
VERTEX
  5
170
  8
TEAM-BODY
 10
602.226074
 20
246.692627
 30
0.0
  0
VERTEX
  5
171
  8
TEAM-BODY
 10
587.450683
 20
257.311035
 30
0.0
  0
VERTEX
  5
172
  8
TEAM-BODY
 10
571.803711
 20
266.856933
 30
0.0
  0
VERTEX
  5
173
  8
TEAM-BODY
 10
555.35498
 20
275.202392
 30
0.0
  0
VERTEX
  5
174
  8
TEAM-BODY
 10
538.197265
 20
282.225097
 30
0.0
  0
VERTEX
  5
175
  8
TEAM-BODY
 10
520.441894
 20
287.815429
 30
0.0
  0
SEQEND
  5
176
  8
TEAM-BODY
  0
POLYLINE
  5
CB
  8
TEAM-BODY
 66
     1
 10
0.0
 20
0.0
 30
0.0
  0
VERTEX
  5
177
  8
TEAM-BODY
 10
685.09375
 20
-19.861328
 30
0.0
  0
VERTEX
  5
178
  8
TEAM-BODY
 10
685.994629
 20
-21.624268
 30
0.0
  0
VERTEX
  5
179
  8
TEAM-BODY
 10
687.103515
 20
-23.292481
 30
0.0
  0
VERTEX
  5
17A
  8
TEAM-BODY
 10
688.426269
 20
-24.70166
 30
0.0
  0
VERTEX
  5
17B
  8
TEAM-BODY
 10
689.932617
 20
-25.658936
 30
0.0
  0
VERTEX
  5
17C
  8
TEAM-BODY
 10
691.546875
 20
-26.0
 30
0.0
  0
SEQEND
  5
17D
  8
TEAM-BODY
  0
POLYLINE
  5
D3
  8
TEAM-BODY
 66
     1
 10
0.0
 20
0.0
 30
0.0
  0
VERTEX
  5
17E
  8
TEAM-BODY
 10
520.441894
 20
287.815429
 30
0.0
  0
VERTEX
  5
17F
  8
TEAM-BODY
 10
502.219238
 20
291.879883
 30
0.0
  0
VERTEX
  5
180
  8
TEAM-BODY
 10
483.676269
 20
294.348144
 30
0.0
  0
VERTEX
  5
181
  8
TEAM-BODY
 10
464.970215
 20
295.175781
 30
0.0
  0
SEQEND
  5
182
  8
TEAM-BODY
  0
ARC
  5
D9
  8
TEAM-BODY
 10
777.0
 20
-352.0
 30
0.0
 40
23.0
 50
270.0
 51
0.0
  0
ARC
  5
DA
  8
TEAM-BODY
 10
777.0
 20
352.0
 30
0.0
 40
23.0
 50
0.0
 51
90.0
  0
LINE
  5
DB
  8
TEAM-BODY
 10
800.0
 20
-352.0
 30
0.0
 11
800.0
 21
352.0
 31
0.0
  0
LINE
  5
DC
  8
TEAM-AXE
 10
0.0
 20
375.0
 30
0.0
 11
0.0
 21
-375.0
 31
0.0
  0
ARC
  5
DD
  8
TEAM-BODY
 10
375.0
 20
0.0
 30
0.0
 40
150.0
 50
270.0
 51
90.0
  0
ENDSEC
  0
EOF
