  0
SECTION
  2
HEADER
  9
$ACADVER
  1
AC1009
  9
$INSBASE
 10
0.0
 20
0.0
 30
0.0
  9
$EXTMIN
 10
-801.296897
 20
-10.025171
 30
0.0
  9
$EXTMAX
 10
855.31023
 20
614.315702
 30
0.000005
  9
$LIMMIN
 10
-801.296897
 20
-10.025171
  9
$LIMMAX
 10
855.31023
 20
614.315702
  9
$ORTHOMODE
 70
     1
  9
$REGENMODE
 70
     1
  9
$FILLMODE
 70
     1
  9
$QTEXTMODE
 70
     0
  9
$MIRRTEXT
 70
     0
  9
$DRAGMODE
 70
     2
  9
$LTSCALE
 40
50.0
  9
$OSMODE
 70
     0
  9
$ATTMODE
 70
     1
  9
$TEXTSIZE
 40
200.0
  9
$TRACEWID
 40
1.0
  9
$TEXTSTYLE
  7
STANDARD
  9
$CLAYER
  8
TEAM-MAS
  9
$CELTYPE
  6
BYLAYER
  9
$CECOLOR
 62
   256
  9
$DIMSCALE
 40
0.0
  9
$DIMASZ
 40
20.0
  9
$DIMEXO
 40
10.0
  9
$DIMDLI
 40
1.0
  9
$DIMRND
 40
0.0
  9
$DIMDLE
 40
0.0
  9
$DIMEXE
 40
1.0
  9
$DIMTP
 40
0.0
  9
$DIMTM
 40
0.0
  9
$DIMTXT
 40
35.0
  9
$DIMCEN
 40
1.0
  9
$DIMTSZ
 40
0.0
  9
$DIMTOL
 70
     0
  9
$DIMLIM
 70
     0
  9
$DIMTIH
 70
     0
  9
$DIMTOH
 70
     0
  9
$DIMSE1
 70
     0
  9
$DIMSE2
 70
     0
  9
$DIMTAD
 70
     0
  9
$DIMZIN
 70
     0
  9
$DIMBLK
  1

  9
$DIMASO
 70
     1
  9
$DIMSHO
 70
     0
  9
$DIMPOST
  1

  9
$DIMAPOST
  1

  9
$DIMALT
 70
     0
  9
$DIMALTD
 70
     2
  9
$DIMALTF
 40
25.4
  9
$DIMLFAC
 40
1.0
  9
$DIMTOFL
 70
     0
  9
$DIMTVP
 40
0.0
  9
$DIMTIX
 70
     0
  9
$DIMSOXD
 70
     0
  9
$DIMSAH
 70
     0
  9
$DIMBLK1
  1

  9
$DIMBLK2
  1

  9
$DIMSTYLE
  2
TEAM
  9
$DIMCLRD
 70
     9
  9
$DIMCLRE
 70
     9
  9
$DIMCLRT
 70
    11
  9
$DIMTFAC
 40
1.0
  9
$DIMGAP
 40
7.0
  9
$LUNITS
 70
     2
  9
$LUPREC
 70
     1
  9
$SKETCHINC
 40
1.0
  9
$FILLETRAD
 40
50.0
  9
$AUNITS
 70
     0
  9
$AUPREC
 70
     0
  9
$MENU
  1
ROPLANS
  9
$ELEVATION
 40
0.0
  9
$PELEVATION
 40
0.0
  9
$THICKNESS
 40
0.0
  9
$LIMCHECK
 70
     0
  9
$BLIPMODE
 70
     1
  9
$CHAMFERA
 40
0.0
  9
$CHAMFERB
 40
0.0
  9
$SKPOLY
 70
     0
  9
$TDCREATE
 40
2450392.957851
  9
$TDUPDATE
 40
2456124.650986
  9
$TDINDWG
 40
2.269834
  9
$TDUSRTIMER
 40
2.269834
  9
$USRTIMER
 70
     1
  9
$ANGBASE
 50
0.0
  9
$ANGDIR
 70
     0
  9
$PDMODE
 70
     0
  9
$PDSIZE
 40
0.0
  9
$PLINEWID
 40
0.0
  9
$COORDS
 70
     2
  9
$SPLFRAME
 70
     0
  9
$SPLINETYPE
 70
     6
  9
$SPLINESEGS
 70
     8
  9
$ATTDIA
 70
     0
  9
$ATTREQ
 70
     0
  9
$HANDLING
 70
     1
  9
$HANDSEED
  5
AF
  9
$SURFTAB1
 70
    24
  9
$SURFTAB2
 70
    24
  9
$SURFTYPE
 70
     6
  9
$SURFU
 70
     6
  9
$SURFV
 70
     6
  9
$UCSNAME
  2

  9
$UCSORG
 10
0.0
 20
0.0
 30
0.0
  9
$UCSXDIR
 10
1.0
 20
0.0
 30
0.0
  9
$UCSYDIR
 10
0.0
 20
1.0
 30
0.0
  9
$PUCSNAME
  2

  9
$PUCSORG
 10
0.0
 20
0.0
 30
0.0
  9
$PUCSXDIR
 10
1.0
 20
0.0
 30
0.0
  9
$PUCSYDIR
 10
0.0
 20
1.0
 30
0.0
  9
$USERI1
 70
     0
  9
$USERI2
 70
     0
  9
$USERI3
 70
     0
  9
$USERI4
 70
     0
  9
$USERI5
 70
     0
  9
$USERR1
 40
0.0
  9
$USERR2
 40
0.0
  9
$USERR3
 40
0.0
  9
$USERR4
 40
0.0
  9
$USERR5
 40
0.0
  9
$WORLDVIEW
 70
     1
  9
$SHADEDGE
 70
     0
  9
$SHADEDIF
 70
    70
  9
$TILEMODE
 70
     1
  9
$MAXACTVP
 70
    16
  9
$PLIMCHECK
 70
     0
  9
$PEXTMIN
 10
-0.805942
 20
0.005011
 30
0.0
  9
$PEXTMAX
 10
20.250094
 20
11.356329
 30
0.0
  9
$PLIMMIN
 10
0.0
 20
0.0
  9
$PLIMMAX
 10
12.0
 20
9.0
  9
$UNITMODE
 70
     0
  9
$VISRETAIN
 70
     0
  9
$PLINEGEN
 70
     0
  9
$PSLTSCALE
 70
     0
  0
ENDSEC
  0
SECTION
  2
TABLES
  0
TABLE
  2
VPORT
 70
     2
  0
VPORT
  2
*ACTIVE
 70
     0
 10
0.0
 20
0.0
 11
1.0
 21
1.0
 12
27.006666
 22
302.145266
 13
0.0
 23
0.0
 14
1.0
 24
1.0
 15
50.0
 25
50.0
 16
0.0
 26
0.0
 36
1.0
 17
0.0
 27
0.0
 37
0.0
 40
869.386663
 41
1.911765
 42
50.0
 43
0.0
 44
0.0
 50
0.0
 51
0.0
 71
     0
 72
   100
 73
     1
 74
     1
 75
     0
 76
     0
 77
     0
 78
     0
  0
ENDTAB
  0
TABLE
  2
LTYPE
 70
     2
  0
LTYPE
  2
CONTINUOUS
 70
     0
  3
Solid Line
 72
    65
 73
     0
 40
0.0
  0
LTYPE
  2
31
 70
     0
  3

 72
    65
 73
     4
 40
2.1
 49
1.5
 49
-0.3
 49
0.0
 49
-0.3
  0
ENDTAB
  0
TABLE
  2
LAYER
 70
     8
  0
LAYER
  2
0
 70
     0
 62
     7
  6
CONTINUOUS
  0
LAYER
  2
DEFPOINTS
 70
     0
 62
     7
  6
CONTINUOUS
  0
LAYER
  2
TEAM-BODY
 70
     0
 62
     2
  6
CONTINUOUS
  0
LAYER
  2
TEAM-AXE
 70
     0
 62
    10
  6
31
  0
LAYER
  2
TEAM-MAS
 70
     0
 62
     9
  6
CONTINUOUS
  0
LAYER
  2
TEAM-TXT
 70
     0
 62
    11
  6
CONTINUOUS
  0
LAYER
  2
TEAM-DET1
 70
     0
 62
     4
  6
CONTINUOUS
  0
LAYER
  2
TEAM-INSP
 70
     0
 62
     5
  6
CONTINUOUS
  0
ENDTAB
  0
TABLE
  2
STYLE
 70
     2
  0
STYLE
  2
STANDARD
 70
     0
 40
0.0
 41
1.0
 50
0.0
 71
     0
 42
200.0
  3
txt
  4

  0
STYLE
  2
TEAM
 70
     0
 40
0.0
 41
0.8
 50
15.0
 71
     0
 42
7.0
  3
ROMANS.shx
  4

  0
ENDTAB
  0
TABLE
  2
VIEW
 70
     0
  0
ENDTAB
  0
TABLE
  2
UCS
 70
     0
  0
ENDTAB
  0
TABLE
  2
APPID
 70
     1
  0
APPID
  2
ACAD
 70
     0
  0
ENDTAB
  0
TABLE
  2
DIMSTYLE
 70
     1
  0
DIMSTYLE
  2
TEAM
 70
     0
  3

  4

  5

  6

  7

 40
0.0
 41
20.0
 42
10.0
 43
1.0
 44
1.0
 45
0.0
 46
0.0
 47
0.0
 48
0.0
140
35.0
141
1.0
142
0.0
143
25.4
144
1.0
145
0.0
146
1.0
147
7.0
 71
     0
 72
     0
 73
     0
 74
     0
 75
     0
 76
     0
 77
     0
 78
     0
170
     0
171
     2
172
     0
173
     0
174
     0
175
     0
176
     9
177
     9
178
    11
  0
ENDTAB
  0
ENDSEC
  0
SECTION
  2
BLOCKS
  0
BLOCK
  8
0
  2
$MODEL_SPACE
 70
     0
 10
0.0
 20
0.0
 30
0.0
  3
$MODEL_SPACE
  1

  0
ENDBLK
  5
A3
  8
0
  0
BLOCK
 67
     1
  8
0
  2
$PAPER_SPACE
 70
     0
 10
0.0
 20
0.0
 30
0.0
  3
$PAPER_SPACE
  1

  0
ENDBLK
  5
A1
 67
     1
  8
0
  0
BLOCK
  8
0
  2
*D0
 70
     1
 10
0.0
 20
0.0
 30
0.0
  3
*D0
  1

  0
LINE
  5
59
  8
0
  6
BYBLOCK
 62
     9
 10
11200.0
 20
559.0
 30
0.0
 11
11200.0
 21
592.776011
 31
0.0
  0
LINE
  5
5A
  8
0
  6
BYBLOCK
 62
     9
 10
12800.0
 20
559.0
 30
0.0
 11
12800.0
 21
592.776011
 31
0.0
  0
LINE
  5
5B
  8
0
  6
BYBLOCK
 62
     9
 10
11220.0
 20
591.776011
 30
0.0
 11
11940.5
 21
591.776011
 31
0.0
  0
LINE
  5
5C
  8
0
  6
BYBLOCK
 62
     9
 10
12780.0
 20
591.776011
 30
0.0
 11
12059.5
 21
591.776011
 31
0.0
  0
SOLID
  5
5D
  8
0
  6
BYBLOCK
 62
     9
 10
11220.0
 20
595.109345
 30
0.0
 11
11220.0
 21
588.442678
 31
0.0
 12
11200.0
 22
591.776011
 32
0.0
 13
11200.0
 23
591.776011
 33
0.0
  0
SOLID
  5
5E
  8
0
  6
BYBLOCK
 62
     9
 10
12780.0
 20
595.109345
 30
0.0
 11
12780.0
 21
588.442678
 31
0.0
 12
12800.0
 22
591.776011
 32
0.0
 13
12800.0
 23
591.776011
 33
0.0
  0
TEXT
  5
5F
  8
0
  6
BYBLOCK
 62
    11
 10
11947.5
 20
574.276011
 30
0.0
 40
35.0
  1
1600
  0
POINT
  5
60
  8
DEFPOINTS
  6
BYBLOCK
 62
     0
 10
11200.0
 20
549.0
 30
0.0
  0
POINT
  5
61
  8
DEFPOINTS
  6
BYBLOCK
 62
     0
 10
12800.0
 20
549.0
 30
0.0
  0
POINT
  5
62
  8
DEFPOINTS
  6
BYBLOCK
 62
     0
 10
12800.0
 20
591.776011
 30
0.0
  0
ENDBLK
  5
64
  8
0
  0
BLOCK
  8
0
  2
*D1
 70
     1
 10
0.0
 20
0.0
 30
0.0
  3
*D1
  1

  0
LINE
  5
29
  8
0
  6
BYBLOCK
 62
     9
 10
12804.0
 20
555.0
 30
0.0
 11
12838.777549
 21
555.0
 31
0.0
  0
LINE
  5
2A
  8
0
  6
BYBLOCK
 62
     9
 10
12526.000605
 20
145.0
 30
0.0
 11
12838.777549
 21
145.0
 31
0.0
  0
LINE
  5
2B
  8
0
  6
BYBLOCK
 62
     9
 10
12837.777549
 20
535.0
 30
0.0
 11
12837.777549
 21
394.916667
 31
0.0
  0
LINE
  5
2C
  8
0
  6
BYBLOCK
 62
     9
 10
12837.777549
 20
165.0
 30
0.0
 11
12837.777549
 21
305.083333
 31
0.0
  0
SOLID
  5
2D
  8
0
  6
BYBLOCK
 62
     9
 10
12834.444216
 20
535.0
 30
0.0
 11
12841.110882
 21
535.0
 31
0.0
 12
12837.777549
 22
555.0
 32
0.0
 13
12837.777549
 23
555.0
 33
0.0
  0
SOLID
  5
2E
  8
0
  6
BYBLOCK
 62
     9
 10
12834.444216
 20
165.0
 30
0.0
 11
12841.110882
 21
165.0
 31
0.0
 12
12837.777549
 22
145.0
 32
0.0
 13
12837.777549
 23
145.0
 33
0.0
  0
TEXT
  5
2F
  8
0
  6
BYBLOCK
 62
    11
 10
12855.277549
 20
312.083333
 30
0.0
 40
35.0
  1
410
 50
90.0
  0
POINT
  5
30
  8
DEFPOINTS
  6
BYBLOCK
 62
     0
 10
12794.0
 20
555.0
 30
0.0
  0
POINT
  5
32
  8
DEFPOINTS
  6
BYBLOCK
 62
     0
 10
12516.000605
 20
145.0
 30
0.0
  0
POINT
  5
33
  8
DEFPOINTS
  6
BYBLOCK
 62
     0
 10
12837.777549
 20
145.0
 30
0.0
  0
ENDBLK
  5
35
  8
0
  0
BLOCK
  8
0
  2
*D2
 70
     1
 10
0.0
 20
0.0
 30
0.0
  3
*D2
  1

  0
LINE
  5
38
  8
0
  6
BYBLOCK
 62
     9
 10
12463.999394
 20
140.0
 30
0.0
 11
12463.999394
 21
93.987285
 31
0.0
  0
LINE
  5
39
  8
0
  6
BYBLOCK
 62
     9
 10
12516.000605
 20
140.0
 30
0.0
 11
12516.000605
 21
93.987285
 31
0.0
  0
LINE
  5
3A
  8
0
  6
BYBLOCK
 62
     9
 10
12443.999394
 20
94.987285
 30
0.0
 11
12423.999394
 21
94.987285
 31
0.0
  0
LINE
  5
3B
  8
0
  6
BYBLOCK
 62
     9
 10
12536.000605
 20
94.987285
 30
0.0
 11
12556.000605
 21
94.987285
 31
0.0
  0
TEXT
  5
3C
  8
0
  6
BYBLOCK
 62
    11
 10
12362.173381
 20
77.487285
 30
0.0
 40
35.0
  1
52
  0
LINE
  5
3D
  8
0
  6
BYBLOCK
 62
     9
 10
12463.999394
 20
94.987285
 30
0.0
 11
12516.000605
 21
94.987285
 31
0.0
  0
SOLID
  5
3E
  8
0
  6
BYBLOCK
 62
     9
 10
12443.999394
 20
98.320619
 30
0.0
 11
12443.999394
 21
91.653952
 31
0.0
 12
12463.999394
 22
94.987285
 32
0.0
 13
12463.999394
 23
94.987285
 33
0.0
  0
SOLID
  5
3F
  8
0
  6
BYBLOCK
 62
     9
 10
12536.000605
 20
98.320619
 30
0.0
 11
12536.000605
 21
91.653952
 31
0.0
 12
12516.000605
 22
94.987285
 32
0.0
 13
12516.000605
 23
94.987285
 33
0.0
  0
POINT
  5
40
  8
DEFPOINTS
  6
BYBLOCK
 62
     0
 10
12463.999394
 20
150.0
 30
0.0
  0
POINT
  5
41
  8
DEFPOINTS
  6
BYBLOCK
 62
     0
 10
12516.000605
 20
150.0
 30
0.0
  0
POINT
  5
42
  8
DEFPOINTS
  6
BYBLOCK
 62
     0
 10
12516.000605
 20
94.987285
 30
0.0
  0
ENDBLK
  5
44
  8
0
  0
ENDSEC
  0
SECTION
  2
ENTITIES
  0
LINE
  5
20
  8
TEAM-AXE
 10
0.0
 20
560.0
 30
0.0
 11
0.0
 21
176.568359
 31
0.0
  0
LINE
  5
23
  8
TEAM-AXE
 10
490.0
 20
560.0
 30
0.0
 11
490.0
 21
150.0
 31
0.0
  0
ARC
  5
24
  8
TEAM-BODY
 10
554.055211
 20
1233.002122
 30
0.0
 40
1446.223086
 50
209.933031
 51
221.558365
  0
ARC
  5
26
  8
TEAM-BODY
 10
-422.109394
 20
608.692297
 30
0.0
 40
1138.749793
 50
342.950818
 51
355.377937
  0
DIMENSION
  5
27
  8
TEAM-MAS
  2
*D1
 10
837.777549
 20
150.0
 30
0.0
 11
837.777549
 21
350.0
 31
0.0
 12
-12000.0
 22
5.0
 32
0.0
 13
794.0
 23
560.0
 33
0.0
 14
516.000605
 24
150.0
 34
0.0
 50
90.0
1001
ACAD
1000
DSTYLE
1002
{
1070
    40
1040
1.0
1002
}
  0
DIMENSION
  5
36
  8
TEAM-MAS
  2
*D2
 10
516.000605
 20
94.987285
 30
0.0
 11
391.340048
 21
94.987285
 31
0.0
 12
-12000.0
 22
0.0
 32
0.0
 70
   128
 13
463.999394
 23
150.0
 33
0.0
 14
516.000605
 24
150.0
 34
0.0
1001
ACAD
1000
DSTYLE
1002
{
1070
    40
1040
1.0
1002
}
  0
LINE
  5
45
  8
TEAM-BODY
 10
-342.833008
 20
185.545654
 30
0.0
 11
444.938847
 21
164.933349
 31
0.0
  0
ARC
  5
46
  8
TEAM-BODY
 10
-336.209961
 20
438.458984
 30
0.0
 40
253.0
 50
220.662827
 51
268.499908
  0
TEXT
  5
47
  8
TEAM-TXT
 10
-483.054748
 20
445.472189
 30
0.0
 40
30.0
  1
team 111381
 41
0.7
 51
15.0
  7
TEAM
  0
CIRCLE
  5
4A
  8
TEAM-INSP
 10
0.0
 20
0.0
 30
0.0
 40
10.0
  0
LINE
  5
4C
  8
TEAM-BODY
 10
463.999394
 20
150.0
 30
0.0
 11
516.000605
 21
150.0
 31
0.0
  0
LINE
  5
4D
  8
TEAM-BODY
 10
444.938847
 20
164.933349
 30
0.0
 11
534.561152
 21
166.246093
 31
0.0
  0
ARC
  5
4E
  8
TEAM-BODY
 10
444.650761
 20
153.937011
 30
0.0
 40
11.0
 50
14.664207
 51
88.499283
  0
ARC
  5
4F
  8
TEAM-BODY
 10
463.999394
 20
159.0
 30
0.0
 40
9.0
 50
194.663498
 51
270.0
  0
ARC
  5
50
  8
TEAM-BODY
 10
516.000605
 20
159.0
 30
0.0
 40
9.0
 50
270.0
 51
349.34024
  0
ARC
  5
51
  8
TEAM-BODY
 10
535.65539
 20
155.300537
 30
0.0
 40
11.0
 50
95.708946
 51
169.3405
  0
ARC
  5
52
  8
TEAM-BODY
 10
519.376521
 20
319.28148
 30
0.0
 40
153.787112
 50
275.666496
 51
343.195037
  0
LINE
  5
53
  8
TEAM-DET1
 10
-533.700196
 20
513.699951
 30
0.0
 11
574.447265
 21
513.699951
 31
0.0
  0
LINE
  5
55
  8
TEAM-BODY
 10
-794.0
 20
560.0
 30
0.0
 11
794.0
 21
560.0
 31
0.0
  0
LINE
  5
56
  8
TEAM-BODY
 10
-794.0
 20
528.0
 30
0.0
 11
794.0
 21
528.0
 31
0.0
  0
DIMENSION
  5
57
  8
TEAM-MAS
  2
*D0
 10
800.0
 20
596.776011
 30
0.0
 11
0.0
 21
591.776011
 31
0.0
 12
-12000.0
 22
5.0
 32
0.0
 13
-800.0
 23
554.0
 33
0.0
 14
800.0
 24
554.0
 34
0.0
1001
ACAD
1000
DSTYLE
1002
{
1070
    40
1040
1.0
1002
}
  0
LINE
  5
65
  8
TEAM-BODY
 10
-800.0
 20
554.0
 30
0.0
 11
-800.0
 21
534.0
 31
0.0
  0
ARC
  5
66
  8
TEAM-BODY
 10
-794.0
 20
554.0
 30
0.0
 40
6.0
 50
90.0
 51
180.0
  0
ARC
  5
67
  8
TEAM-BODY
 10
-794.0
 20
534.0
 30
0.0
 40
6.0
 50
180.0
 51
270.0
  0
ARC
  5
68
  8
TEAM-BODY
 10
-775.155274
 20
468.832519
 30
0.0
 40
87.000046
 50
29.259308
 51
42.850609
  0
LINE
  5
69
  8
TEAM-BODY
 10
800.0
 20
554.0
 30
0.0
 11
800.0
 21
534.0
 31
0.0
  0
ARC
  5
6A
  8
TEAM-BODY
 10
794.0
 20
554.0
 30
0.0
 40
6.0
 50
0.0
 51
90.0
  0
ARC
  5
6B
  8
TEAM-BODY
 10
794.0
 20
534.0
 30
0.0
 40
6.0
 50
270.0
 51
0.0
  0
POLYLINE
  5
6C
  8
TEAM-BODY
 66
     1
 10
0.0
 20
0.0
 30
0.0
  0
VERTEX
  5
A9
  8
TEAM-BODY
 10
715.818359
 20
528.0
 30
0.0
  0
VERTEX
  5
AA
  8
TEAM-BODY
 10
714.535156
 20
524.286133
 30
0.0
  0
VERTEX
  5
AB
  8
TEAM-BODY
 10
713.365722
 20
519.588134
 30
0.0
  0
VERTEX
  5
AC
  8
TEAM-BODY
 10
712.936523
 20
516.928711
 30
0.0
  0
SEQEND
  5
AD
  8
TEAM-BODY
  0
ENDSEC
  0
EOF
