  0
SECTION
  2
HEADER
  9
$ACADVER
  1
AC1009
  9
$INSBASE
 10
0.0
 20
0.0
 30
0.0
  9
$EXTMIN
 10
-854.869304
 20
-379.799901
 30
0.0
  9
$EXTMAX
 10
904.206919
 20
459.877809
 30
0.000005
  9
$LIMMIN
 10
-854.869304
 20
-379.799901
  9
$LIMMAX
 10
904.206919
 20
459.877809
  9
$ORTHOMODE
 70
     1
  9
$REGENMODE
 70
     1
  9
$FILLMODE
 70
     1
  9
$QTEXTMODE
 70
     0
  9
$MIRRTEXT
 70
     0
  9
$DRAGMODE
 70
     2
  9
$LTSCALE
 40
50.0
  9
$OSMODE
 70
     0
  9
$ATTMODE
 70
     1
  9
$TEXTSIZE
 40
200.0
  9
$TRACEWID
 40
1.0
  9
$TEXTSTYLE
  7
STANDARD
  9
$CLAYER
  8
TEAM-MAS
  9
$CELTYPE
  6
BYLAYER
  9
$CECOLOR
 62
   256
  9
$DIMSCALE
 40
0.0
  9
$DIMASZ
 40
20.0
  9
$DIMEXO
 40
10.0
  9
$DIMDLI
 40
1.0
  9
$DIMRND
 40
0.0
  9
$DIMDLE
 40
0.0
  9
$DIMEXE
 40
1.0
  9
$DIMTP
 40
0.0
  9
$DIMTM
 40
0.0
  9
$DIMTXT
 40
35.0
  9
$DIMCEN
 40
1.0
  9
$DIMTSZ
 40
0.0
  9
$DIMTOL
 70
     0
  9
$DIMLIM
 70
     0
  9
$DIMTIH
 70
     0
  9
$DIMTOH
 70
     0
  9
$DIMSE1
 70
     0
  9
$DIMSE2
 70
     0
  9
$DIMTAD
 70
     0
  9
$DIMZIN
 70
     0
  9
$DIMBLK
  1

  9
$DIMASO
 70
     1
  9
$DIMSHO
 70
     0
  9
$DIMPOST
  1

  9
$DIMAPOST
  1

  9
$DIMALT
 70
     0
  9
$DIMALTD
 70
     2
  9
$DIMALTF
 40
25.4
  9
$DIMLFAC
 40
1.0
  9
$DIMTOFL
 70
     0
  9
$DIMTVP
 40
0.0
  9
$DIMTIX
 70
     0
  9
$DIMSOXD
 70
     0
  9
$DIMSAH
 70
     0
  9
$DIMBLK1
  1

  9
$DIMBLK2
  1

  9
$DIMSTYLE
  2
TEAM
  9
$DIMCLRD
 70
     9
  9
$DIMCLRE
 70
     9
  9
$DIMCLRT
 70
    11
  9
$DIMTFAC
 40
1.0
  9
$DIMGAP
 40
7.0
  9
$LUNITS
 70
     2
  9
$LUPREC
 70
     1
  9
$SKETCHINC
 40
1.0
  9
$FILLETRAD
 40
50.0
  9
$AUNITS
 70
     0
  9
$AUPREC
 70
     0
  9
$MENU
  1
ROPLANS
  9
$ELEVATION
 40
0.0
  9
$PELEVATION
 40
0.0
  9
$THICKNESS
 40
0.0
  9
$LIMCHECK
 70
     0
  9
$BLIPMODE
 70
     1
  9
$CHAMFERA
 40
0.0
  9
$CHAMFERB
 40
0.0
  9
$SKPOLY
 70
     0
  9
$TDCREATE
 40
2450392.957851
  9
$TDUPDATE
 40
2456124.650986
  9
$TDINDWG
 40
2.269834
  9
$TDUSRTIMER
 40
2.269834
  9
$USRTIMER
 70
     1
  9
$ANGBASE
 50
0.0
  9
$ANGDIR
 70
     0
  9
$PDMODE
 70
     0
  9
$PDSIZE
 40
0.0
  9
$PLINEWID
 40
0.0
  9
$COORDS
 70
     2
  9
$SPLFRAME
 70
     0
  9
$SPLINETYPE
 70
     6
  9
$SPLINESEGS
 70
     8
  9
$ATTDIA
 70
     0
  9
$ATTREQ
 70
     0
  9
$HANDLING
 70
     1
  9
$HANDSEED
  5
184
  9
$SURFTAB1
 70
    24
  9
$SURFTAB2
 70
    24
  9
$SURFTYPE
 70
     6
  9
$SURFU
 70
     6
  9
$SURFV
 70
     6
  9
$UCSNAME
  2

  9
$UCSORG
 10
0.0
 20
0.0
 30
0.0
  9
$UCSXDIR
 10
1.0
 20
0.0
 30
0.0
  9
$UCSYDIR
 10
0.0
 20
1.0
 30
0.0
  9
$PUCSNAME
  2

  9
$PUCSORG
 10
0.0
 20
0.0
 30
0.0
  9
$PUCSXDIR
 10
1.0
 20
0.0
 30
0.0
  9
$PUCSYDIR
 10
0.0
 20
1.0
 30
0.0
  9
$USERI1
 70
     0
  9
$USERI2
 70
     0
  9
$USERI3
 70
     0
  9
$USERI4
 70
     0
  9
$USERI5
 70
     0
  9
$USERR1
 40
0.0
  9
$USERR2
 40
0.0
  9
$USERR3
 40
0.0
  9
$USERR4
 40
0.0
  9
$USERR5
 40
0.0
  9
$WORLDVIEW
 70
     1
  9
$SHADEDGE
 70
     0
  9
$SHADEDIF
 70
    70
  9
$TILEMODE
 70
     1
  9
$MAXACTVP
 70
    16
  9
$PLIMCHECK
 70
     0
  9
$PEXTMIN
 10
-0.805942
 20
0.005011
 30
0.0
  9
$PEXTMAX
 10
20.250094
 20
11.356329
 30
0.0
  9
$PLIMMIN
 10
0.0
 20
0.0
  9
$PLIMMAX
 10
12.0
 20
9.0
  9
$UNITMODE
 70
     0
  9
$VISRETAIN
 70
     0
  9
$PLINEGEN
 70
     0
  9
$PSLTSCALE
 70
     0
  0
ENDSEC
  0
SECTION
  2
TABLES
  0
TABLE
  2
VPORT
 70
     2
  0
VPORT
  2
*ACTIVE
 70
     0
 10
0.0
 20
0.0
 11
1.0
 21
1.0
 12
24.668807
 22
40.038954
 13
0.0
 23
0.0
 14
1.0
 24
1.0
 15
50.0
 25
50.0
 16
0.0
 26
0.0
 36
1.0
 17
0.0
 27
0.0
 37
0.0
 40
923.162398
 41
1.911765
 42
50.0
 43
0.0
 44
0.0
 50
0.0
 51
0.0
 71
     0
 72
   100
 73
     1
 74
     1
 75
     0
 76
     0
 77
     0
 78
     0
  0
ENDTAB
  0
TABLE
  2
LTYPE
 70
     2
  0
LTYPE
  2
CONTINUOUS
 70
     0
  3
Solid Line
 72
    65
 73
     0
 40
0.0
  0
LTYPE
  2
31
 70
     0
  3

 72
    65
 73
     4
 40
2.1
 49
1.5
 49
-0.3
 49
0.0
 49
-0.3
  0
ENDTAB
  0
TABLE
  2
LAYER
 70
     8
  0
LAYER
  2
0
 70
     0
 62
     7
  6
CONTINUOUS
  0
LAYER
  2
DEFPOINTS
 70
     0
 62
     7
  6
CONTINUOUS
  0
LAYER
  2
TEAM-BODY
 70
     0
 62
     2
  6
CONTINUOUS
  0
LAYER
  2
TEAM-AXE
 70
     0
 62
    10
  6
31
  0
LAYER
  2
TEAM-MAS
 70
     0
 62
     9
  6
CONTINUOUS
  0
LAYER
  2
TEAM-TXT
 70
     0
 62
    11
  6
CONTINUOUS
  0
LAYER
  2
TEAM-DET1
 70
     0
 62
     4
  6
CONTINUOUS
  0
LAYER
  2
TEAM-INSP
 70
     0
 62
     5
  6
CONTINUOUS
  0
ENDTAB
  0
TABLE
  2
STYLE
 70
     2
  0
STYLE
  2
STANDARD
 70
     0
 40
0.0
 41
1.0
 50
0.0
 71
     0
 42
200.0
  3
txt
  4

  0
STYLE
  2
TEAM
 70
     0
 40
0.0
 41
0.8
 50
15.0
 71
     0
 42
7.0
  3
ROMANS.shx
  4

  0
ENDTAB
  0
TABLE
  2
VIEW
 70
     0
  0
ENDTAB
  0
TABLE
  2
UCS
 70
     0
  0
ENDTAB
  0
TABLE
  2
APPID
 70
     1
  0
APPID
  2
ACAD
 70
     0
  0
ENDTAB
  0
TABLE
  2
DIMSTYLE
 70
     1
  0
DIMSTYLE
  2
TEAM
 70
     0
  3

  4

  5

  6

  7

 40
0.0
 41
20.0
 42
10.0
 43
1.0
 44
1.0
 45
0.0
 46
0.0
 47
0.0
 48
0.0
140
35.0
141
1.0
142
0.0
143
25.4
144
1.0
145
0.0
146
1.0
147
7.0
 71
     0
 72
     0
 73
     0
 74
     0
 75
     0
 76
     0
 77
     0
 78
     0
170
     0
171
     2
172
     0
173
     0
174
     0
175
     0
176
     9
177
     9
178
    11
  0
ENDTAB
  0
ENDSEC
  0
SECTION
  2
BLOCKS
  0
BLOCK
  8
0
  2
$MODEL_SPACE
 70
     0
 10
0.0
 20
0.0
 30
0.0
  3
$MODEL_SPACE
  1

  0
ENDBLK
  5
10F
  8
0
  0
BLOCK
 67
     1
  8
0
  2
$PAPER_SPACE
 70
     0
 10
0.0
 20
0.0
 30
0.0
  3
$PAPER_SPACE
  1

  0
ENDBLK
  5
10D
 67
     1
  8
0
  0
BLOCK
  8
0
  2
*D0
 70
     1
 10
0.0
 20
0.0
 30
0.0
  3
*D0
  1

  0
LINE
  5
8A
  8
0
  6
BYBLOCK
 62
     9
 10
4540.000122
 20
4010.000977
 30
0.0
 11
4540.000122
 21
4410.440288
 31
0.0
  0
LINE
  5
8B
  8
0
  6
BYBLOCK
 62
     9
 10
4849.99939
 20
4362.001221
 30
0.0
 11
4849.99939
 21
4410.440288
 31
0.0
  0
LINE
  5
8C
  8
0
  6
BYBLOCK
 62
     9
 10
4560.000122
 20
4409.440288
 30
0.0
 11
4650.083089
 21
4409.440288
 31
0.0
  0
LINE
  5
8D
  8
0
  6
BYBLOCK
 62
     9
 10
4829.99939
 20
4409.440288
 30
0.0
 11
4739.916423
 21
4409.440288
 31
0.0
  0
SOLID
  5
8E
  8
0
  6
BYBLOCK
 62
     9
 10
4560.000122
 20
4412.773621
 30
0.0
 11
4560.000122
 21
4406.106955
 31
0.0
 12
4540.000122
 22
4409.440288
 32
0.0
 13
4540.000122
 23
4409.440288
 33
0.0
  0
SOLID
  5
8F
  8
0
  6
BYBLOCK
 62
     9
 10
4829.99939
 20
4412.773621
 30
0.0
 11
4829.99939
 21
4406.106955
 31
0.0
 12
4849.99939
 22
4409.440288
 32
0.0
 13
4849.99939
 23
4409.440288
 33
0.0
  0
TEXT
  5
90
  8
0
  6
BYBLOCK
 62
    11
 10
4657.083089
 20
4391.940288
 30
0.0
 40
35.0
  1
310
  0
POINT
  5
91
  8
DEFPOINTS
  6
BYBLOCK
 62
     0
 10
4540.000122
 20
4000.000977
 30
0.0
  0
POINT
  5
92
  8
DEFPOINTS
  6
BYBLOCK
 62
     0
 10
4849.99939
 20
4352.001221
 30
0.0
  0
POINT
  5
93
  8
DEFPOINTS
  6
BYBLOCK
 62
     0
 10
4849.99939
 20
4409.440288
 30
0.0
  0
ENDBLK
  5
95
  8
0
  0
BLOCK
  8
0
  2
*D1
 70
     1
 10
0.0
 20
0.0
 30
0.0
  3
*D1
  1

  0
LINE
  5
22
  8
0
  6
BYBLOCK
 62
     9
 10
4849.99939
 20
4362.001221
 30
0.0
 11
4849.99939
 21
4443.327521
 31
0.0
  0
LINE
  5
23
  8
0
  6
BYBLOCK
 62
     9
 10
3149.999634
 20
4361.998535
 30
0.0
 11
3149.999634
 21
4443.327521
 31
0.0
  0
LINE
  5
24
  8
0
  6
BYBLOCK
 62
     9
 10
4829.99939
 20
4442.327521
 30
0.0
 11
4059.499512
 21
4442.327521
 31
0.0
  0
LINE
  5
25
  8
0
  6
BYBLOCK
 62
     9
 10
3169.999634
 20
4442.327521
 30
0.0
 11
3940.499512
 21
4442.327521
 31
0.0
  0
SOLID
  5
26
  8
0
  6
BYBLOCK
 62
     9
 10
4829.99939
 20
4445.660855
 30
0.0
 11
4829.99939
 21
4438.994188
 31
0.0
 12
4849.99939
 22
4442.327521
 32
0.0
 13
4849.99939
 23
4442.327521
 33
0.0
  0
SOLID
  5
27
  8
0
  6
BYBLOCK
 62
     9
 10
3169.999634
 20
4445.660855
 30
0.0
 11
3169.999634
 21
4438.994188
 31
0.0
 12
3149.999634
 22
4442.327521
 32
0.0
 13
3149.999634
 23
4442.327521
 33
0.0
  0
TEXT
  5
28
  8
0
  6
BYBLOCK
 62
    11
 10
3947.499512
 20
4424.827521
 30
0.0
 40
35.0
  1
1700
  0
POINT
  5
29
  8
DEFPOINTS
  6
BYBLOCK
 62
     0
 10
4849.99939
 20
4352.001221
 30
0.0
  0
POINT
  5
2B
  8
DEFPOINTS
  6
BYBLOCK
 62
     0
 10
3149.999634
 20
4351.998535
 30
0.0
  0
POINT
  5
2C
  8
DEFPOINTS
  6
BYBLOCK
 62
     0
 10
3149.999634
 20
4442.327521
 30
0.0
  0
ENDBLK
  5
2E
  8
0
  0
BLOCK
  8
0
  2
*D2
 70
     1
 10
0.0
 20
0.0
 30
0.0
  3
*D2
  1

  0
LINE
  5
7C
  8
0
  6
BYBLOCK
 62
     9
 10
4836.99939
 20
4375.001221
 30
0.0
 11
4887.663914
 21
4375.001221
 31
0.0
  0
LINE
  5
7D
  8
0
  6
BYBLOCK
 62
     9
 10
4837.00061
 20
3625.001465
 30
0.0
 11
4887.663914
 21
3625.001465
 31
0.0
  0
LINE
  5
7E
  8
0
  6
BYBLOCK
 62
     9
 10
4886.663914
 20
4355.001221
 30
0.0
 11
4886.663914
 21
4050.751343
 31
0.0
  0
LINE
  5
7F
  8
0
  6
BYBLOCK
 62
     9
 10
4886.663914
 20
3645.001465
 30
0.0
 11
4886.663914
 21
3949.251343
 31
0.0
  0
SOLID
  5
80
  8
0
  6
BYBLOCK
 62
     9
 10
4883.33058
 20
4355.001221
 30
0.0
 11
4889.997247
 21
4355.001221
 31
0.0
 12
4886.663914
 22
4375.001221
 32
0.0
 13
4886.663914
 23
4375.001221
 33
0.0
  0
SOLID
  5
81
  8
0
  6
BYBLOCK
 62
     9
 10
4883.33058
 20
3645.001465
 30
0.0
 11
4889.997247
 21
3645.001465
 31
0.0
 12
4886.663914
 22
3625.001465
 32
0.0
 13
4886.663914
 23
3625.001465
 33
0.0
  0
TEXT
  5
82
  8
0
  6
BYBLOCK
 62
    11
 10
4904.163914
 20
3956.251343
 30
0.0
 40
35.0
  1
750
 50
90.0
  0
POINT
  5
83
  8
DEFPOINTS
  6
BYBLOCK
 62
     0
 10
4826.99939
 20
4375.001221
 30
0.0
  0
POINT
  5
84
  8
DEFPOINTS
  6
BYBLOCK
 62
     0
 10
4827.00061
 20
3625.001465
 30
0.0
  0
POINT
  5
85
  8
DEFPOINTS
  6
BYBLOCK
 62
     0
 10
4886.663914
 20
3625.001465
 30
0.0
  0
ENDBLK
  5
87
  8
0
  0
ENDSEC
  0
SECTION
  2
ENTITIES
  0
DIMENSION
  5
20
  8
TEAM-MAS
  2
*D1
 10
-850.000366
 20
442.327521
 30
0.0
 11
-0.000488
 21
442.327521
 31
0.0
 12
-4000.0
 22
-4000.0
 32
0.0
 13
849.99939
 23
352.001221
 33
0.0
 14
-850.000366
 24
351.998535
 34
0.0
1001
ACAD
1000
DSTYLE
1002
{
1070
    40
1040
1.0
1002
}
  0
ARC
  5
2F
  8
TEAM-BODY
 10
-446.616089
 20
-24686.322509
 30
0.0
 40
25000.0
 50
87.795662
 51
90.42292
  0
ARC
  5
31
  8
TEAM-BODY
 10
-446.733765
 20
24686.323975
 30
0.0
 40
25000.0
 50
269.577332
 51
272.216797
  0
LINE
  5
32
  8
TEAM-BODY
 10
826.99939
 20
375.001221
 30
0.0
 11
-827.000366
 21
374.998535
 31
0.0
  0
LINE
  5
33
  8
TEAM-BODY
 10
827.00061
 20
-374.998535
 30
0.0
 11
-826.99939
 21
-375.001465
 31
0.0
  0
LINE
  5
34
  8
TEAM-AXE
 10
849.999878
 20
0.001465
 30
0.0
 11
-849.999878
 21
-0.001465
 31
0.0
  0
LINE
  5
37
  8
TEAM-BODY
 10
425.00061
 20
-149.999511
 30
0.0
 11
-288.210327
 21
-150.000488
 31
0.0
  0
LINE
  5
38
  8
TEAM-BODY
 10
425.000122
 20
150.000489
 30
0.0
 11
-288.210815
 21
149.999512
 31
0.0
  0
TEXT
  5
39
  8
TEAM-TXT
 10
-570.941934
 20
238.417446
 30
0.0
 40
30.0
  1
team 111382
 41
0.7
 51
15.0
  7
TEAM
  0
ARC
  5
3C
  8
TEAM-BODY
 10
-630.189331
 20
-183.000976
 30
0.0
 40
130.0
 50
190.711395
 51
269.577332
  0
ARC
  5
3D
  8
TEAM-BODY
 10
205.000122
 20
-25.020019
 30
0.0
 40
980.0
 50
179.998901
 51
190.711273
  0
ARC
  5
3E
  8
TEAM-BODY
 10
-827.000366
 20
351.998535
 30
0.0
 40
23.0
 50
90.0
 51
180.0
  0
ARC
  5
3F
  8
TEAM-BODY
 10
-630.189819
 20
182.999024
 30
0.0
 40
130.0
 50
90.422874
 51
169.289001
  0
ARC
  5
40
  8
TEAM-BODY
 10
205.000122
 20
25.02002
 30
0.0
 40
980.0
 50
169.288879
 51
180.001251
  0
ARC
  5
41
  8
TEAM-BODY
 10
1224.843628
 20
0.001953
 30
0.0
 40
2000.0
 50
179.283875
 51
180.716309
  0
ARC
  5
42
  8
TEAM-BODY
 10
-826.99939
 20
-352.001465
 30
0.0
 40
23.0
 50
180.0
 51
270.0
  0
LINE
  5
43
  8
TEAM-BODY
 10
-850.000366
 20
351.998535
 30
0.0
 11
-849.99939
 21
-352.001465
 31
0.0
  0
ARC
  5
44
  8
TEAM-BODY
 10
-288.210815
 20
-70.000488
 30
0.0
 40
80.0
 50
187.180756
 51
270.000336
  0
ARC
  5
45
  8
TEAM-BODY
 10
-288.210815
 20
69.999512
 30
0.0
 40
80.0
 50
90.0
 51
172.819244
  0
ARC
  5
46
  8
TEAM-BODY
 10
267.397095
 20
0.000489
 30
0.0
 40
640.0
 50
172.819321
 51
187.180832
  0
POLYLINE
  5
47
  8
TEAM-DET1
 66
     1
 10
0.0
 20
0.0
 30
0.0
  0
VERTEX
  5
115
  8
TEAM-DET1
 10
739.997681
 20
-25.998779
 30
0.0
  0
VERTEX
  5
116
  8
TEAM-DET1
 10
741.611938
 20
-25.657715
 30
0.0
  0
VERTEX
  5
117
  8
TEAM-DET1
 10
743.118286
 20
-24.700439
 30
0.0
  0
VERTEX
  5
118
  8
TEAM-DET1
 10
744.44104
 20
-23.291259
 30
0.0
  0
VERTEX
  5
119
  8
TEAM-DET1
 10
745.549927
 20
-21.623047
 30
0.0
  0
VERTEX
  5
11A
  8
TEAM-DET1
 10
746.450806
 20
-19.860107
 30
0.0
  0
VERTEX
  5
11B
  8
TEAM-DET1
 10
747.170532
 20
-18.115234
 30
0.0
  0
VERTEX
  5
11C
  8
TEAM-DET1
 10
747.740356
 20
-16.452881
 30
0.0
  0
VERTEX
  5
11D
  8
TEAM-DET1
 10
748.191528
 20
-14.90332
 30
0.0
  0
VERTEX
  5
11E
  8
TEAM-DET1
 10
748.549438
 20
-13.474609
 30
0.0
  0
VERTEX
  5
11F
  8
TEAM-DET1
 10
748.835571
 20
-12.16333
 30
0.0
  0
VERTEX
  5
120
  8
TEAM-DET1
 10
749.065552
 20
-10.959961
 30
0.0
  0
VERTEX
  5
121
  8
TEAM-DET1
 10
749.62854
 20
-6.996093
 30
0.0
  0
VERTEX
  5
122
  8
TEAM-DET1
 10
749.949341
 20
-2.553955
 30
0.0
  0
VERTEX
  5
123
  8
TEAM-DET1
 10
749.883911
 20
3.915283
 30
0.0
  0
VERTEX
  5
124
  8
TEAM-DET1
 10
749.065552
 20
10.962403
 30
0.0
  0
VERTEX
  5
125
  8
TEAM-DET1
 10
748.835571
 20
12.165772
 30
0.0
  0
VERTEX
  5
126
  8
TEAM-DET1
 10
748.549438
 20
13.477051
 30
0.0
  0
VERTEX
  5
127
  8
TEAM-DET1
 10
748.191528
 20
14.905762
 30
0.0
  0
VERTEX
  5
128
  8
TEAM-DET1
 10
747.740356
 20
16.455323
 30
0.0
  0
VERTEX
  5
129
  8
TEAM-DET1
 10
747.170532
 20
18.117676
 30
0.0
  0
VERTEX
  5
12A
  8
TEAM-DET1
 10
746.450806
 20
19.862549
 30
0.0
  0
VERTEX
  5
12B
  8
TEAM-DET1
 10
745.549927
 20
21.625489
 30
0.0
  0
VERTEX
  5
12C
  8
TEAM-DET1
 10
744.44104
 20
23.293701
 30
0.0
  0
VERTEX
  5
12D
  8
TEAM-DET1
 10
743.118286
 20
24.702881
 30
0.0
  0
VERTEX
  5
12E
  8
TEAM-DET1
 10
741.611938
 20
25.660157
 30
0.0
  0
VERTEX
  5
12F
  8
TEAM-DET1
 10
739.997681
 20
26.001221
 30
0.0
  0
VERTEX
  5
130
  8
TEAM-DET1
 10
738.383423
 20
25.660157
 30
0.0
  0
VERTEX
  5
131
  8
TEAM-DET1
 10
736.877075
 20
24.702881
 30
0.0
  0
VERTEX
  5
132
  8
TEAM-DET1
 10
735.554321
 20
23.293701
 30
0.0
  0
VERTEX
  5
133
  8
TEAM-DET1
 10
734.445435
 20
21.625489
 30
0.0
  0
VERTEX
  5
134
  8
TEAM-DET1
 10
733.544067
 20
19.862549
 30
0.0
  0
VERTEX
  5
135
  8
TEAM-DET1
 10
732.824829
 20
18.117676
 30
0.0
  0
VERTEX
  5
136
  8
TEAM-DET1
 10
732.255005
 20
16.455323
 30
0.0
  0
VERTEX
  5
137
  8
TEAM-DET1
 10
731.803833
 20
14.905762
 30
0.0
  0
VERTEX
  5
138
  8
TEAM-DET1
 10
731.445923
 20
13.477051
 30
0.0
  0
VERTEX
  5
139
  8
TEAM-DET1
 10
731.15979
 20
12.165772
 30
0.0
  0
VERTEX
  5
13A
  8
TEAM-DET1
 10
730.92981
 20
10.962403
 30
0.0
  0
VERTEX
  5
13B
  8
TEAM-DET1
 10
730.743774
 20
9.855713
 30
0.0
  0
VERTEX
  5
13C
  8
TEAM-DET1
 10
730.282837
 20
6.166504
 30
0.0
  0
VERTEX
  5
13D
  8
TEAM-DET1
 10
730.024536
 20
1.903809
 30
0.0
  0
VERTEX
  5
13E
  8
TEAM-DET1
 10
730.157349
 20
-4.62915
 30
0.0
  0
VERTEX
  5
13F
  8
TEAM-DET1
 10
731.15979
 20
-12.16333
 30
0.0
  0
VERTEX
  5
140
  8
TEAM-DET1
 10
731.445923
 20
-13.474609
 30
0.0
  0
VERTEX
  5
141
  8
TEAM-DET1
 10
731.803833
 20
-14.90332
 30
0.0
  0
VERTEX
  5
142
  8
TEAM-DET1
 10
732.255005
 20
-16.452881
 30
0.0
  0
VERTEX
  5
143
  8
TEAM-DET1
 10
732.824829
 20
-18.115234
 30
0.0
  0
VERTEX
  5
144
  8
TEAM-DET1
 10
733.544556
 20
-19.860107
 30
0.0
  0
SEQEND
  5
145
  8
TEAM-DET1
  0
DIMENSION
  5
7A
  8
TEAM-MAS
  2
*D2
 10
886.663914
 20
-374.998535
 30
0.0
 11
886.663914
 21
0.001343
 31
0.0
 12
-4000.0
 22
-4000.0
 32
0.0
 13
826.99939
 23
375.001221
 33
0.0
 14
827.00061
 24
-374.998535
 34
0.0
 50
90.0
1001
ACAD
1000
DSTYLE
1002
{
1070
    40
1040
1.0
1002
}
  0
DIMENSION
  5
88
  8
TEAM-MAS
  2
*D0
 10
849.99939
 20
409.440288
 30
0.0
 11
694.999756
 21
409.440288
 31
0.0
 12
-4000.0
 22
-4000.0
 32
0.0
 13
540.000122
 23
0.000977
 33
0.0
 14
849.99939
 24
352.001221
 34
0.0
1001
ACAD
1000
DSTYLE
1002
{
1070
    40
1040
1.0
1002
}
  0
CIRCLE
  5
96
  8
TEAM-INSP
 10
0.0
 20
0.0
 30
0.0
 40
10.0
  0
POLYLINE
  5
98
  8
TEAM-BODY
 66
     1
 10
0.0
 20
0.0
 30
0.0
  0
VERTEX
  5
146
  8
TEAM-BODY
 10
733.544556
 20
-19.860107
 30
0.0
  0
VERTEX
  5
147
  8
TEAM-BODY
 10
734.445435
 20
-21.623047
 30
0.0
  0
VERTEX
  5
148
  8
TEAM-BODY
 10
735.554321
 20
-23.291259
 30
0.0
  0
VERTEX
  5
149
  8
TEAM-BODY
 10
736.877075
 20
-24.700439
 30
0.0
  0
VERTEX
  5
14A
  8
TEAM-BODY
 10
738.383423
 20
-25.657715
 30
0.0
  0
VERTEX
  5
14B
  8
TEAM-BODY
 10
739.997681
 20
-25.998779
 30
0.0
  0
SEQEND
  5
14C
  8
TEAM-BODY
  0
POLYLINE
  5
A0
  8
TEAM-BODY
 66
     1
 10
0.0
 20
0.0
 30
0.0
  0
VERTEX
  5
14D
  8
TEAM-BODY
 10
570.44104
 20
287.8125
 30
0.0
  0
VERTEX
  5
14E
  8
TEAM-BODY
 10
552.218872
 20
291.878907
 30
0.0
  0
VERTEX
  5
14F
  8
TEAM-BODY
 10
533.675903
 20
294.348633
 30
0.0
  0
VERTEX
  5
150
  8
TEAM-BODY
 10
514.96936
 20
295.176758
 30
0.0
  0
SEQEND
  5
151
  8
TEAM-BODY
  0
POLYLINE
  5
A6
  8
TEAM-BODY
 66
     1
 10
0.0
 20
0.0
 30
0.0
  0
VERTEX
  5
152
  8
TEAM-BODY
 10
520.294067
 20
-294.967773
 30
0.0
  0
VERTEX
  5
153
  8
TEAM-BODY
 10
524.334106
 20
-294.967773
 30
0.0
  0
VERTEX
  5
154
  8
TEAM-BODY
 10
542.979126
 20
-293.314941
 30
0.0
  0
VERTEX
  5
155
  8
TEAM-BODY
 10
561.380493
 20
-290.039551
 30
0.0
  0
VERTEX
  5
156
  8
TEAM-BODY
 10
579.385864
 20
-285.199218
 30
0.0
  0
VERTEX
  5
157
  8
TEAM-BODY
 10
596.856567
 20
-278.876953
 30
0.0
  0
VERTEX
  5
158
  8
TEAM-BODY
 10
613.670532
 20
-271.175293
 30
0.0
  0
VERTEX
  5
159
  8
TEAM-BODY
 10
629.726196
 20
-262.209961
 30
0.0
  0
VERTEX
  5
15A
  8
TEAM-BODY
 10
644.942017
 20
-252.108398
 30
0.0
  0
VERTEX
  5
15B
  8
TEAM-BODY
 10
659.257446
 20
-240.999023
 30
0.0
  0
VERTEX
  5
15C
  8
TEAM-BODY
 10
672.632935
 20
-229.009765
 30
0.0
  0
VERTEX
  5
15D
  8
TEAM-BODY
 10
685.043579
 20
-216.264648
 30
0.0
  0
VERTEX
  5
15E
  8
TEAM-BODY
 10
696.481079
 20
-202.878418
 30
0.0
  0
VERTEX
  5
15F
  8
TEAM-BODY
 10
706.949829
 20
-188.956054
 30
0.0
  0
VERTEX
  5
160
  8
TEAM-BODY
 10
716.461548
 20
-174.592285
 30
0.0
  0
VERTEX
  5
161
  8
TEAM-BODY
 10
725.036743
 20
-159.86914
 30
0.0
  0
VERTEX
  5
162
  8
TEAM-BODY
 10
732.700806
 20
-144.85791
 30
0.0
  0
VERTEX
  5
163
  8
TEAM-BODY
 10
739.479126
 20
-129.61914
 30
0.0
  0
VERTEX
  5
164
  8
TEAM-BODY
 10
745.401001
 20
-114.203613
 30
0.0
  0
VERTEX
  5
165
  8
TEAM-BODY
 10
750.49231
 20
-98.651855
 30
0.0
  0
VERTEX
  5
166
  8
TEAM-BODY
 10
754.779907
 20
-82.998047
 30
0.0
  0
VERTEX
  5
167
  8
TEAM-BODY
 10
758.286255
 20
-67.268554
 30
0.0
  0
VERTEX
  5
168
  8
TEAM-BODY
 10
761.031372
 20
-51.485351
 30
0.0
  0
VERTEX
  5
169
  8
TEAM-BODY
 10
763.031372
 20
-35.665039
 30
0.0
  0
VERTEX
  5
16A
  8
TEAM-BODY
 10
764.297974
 20
-19.820801
 30
0.0
  0
VERTEX
  5
16B
  8
TEAM-BODY
 10
764.839478
 20
-3.963867
 30
0.0
  0
VERTEX
  5
16C
  8
TEAM-BODY
 10
764.658813
 20
11.89502
 30
0.0
  0
VERTEX
  5
16D
  8
TEAM-BODY
 10
763.755493
 20
27.747071
 30
0.0
  0
VERTEX
  5
16E
  8
TEAM-BODY
 10
762.123657
 20
43.581055
 30
0.0
  0
VERTEX
  5
16F
  8
TEAM-BODY
 10
759.752563
 20
59.384766
 30
0.0
  0
VERTEX
  5
170
  8
TEAM-BODY
 10
756.629517
 20
75.143555
 30
0.0
  0
VERTEX
  5
171
  8
TEAM-BODY
 10
752.734985
 20
90.837891
 30
0.0
  0
VERTEX
  5
172
  8
TEAM-BODY
 10
748.048462
 20
106.444336
 30
0.0
  0
VERTEX
  5
173
  8
TEAM-BODY
 10
742.545044
 20
121.932617
 30
0.0
  0
VERTEX
  5
174
  8
TEAM-BODY
 10
736.197876
 20
137.265625
 30
0.0
  0
VERTEX
  5
175
  8
TEAM-BODY
 10
728.980591
 20
152.397461
 30
0.0
  0
VERTEX
  5
176
  8
TEAM-BODY
 10
720.86438
 20
167.272949
 30
0.0
  0
VERTEX
  5
177
  8
TEAM-BODY
 10
711.823364
 20
181.826172
 30
0.0
  0
VERTEX
  5
178
  8
TEAM-BODY
 10
701.835571
 20
195.979981
 30
0.0
  0
VERTEX
  5
179
  8
TEAM-BODY
 10
690.883423
 20
209.646485
 30
0.0
  0
VERTEX
  5
17A
  8
TEAM-BODY
 10
678.958618
 20
222.726563
 30
0.0
  0
VERTEX
  5
17B
  8
TEAM-BODY
 10
666.064087
 20
235.108399
 30
0.0
  0
VERTEX
  5
17C
  8
TEAM-BODY
 10
652.214478
 20
246.67334
 30
0.0
  0
VERTEX
  5
17D
  8
TEAM-BODY
 10
637.442017
 20
257.29541
 30
0.0
  0
VERTEX
  5
17E
  8
TEAM-BODY
 10
621.797485
 20
266.844727
 30
0.0
  0
VERTEX
  5
17F
  8
TEAM-BODY
 10
605.351196
 20
275.19336
 30
0.0
  0
VERTEX
  5
180
  8
TEAM-BODY
 10
588.194946
 20
282.219727
 30
0.0
  0
VERTEX
  5
181
  8
TEAM-BODY
 10
570.44104
 20
287.8125
 30
0.0
  0
SEQEND
  5
182
  8
TEAM-BODY
  0
CIRCLE
  5
D8
  8
TEAM-BODY
 10
540.000122
 20
0.000977
 30
0.0
 40
26.0
  0
ARC
  5
D9
  8
TEAM-BODY
 10
827.00061
 20
-351.998535
 30
0.0
 40
23.0
 50
270.0
 51
0.0
  0
ARC
  5
DA
  8
TEAM-BODY
 10
826.99939
 20
352.001221
 30
0.0
 40
23.0
 50
0.0
 51
90.0
  0
LINE
  5
DB
  8
TEAM-BODY
 10
850.00061
 20
-351.998535
 30
0.0
 11
849.99939
 21
352.001221
 31
0.0
  0
LINE
  5
DC
  8
TEAM-AXE
 10
-0.000366
 20
374.999756
 30
0.0
 11
0.00061
 21
-375.0
 31
0.0
  0
ARC
  5
DD
  8
TEAM-BODY
 10
425.000122
 20
0.000489
 30
0.0
 40
150.0
 50
270.000183
 51
90.0
  0
ENDSEC
  0
EOF
