  0
SECTION
  2
HEADER
  9
$ACADVER
  1
AC1009
  9
$INSBASE
 10
0.0
 20
0.0
 30
0.0
  9
$EXTMIN
 10
-376.295477
 20
-10.023633
 30
0.0
  9
$EXTMAX
 10
470.080352
 20
612.202482
 30
0.000005
  9
$LIMMIN
 10
-376.295477
 20
-10.023633
  9
$LIMMAX
 10
470.080352
 20
612.202482
  9
$ORTHOMODE
 70
     1
  9
$REGENMODE
 70
     1
  9
$FILLMODE
 70
     1
  9
$QTEXTMODE
 70
     0
  9
$MIRRTEXT
 70
     0
  9
$DRAGMODE
 70
     2
  9
$LTSCALE
 40
50.0
  9
$OSMODE
 70
     0
  9
$ATTMODE
 70
     1
  9
$TEXTSIZE
 40
200.0
  9
$TRACEWID
 40
1.0
  9
$TEXTSTYLE
  7
STANDARD
  9
$CLAYER
  8
TEAM-MAS
  9
$CELTYPE
  6
BYLAYER
  9
$CECOLOR
 62
   256
  9
$DIMSCALE
 40
0.0
  9
$DIMASZ
 40
20.0
  9
$DIMEXO
 40
10.0
  9
$DIMDLI
 40
1.0
  9
$DIMRND
 40
0.0
  9
$DIMDLE
 40
0.0
  9
$DIMEXE
 40
1.0
  9
$DIMTP
 40
0.0
  9
$DIMTM
 40
0.0
  9
$DIMTXT
 40
35.0
  9
$DIMCEN
 40
1.0
  9
$DIMTSZ
 40
0.0
  9
$DIMTOL
 70
     0
  9
$DIMLIM
 70
     0
  9
$DIMTIH
 70
     0
  9
$DIMTOH
 70
     0
  9
$DIMSE1
 70
     0
  9
$DIMSE2
 70
     0
  9
$DIMTAD
 70
     0
  9
$DIMZIN
 70
     0
  9
$DIMBLK
  1

  9
$DIMASO
 70
     1
  9
$DIMSHO
 70
     0
  9
$DIMPOST
  1

  9
$DIMAPOST
  1

  9
$DIMALT
 70
     0
  9
$DIMALTD
 70
     2
  9
$DIMALTF
 40
25.4
  9
$DIMLFAC
 40
1.0
  9
$DIMTOFL
 70
     0
  9
$DIMTVP
 40
0.0
  9
$DIMTIX
 70
     0
  9
$DIMSOXD
 70
     0
  9
$DIMSAH
 70
     0
  9
$DIMBLK1
  1

  9
$DIMBLK2
  1

  9
$DIMSTYLE
  2
TEAM
  9
$DIMCLRD
 70
     9
  9
$DIMCLRE
 70
     9
  9
$DIMCLRT
 70
    11
  9
$DIMTFAC
 40
1.0
  9
$DIMGAP
 40
7.0
  9
$LUNITS
 70
     2
  9
$LUPREC
 70
     1
  9
$SKETCHINC
 40
1.0
  9
$FILLETRAD
 40
50.0
  9
$AUNITS
 70
     0
  9
$AUPREC
 70
     0
  9
$MENU
  1
ROPLANS
  9
$ELEVATION
 40
0.0
  9
$PELEVATION
 40
0.0
  9
$THICKNESS
 40
0.0
  9
$LIMCHECK
 70
     0
  9
$BLIPMODE
 70
     1
  9
$CHAMFERA
 40
0.0
  9
$CHAMFERB
 40
0.0
  9
$SKPOLY
 70
     0
  9
$TDCREATE
 40
2450392.957851
  9
$TDUPDATE
 40
2456124.650986
  9
$TDINDWG
 40
2.269834
  9
$TDUSRTIMER
 40
2.269834
  9
$USRTIMER
 70
     1
  9
$ANGBASE
 50
0.0
  9
$ANGDIR
 70
     0
  9
$PDMODE
 70
     0
  9
$PDSIZE
 40
0.0
  9
$PLINEWID
 40
0.0
  9
$COORDS
 70
     2
  9
$SPLFRAME
 70
     0
  9
$SPLINETYPE
 70
     6
  9
$SPLINESEGS
 70
     8
  9
$ATTDIA
 70
     0
  9
$ATTREQ
 70
     0
  9
$HANDLING
 70
     1
  9
$HANDSEED
  5
A4
  9
$SURFTAB1
 70
    24
  9
$SURFTAB2
 70
    24
  9
$SURFTYPE
 70
     6
  9
$SURFU
 70
     6
  9
$SURFV
 70
     6
  9
$UCSNAME
  2

  9
$UCSORG
 10
0.0
 20
0.0
 30
0.0
  9
$UCSXDIR
 10
1.0
 20
0.0
 30
0.0
  9
$UCSYDIR
 10
0.0
 20
1.0
 30
0.0
  9
$PUCSNAME
  2

  9
$PUCSORG
 10
0.0
 20
0.0
 30
0.0
  9
$PUCSXDIR
 10
1.0
 20
0.0
 30
0.0
  9
$PUCSYDIR
 10
0.0
 20
1.0
 30
0.0
  9
$USERI1
 70
     0
  9
$USERI2
 70
     0
  9
$USERI3
 70
     0
  9
$USERI4
 70
     0
  9
$USERI5
 70
     0
  9
$USERR1
 40
0.0
  9
$USERR2
 40
0.0
  9
$USERR3
 40
0.0
  9
$USERR4
 40
0.0
  9
$USERR5
 40
0.0
  9
$WORLDVIEW
 70
     1
  9
$SHADEDGE
 70
     0
  9
$SHADEDIF
 70
    70
  9
$TILEMODE
 70
     1
  9
$MAXACTVP
 70
    16
  9
$PLIMCHECK
 70
     0
  9
$PEXTMIN
 10
-0.805942
 20
0.005011
 30
0.0
  9
$PEXTMAX
 10
20.250094
 20
11.356329
 30
0.0
  9
$PLIMMIN
 10
0.0
 20
0.0
  9
$PLIMMAX
 10
12.0
 20
9.0
  9
$UNITMODE
 70
     0
  9
$VISRETAIN
 70
     0
  9
$PLINEGEN
 70
     0
  9
$PSLTSCALE
 70
     0
  0
ENDSEC
  0
SECTION
  2
TABLES
  0
TABLE
  2
VPORT
 70
     2
  0
VPORT
  2
*ACTIVE
 70
     0
 10
0.0
 20
0.0
 11
1.0
 21
1.0
 12
46.892437
 22
301.089424
 13
0.0
 23
0.0
 14
1.0
 24
1.0
 15
50.0
 25
50.0
 16
0.0
 26
0.0
 36
1.0
 17
0.0
 27
0.0
 37
0.0
 40
626.143593
 41
1.911765
 42
50.0
 43
0.0
 44
0.0
 50
0.0
 51
0.0
 71
     0
 72
   100
 73
     1
 74
     1
 75
     0
 76
     0
 77
     0
 78
     0
  0
ENDTAB
  0
TABLE
  2
LTYPE
 70
     2
  0
LTYPE
  2
CONTINUOUS
 70
     0
  3
Solid Line
 72
    65
 73
     0
 40
0.0
  0
LTYPE
  2
31
 70
     0
  3

 72
    65
 73
     4
 40
2.1
 49
1.5
 49
-0.3
 49
0.0
 49
-0.3
  0
ENDTAB
  0
TABLE
  2
LAYER
 70
     8
  0
LAYER
  2
0
 70
     0
 62
     7
  6
CONTINUOUS
  0
LAYER
  2
DEFPOINTS
 70
     0
 62
     7
  6
CONTINUOUS
  0
LAYER
  2
TEAM-BODY
 70
     0
 62
     2
  6
CONTINUOUS
  0
LAYER
  2
TEAM-AXE
 70
     0
 62
    10
  6
31
  0
LAYER
  2
TEAM-MAS
 70
     0
 62
     9
  6
CONTINUOUS
  0
LAYER
  2
TEAM-TXT
 70
     0
 62
    11
  6
CONTINUOUS
  0
LAYER
  2
TEAM-DET1
 70
     0
 62
     4
  6
CONTINUOUS
  0
LAYER
  2
TEAM-INSP
 70
     0
 62
     5
  6
CONTINUOUS
  0
ENDTAB
  0
TABLE
  2
STYLE
 70
     2
  0
STYLE
  2
STANDARD
 70
     0
 40
0.0
 41
1.0
 50
0.0
 71
     0
 42
200.0
  3
txt
  4

  0
STYLE
  2
TEAM
 70
     0
 40
0.0
 41
0.8
 50
15.0
 71
     0
 42
7.0
  3
ROMANS.shx
  4

  0
ENDTAB
  0
TABLE
  2
VIEW
 70
     0
  0
ENDTAB
  0
TABLE
  2
UCS
 70
     0
  0
ENDTAB
  0
TABLE
  2
APPID
 70
     1
  0
APPID
  2
ACAD
 70
     0
  0
ENDTAB
  0
TABLE
  2
DIMSTYLE
 70
     1
  0
DIMSTYLE
  2
TEAM
 70
     0
  3

  4

  5

  6

  7

 40
0.0
 41
20.0
 42
10.0
 43
1.0
 44
1.0
 45
0.0
 46
0.0
 47
0.0
 48
0.0
140
35.0
141
1.0
142
0.0
143
25.4
144
1.0
145
0.0
146
1.0
147
7.0
 71
     0
 72
     0
 73
     0
 74
     0
 75
     0
 76
     0
 77
     0
 78
     0
170
     0
171
     2
172
     0
173
     0
174
     0
175
     0
176
     9
177
     9
178
    11
  0
ENDTAB
  0
ENDSEC
  0
SECTION
  2
BLOCKS
  0
BLOCK
  8
0
  2
$MODEL_SPACE
 70
     0
 10
0.0
 20
0.0
 30
0.0
  3
$MODEL_SPACE
  1

  0
ENDBLK
  5
9D
  8
0
  0
BLOCK
 67
     1
  8
0
  2
$PAPER_SPACE
 70
     0
 10
0.0
 20
0.0
 30
0.0
  3
$PAPER_SPACE
  1

  0
ENDBLK
  5
9B
 67
     1
  8
0
  0
BLOCK
  8
0
  2
*D0
 70
     1
 10
0.0
 20
0.0
 30
0.0
  3
*D0
  1

  0
LINE
  5
41
  8
0
  6
BYBLOCK
 62
     9
 10
7625.0
 20
4558.99939
 30
0.0
 11
7625.0
 21
4590.684557
 31
0.0
  0
LINE
  5
42
  8
0
  6
BYBLOCK
 62
     9
 10
8375.0
 20
4559.00061
 30
0.0
 11
8375.0
 21
4590.684557
 31
0.0
  0
LINE
  5
43
  8
0
  6
BYBLOCK
 62
     9
 10
7645.0
 20
4589.684557
 30
0.0
 11
7949.25
 21
4589.684557
 31
0.0
  0
LINE
  5
44
  8
0
  6
BYBLOCK
 62
     9
 10
8355.0
 20
4589.684557
 30
0.0
 11
8050.75
 21
4589.684557
 31
0.0
  0
SOLID
  5
45
  8
0
  6
BYBLOCK
 62
     9
 10
7645.0
 20
4593.017891
 30
0.0
 11
7645.0
 21
4586.351224
 31
0.0
 12
7625.0
 22
4589.684557
 32
0.0
 13
7625.0
 23
4589.684557
 33
0.0
  0
SOLID
  5
46
  8
0
  6
BYBLOCK
 62
     9
 10
8355.0
 20
4593.017891
 30
0.0
 11
8355.0
 21
4586.351224
 31
0.0
 12
8375.0
 22
4589.684557
 32
0.0
 13
8375.0
 23
4589.684557
 33
0.0
  0
TEXT
  5
47
  8
0
  6
BYBLOCK
 62
    11
 10
7956.25
 20
4572.184557
 30
0.0
 40
35.0
  1
750
  0
POINT
  5
48
  8
DEFPOINTS
  6
BYBLOCK
 62
     0
 10
7625.0
 20
4548.99939
 30
0.0
  0
POINT
  5
4A
  8
DEFPOINTS
  6
BYBLOCK
 62
     0
 10
8375.0
 20
4549.00061
 30
0.0
  0
POINT
  5
4B
  8
DEFPOINTS
  6
BYBLOCK
 62
     0
 10
8375.0
 20
4589.684557
 30
0.0
  0
ENDBLK
  5
4D
  8
0
  0
BLOCK
  8
0
  2
*D1
 70
     1
 10
0.0
 20
0.0
 30
0.0
  3
*D1
  1

  0
LINE
  5
50
  8
0
  6
BYBLOCK
 62
     9
 10
8379.0
 20
4555.00061
 30
0.0
 11
8404.223269
 21
4555.00061
 31
0.0
  0
LINE
  5
51
  8
0
  6
BYBLOCK
 62
     9
 10
8036.000976
 20
4144.996548
 30
0.0
 11
8404.223269
 21
4144.996548
 31
0.0
  0
LINE
  5
52
  8
0
  6
BYBLOCK
 62
     9
 10
8403.223269
 20
4535.00061
 30
0.0
 11
8403.223269
 21
4394.915246
 31
0.0
  0
LINE
  5
53
  8
0
  6
BYBLOCK
 62
     9
 10
8403.223269
 20
4164.996548
 30
0.0
 11
8403.223269
 21
4305.081912
 31
0.0
  0
SOLID
  5
54
  8
0
  6
BYBLOCK
 62
     9
 10
8399.889936
 20
4535.00061
 30
0.0
 11
8406.556603
 21
4535.00061
 31
0.0
 12
8403.223269
 22
4555.00061
 32
0.0
 13
8403.223269
 23
4555.00061
 33
0.0
  0
SOLID
  5
55
  8
0
  6
BYBLOCK
 62
     9
 10
8399.889936
 20
4164.996548
 30
0.0
 11
8406.556603
 21
4164.996548
 31
0.0
 12
8403.223269
 22
4144.996548
 32
0.0
 13
8403.223269
 23
4144.996548
 33
0.0
  0
TEXT
  5
56
  8
0
  6
BYBLOCK
 62
    11
 10
8420.723269
 20
4312.081912
 30
0.0
 40
35.0
  1
410
 50
90.0
  0
POINT
  5
57
  8
DEFPOINTS
  6
BYBLOCK
 62
     0
 10
8369.0
 20
4555.00061
 30
0.0
  0
POINT
  5
58
  8
DEFPOINTS
  6
BYBLOCK
 62
     0
 10
8026.000976
 20
4144.996548
 30
0.0
  0
POINT
  5
59
  8
DEFPOINTS
  6
BYBLOCK
 62
     0
 10
8403.223269
 20
4144.996548
 30
0.0
  0
ENDBLK
  5
5B
  8
0
  0
BLOCK
  8
0
  2
*D2
 70
     1
 10
0.0
 20
0.0
 30
0.0
  3
*D2
  1

  0
LINE
  5
5E
  8
0
  6
BYBLOCK
 62
     9
 10
8379.0
 20
4560.00061
 30
0.0
 11
8453.517151
 21
4560.00061
 31
0.0
  0
LINE
  5
5F
  8
0
  6
BYBLOCK
 62
     9
 10
8010.0
 20
4000.0
 30
0.0
 11
8453.517151
 21
4000.0
 31
0.0
  0
LINE
  5
60
  8
0
  6
BYBLOCK
 62
     9
 10
8452.517151
 20
4540.00061
 30
0.0
 11
8452.517151
 21
4400.750305
 31
0.0
  0
LINE
  5
61
  8
0
  6
BYBLOCK
 62
     9
 10
8452.517151
 20
4020.0
 30
0.0
 11
8452.517151
 21
4159.250305
 31
0.0
  0
SOLID
  5
62
  8
0
  6
BYBLOCK
 62
     9
 10
8449.183818
 20
4540.00061
 30
0.0
 11
8455.850485
 21
4540.00061
 31
0.0
 12
8452.517151
 22
4560.00061
 32
0.0
 13
8452.517151
 23
4560.00061
 33
0.0
  0
SOLID
  5
63
  8
0
  6
BYBLOCK
 62
     9
 10
8449.183818
 20
4020.0
 30
0.0
 11
8455.850485
 21
4020.0
 31
0.0
 12
8452.517151
 22
4000.0
 32
0.0
 13
8452.517151
 23
4000.0
 33
0.0
  0
TEXT
  5
64
  8
0
  6
BYBLOCK
 62
    11
 10
8470.017151
 20
4166.250305
 30
0.0
 40
35.0
  1
545-560
 50
90.0
  0
POINT
  5
65
  8
DEFPOINTS
  6
BYBLOCK
 62
     0
 10
8369.0
 20
4560.00061
 30
0.0
  0
POINT
  5
66
  8
DEFPOINTS
  6
BYBLOCK
 62
     0
 10
8000.0
 20
4000.0
 30
0.0
  0
POINT
  5
67
  8
DEFPOINTS
  6
BYBLOCK
 62
     0
 10
8452.517151
 20
4000.0
 30
0.0
  0
ENDBLK
  5
69
  8
0
  0
ENDSEC
  0
SECTION
  2
ENTITIES
  0
CIRCLE
  5
20
  8
TEAM-DET1
 10
0.0
 20
496.999878
 30
0.0
 40
25.0
  0
LINE
  5
22
  8
TEAM-DET1
 10
-275.0
 20
507.933472
 30
0.0
 11
-22.482178
 21
507.93396
 31
0.0
  0
LINE
  5
23
  8
TEAM-DET1
 10
22.482177
 20
507.93396
 30
0.0
 11
275.0
 21
507.934448
 31
0.0
  0
LINE
  5
24
  8
TEAM-AXE
 10
0.0
 20
559.999878
 30
0.0
 11
0.000732
 21
149.989878
 31
0.0
  0
LINE
  5
27
  8
TEAM-BODY
 10
369.0
 20
560.00061
 30
0.0
 11
-369.0
 21
559.99939
 31
0.0
  0
LINE
  5
29
  8
TEAM-BODY
 10
375.0
 20
534.00061
 30
0.0
 11
375.0
 21
554.00061
 31
0.0
  0
LINE
  5
2A
  8
TEAM-BODY
 10
-369.0
 20
527.99939
 30
0.0
 11
369.0
 21
528.00061
 31
0.0
  0
LINE
  5
2B
  8
TEAM-BODY
 10
-375.0
 20
533.99939
 30
0.0
 11
-375.0
 21
553.99939
 31
0.0
  0
LINE
  5
2C
  8
TEAM-BODY
 10
-25.999268
 20
149.989878
 30
0.0
 11
26.000732
 21
149.989878
 31
0.0
  0
LINE
  5
2D
  8
TEAM-BODY
 10
-43.802735
 20
164.468882
 30
0.0
 11
43.803711
 21
164.469126
 31
0.0
  0
ARC
  5
2E
  8
TEAM-BODY
 10
-369.0
 20
553.99939
 30
0.0
 40
6.0
 50
90.0
 51
180.0
  0
ARC
  5
2F
  8
TEAM-BODY
 10
-369.0
 20
533.99939
 30
0.0
 40
6.0
 50
180.0
 51
270.0
  0
ARC
  5
30
  8
TEAM-BODY
 10
369.0
 20
554.00061
 30
0.0
 40
6.0
 50
0.0
 51
90.0
  0
ARC
  5
31
  8
TEAM-BODY
 10
369.0
 20
534.00061
 30
0.0
 40
6.0
 50
270.0
 51
0.0
  0
ARC
  5
32
  8
TEAM-BODY
 10
-145.145508
 20
262.491587
 30
0.0
 40
92.999878
 50
199.053482
 51
266.908295
  0
ARC
  5
33
  8
TEAM-BODY
 10
-0.002686
 20
2166.990122
 30
0.0
 40
2003.0
 50
265.699554
 51
268.746979
  0
ARC
  5
34
  8
TEAM-BODY
 10
145.146484
 20
262.492075
 30
0.0
 40
92.999992
 50
273.091522
 51
341.13739
  0
ARC
  5
35
  8
TEAM-BODY
 10
-852.691156
 20
612.547414
 30
0.0
 40
1150.45574
 50
340.706327
 51
355.785508
  0
ARC
  5
36
  8
TEAM-BODY
 10
852.690566
 20
612.550519
 30
0.0
 40
1150.455885
 50
184.214663
 51
199.293876
  0
ARC
  5
37
  8
TEAM-BODY
 10
-0.002686
 20
2166.990122
 30
0.0
 40
2003.0
 50
271.253174
 51
274.300415
  0
ARC
  5
38
  8
TEAM-BODY
 10
-43.999268
 20
155.474009
 30
0.0
 40
9.0
 50
11.262991
 51
88.748726
  0
ARC
  5
39
  8
TEAM-BODY
 10
-26.345948
 20
158.989878
 30
0.0
 40
9.0
 50
191.264511
 51
272.205994
  0
ARC
  5
3A
  8
TEAM-BODY
 10
44.000732
 20
155.474253
 30
0.0
 40
9.0
 50
91.254379
 51
168.737
  0
ARC
  5
3B
  8
TEAM-BODY
 10
26.347412
 20
158.989878
 30
0.0
 40
9.0
 50
267.793976
 51
348.737
  0
TEXT
  5
3C
  8
TEAM-TXT
 10
-97.364638
 20
430.254463
 30
0.0
 40
30.0
  1
team 111382
 41
0.7
 51
15.0
  7
TEAM
  0
DIMENSION
  5
3F
  8
TEAM-MAS
  2
*D0
 10
375.0
 20
594.684557
 30
0.0
 11
0.0
 21
589.684557
 31
0.0
 12
-8000.0
 22
-3995.0
 32
0.0
 13
-375.0
 23
553.99939
 33
0.0
 14
375.0
 24
554.00061
 34
0.0
1001
ACAD
1000
DSTYLE
1002
{
1070
    40
1040
1.0
1002
}
  0
DIMENSION
  5
4E
  8
TEAM-MAS
  2
*D1
 10
403.223269
 20
149.996548
 30
0.0
 11
403.223269
 21
349.998579
 31
0.0
 12
-8000.0
 22
-3995.0
 32
0.0
 13
369.0
 23
560.00061
 33
0.0
 14
26.000976
 24
149.996548
 34
0.0
 50
90.0
1001
ACAD
1000
DSTYLE
1002
{
1070
    40
1040
1.0
1002
}
  0
DIMENSION
  5
5C
  8
TEAM-MAS
  2
*D2
 10
452.517151
 20
0.0
 30
0.0
 11
452.517151
 21
280.000305
 31
0.0
 12
-8000.0
 22
-4000.0
 32
0.0
  1
545-<>
 13
369.0
 23
560.00061
 33
0.0
 14
0.0
 24
0.0
 34
0.0
 50
90.0
1001
ACAD
1000
DSTYLE
1002
{
1070
    40
1040
1.0
1002
}
  0
CIRCLE
  5
6A
  8
TEAM-INSP
 10
0.0
 20
0.0
 30
0.0
 40
10.0
  0
ENDSEC
  0
EOF
