  0
SECTION
  2
HEADER
  9
$ACADVER
  1
AC1009
  9
$INSBASE
 10
0.0
 20
0.0
 30
0.0
  9
$EXTMIN
 10
-851.375063
 20
-10.025171
 30
0.0
  9
$EXTMAX
 10
899.688677
 20
614.656419
 30
0.000005
  9
$LIMMIN
 10
-851.375063
 20
-10.025171
  9
$LIMMAX
 10
899.688677
 20
614.656419
  9
$ORTHOMODE
 70
     1
  9
$REGENMODE
 70
     1
  9
$FILLMODE
 70
     1
  9
$QTEXTMODE
 70
     0
  9
$MIRRTEXT
 70
     0
  9
$DRAGMODE
 70
     2
  9
$LTSCALE
 40
50.0
  9
$OSMODE
 70
     0
  9
$ATTMODE
 70
     1
  9
$TEXTSIZE
 40
200.0
  9
$TRACEWID
 40
1.0
  9
$TEXTSTYLE
  7
STANDARD
  9
$CLAYER
  8
TEAM-MAS
  9
$CELTYPE
  6
BYLAYER
  9
$CECOLOR
 62
   256
  9
$DIMSCALE
 40
0.0
  9
$DIMASZ
 40
20.0
  9
$DIMEXO
 40
10.0
  9
$DIMDLI
 40
1.0
  9
$DIMRND
 40
0.0
  9
$DIMDLE
 40
0.0
  9
$DIMEXE
 40
1.0
  9
$DIMTP
 40
0.0
  9
$DIMTM
 40
0.0
  9
$DIMTXT
 40
35.0
  9
$DIMCEN
 40
1.0
  9
$DIMTSZ
 40
0.0
  9
$DIMTOL
 70
     0
  9
$DIMLIM
 70
     0
  9
$DIMTIH
 70
     0
  9
$DIMTOH
 70
     0
  9
$DIMSE1
 70
     0
  9
$DIMSE2
 70
     0
  9
$DIMTAD
 70
     0
  9
$DIMZIN
 70
     0
  9
$DIMBLK
  1

  9
$DIMASO
 70
     1
  9
$DIMSHO
 70
     0
  9
$DIMPOST
  1

  9
$DIMAPOST
  1

  9
$DIMALT
 70
     0
  9
$DIMALTD
 70
     2
  9
$DIMALTF
 40
25.4
  9
$DIMLFAC
 40
1.0
  9
$DIMTOFL
 70
     0
  9
$DIMTVP
 40
0.0
  9
$DIMTIX
 70
     0
  9
$DIMSOXD
 70
     0
  9
$DIMSAH
 70
     0
  9
$DIMBLK1
  1

  9
$DIMBLK2
  1

  9
$DIMSTYLE
  2
TEAM
  9
$DIMCLRD
 70
     9
  9
$DIMCLRE
 70
     9
  9
$DIMCLRT
 70
    11
  9
$DIMTFAC
 40
1.0
  9
$DIMGAP
 40
7.0
  9
$LUNITS
 70
     2
  9
$LUPREC
 70
     1
  9
$SKETCHINC
 40
1.0
  9
$FILLETRAD
 40
50.0
  9
$AUNITS
 70
     0
  9
$AUPREC
 70
     0
  9
$MENU
  1
ROPLANS
  9
$ELEVATION
 40
0.0
  9
$PELEVATION
 40
0.0
  9
$THICKNESS
 40
0.0
  9
$LIMCHECK
 70
     0
  9
$BLIPMODE
 70
     1
  9
$CHAMFERA
 40
0.0
  9
$CHAMFERB
 40
0.0
  9
$SKPOLY
 70
     0
  9
$TDCREATE
 40
2450392.957851
  9
$TDUPDATE
 40
2456124.650986
  9
$TDINDWG
 40
2.269834
  9
$TDUSRTIMER
 40
2.269834
  9
$USRTIMER
 70
     1
  9
$ANGBASE
 50
0.0
  9
$ANGDIR
 70
     0
  9
$PDMODE
 70
     0
  9
$PDSIZE
 40
0.0
  9
$PLINEWID
 40
0.0
  9
$COORDS
 70
     2
  9
$SPLFRAME
 70
     0
  9
$SPLINETYPE
 70
     6
  9
$SPLINESEGS
 70
     8
  9
$ATTDIA
 70
     0
  9
$ATTREQ
 70
     0
  9
$HANDLING
 70
     1
  9
$HANDSEED
  5
A3
  9
$SURFTAB1
 70
    24
  9
$SURFTAB2
 70
    24
  9
$SURFTYPE
 70
     6
  9
$SURFU
 70
     6
  9
$SURFV
 70
     6
  9
$UCSNAME
  2

  9
$UCSORG
 10
0.0
 20
0.0
 30
0.0
  9
$UCSXDIR
 10
1.0
 20
0.0
 30
0.0
  9
$UCSYDIR
 10
0.0
 20
1.0
 30
0.0
  9
$PUCSNAME
  2

  9
$PUCSORG
 10
0.0
 20
0.0
 30
0.0
  9
$PUCSXDIR
 10
1.0
 20
0.0
 30
0.0
  9
$PUCSYDIR
 10
0.0
 20
1.0
 30
0.0
  9
$USERI1
 70
     0
  9
$USERI2
 70
     0
  9
$USERI3
 70
     0
  9
$USERI4
 70
     0
  9
$USERI5
 70
     0
  9
$USERR1
 40
0.0
  9
$USERR2
 40
0.0
  9
$USERR3
 40
0.0
  9
$USERR4
 40
0.0
  9
$USERR5
 40
0.0
  9
$WORLDVIEW
 70
     1
  9
$SHADEDGE
 70
     0
  9
$SHADEDIF
 70
    70
  9
$TILEMODE
 70
     1
  9
$MAXACTVP
 70
    16
  9
$PLIMCHECK
 70
     0
  9
$PEXTMIN
 10
-0.805942
 20
0.005011
 30
0.0
  9
$PEXTMAX
 10
20.250094
 20
11.356329
 30
0.0
  9
$PLIMMIN
 10
0.0
 20
0.0
  9
$PLIMMAX
 10
12.0
 20
9.0
  9
$UNITMODE
 70
     0
  9
$VISRETAIN
 70
     0
  9
$PLINEGEN
 70
     0
  9
$PSLTSCALE
 70
     0
  0
ENDSEC
  0
SECTION
  2
TABLES
  0
TABLE
  2
VPORT
 70
     2
  0
VPORT
  2
*ACTIVE
 70
     0
 10
0.0
 20
0.0
 11
1.0
 21
1.0
 12
24.156807
 22
302.315624
 13
0.0
 23
0.0
 14
1.0
 24
1.0
 15
50.0
 25
50.0
 16
0.0
 26
0.0
 36
1.0
 17
0.0
 27
0.0
 37
0.0
 40
918.95745
 41
1.911765
 42
50.0
 43
0.0
 44
0.0
 50
0.0
 51
0.0
 71
     0
 72
   100
 73
     1
 74
     1
 75
     0
 76
     0
 77
     0
 78
     0
  0
ENDTAB
  0
TABLE
  2
LTYPE
 70
     2
  0
LTYPE
  2
CONTINUOUS
 70
     0
  3
Solid Line
 72
    65
 73
     0
 40
0.0
  0
LTYPE
  2
31
 70
     0
  3

 72
    65
 73
     4
 40
2.1
 49
1.5
 49
-0.3
 49
0.0
 49
-0.3
  0
ENDTAB
  0
TABLE
  2
LAYER
 70
     8
  0
LAYER
  2
0
 70
     0
 62
     7
  6
CONTINUOUS
  0
LAYER
  2
DEFPOINTS
 70
     0
 62
     7
  6
CONTINUOUS
  0
LAYER
  2
TEAM-BODY
 70
     0
 62
     2
  6
CONTINUOUS
  0
LAYER
  2
TEAM-AXE
 70
     0
 62
    10
  6
31
  0
LAYER
  2
TEAM-MAS
 70
     0
 62
     9
  6
CONTINUOUS
  0
LAYER
  2
TEAM-TXT
 70
     0
 62
    11
  6
CONTINUOUS
  0
LAYER
  2
TEAM-DET1
 70
     0
 62
     4
  6
CONTINUOUS
  0
LAYER
  2
TEAM-INSP
 70
     0
 62
     5
  6
CONTINUOUS
  0
ENDTAB
  0
TABLE
  2
STYLE
 70
     2
  0
STYLE
  2
STANDARD
 70
     0
 40
0.0
 41
1.0
 50
0.0
 71
     0
 42
200.0
  3
txt
  4

  0
STYLE
  2
TEAM
 70
     0
 40
0.0
 41
0.8
 50
15.0
 71
     0
 42
7.0
  3
ROMANS.shx
  4

  0
ENDTAB
  0
TABLE
  2
VIEW
 70
     0
  0
ENDTAB
  0
TABLE
  2
UCS
 70
     0
  0
ENDTAB
  0
TABLE
  2
APPID
 70
     1
  0
APPID
  2
ACAD
 70
     0
  0
ENDTAB
  0
TABLE
  2
DIMSTYLE
 70
     1
  0
DIMSTYLE
  2
TEAM
 70
     0
  3

  4

  5

  6

  7

 40
0.0
 41
20.0
 42
10.0
 43
1.0
 44
1.0
 45
0.0
 46
0.0
 47
0.0
 48
0.0
140
35.0
141
1.0
142
0.0
143
25.4
144
1.0
145
0.0
146
1.0
147
7.0
 71
     0
 72
     0
 73
     0
 74
     0
 75
     0
 76
     0
 77
     0
 78
     0
170
     0
171
     2
172
     0
173
     0
174
     0
175
     0
176
     9
177
     9
178
    11
  0
ENDTAB
  0
ENDSEC
  0
SECTION
  2
BLOCKS
  0
BLOCK
  8
0
  2
$MODEL_SPACE
 70
     0
 10
0.0
 20
0.0
 30
0.0
  3
$MODEL_SPACE
  1

  0
ENDBLK
  5
9C
  8
0
  0
BLOCK
 67
     1
  8
0
  2
$PAPER_SPACE
 70
     0
 10
0.0
 20
0.0
 30
0.0
  3
$PAPER_SPACE
  1

  0
ENDBLK
  5
9A
 67
     1
  8
0
  0
BLOCK
  8
0
  2
*D0
 70
     1
 10
0.0
 20
0.0
 30
0.0
  3
*D0
  1

  0
LINE
  5
28
  8
0
  6
BYBLOCK
 62
     9
 10
11150.0
 20
4558.998535
 30
0.0
 11
11150.0
 21
4593.136345
 31
0.0
  0
LINE
  5
29
  8
0
  6
BYBLOCK
 62
     9
 10
12850.0
 20
4559.001221
 30
0.0
 11
12850.0
 21
4593.136345
 31
0.0
  0
LINE
  5
2A
  8
0
  6
BYBLOCK
 62
     9
 10
11170.0
 20
4592.136345
 30
0.0
 11
11940.5
 21
4592.136345
 31
0.0
  0
LINE
  5
2B
  8
0
  6
BYBLOCK
 62
     9
 10
12830.0
 20
4592.136345
 30
0.0
 11
12059.5
 21
4592.136345
 31
0.0
  0
SOLID
  5
2C
  8
0
  6
BYBLOCK
 62
     9
 10
11170.0
 20
4595.469679
 30
0.0
 11
11170.0
 21
4588.803012
 31
0.0
 12
11150.0
 22
4592.136345
 32
0.0
 13
11150.0
 23
4592.136345
 33
0.0
  0
SOLID
  5
2D
  8
0
  6
BYBLOCK
 62
     9
 10
12830.0
 20
4595.469679
 30
0.0
 11
12830.0
 21
4588.803012
 31
0.0
 12
12850.0
 22
4592.136345
 32
0.0
 13
12850.0
 23
4592.136345
 33
0.0
  0
TEXT
  5
2E
  8
0
  6
BYBLOCK
 62
    11
 10
11947.5
 20
4574.636345
 30
0.0
 40
35.0
  1
1700
  0
POINT
  5
2F
  8
DEFPOINTS
  6
BYBLOCK
 62
     0
 10
11150.0
 20
4548.998535
 30
0.0
  0
POINT
  5
31
  8
DEFPOINTS
  6
BYBLOCK
 62
     0
 10
12850.0
 20
4549.001221
 30
0.0
  0
POINT
  5
32
  8
DEFPOINTS
  6
BYBLOCK
 62
     0
 10
12850.0
 20
4592.136345
 30
0.0
  0
ENDBLK
  5
34
  8
0
  0
BLOCK
  8
0
  2
*D1
 70
     1
 10
0.0
 20
0.0
 30
0.0
  3
*D1
  1

  0
LINE
  5
45
  8
0
  6
BYBLOCK
 62
     9
 10
12514.000371
 20
4140.000733
 30
0.0
 11
12514.000371
 21
4098.39143
 31
0.0
  0
LINE
  5
46
  8
0
  6
BYBLOCK
 62
     9
 10
12566.001582
 20
4140.000733
 30
0.0
 11
12566.001582
 21
4098.39143
 31
0.0
  0
LINE
  5
47
  8
0
  6
BYBLOCK
 62
     9
 10
12494.000371
 20
4099.39143
 30
0.0
 11
12474.000371
 21
4099.39143
 31
0.0
  0
LINE
  5
48
  8
0
  6
BYBLOCK
 62
     9
 10
12586.001582
 20
4099.39143
 30
0.0
 11
12606.001582
 21
4099.39143
 31
0.0
  0
TEXT
  5
49
  8
0
  6
BYBLOCK
 62
    11
 10
12414.787743
 20
4081.832736
 30
0.0
 40
35.0
  1
52
  0
LINE
  5
4A
  8
0
  6
BYBLOCK
 62
     9
 10
12514.000371
 20
4099.39143
 30
0.0
 11
12566.001582
 21
4099.39143
 31
0.0
  0
SOLID
  5
4B
  8
0
  6
BYBLOCK
 62
     9
 10
12494.000371
 20
4102.724764
 30
0.0
 11
12494.000371
 21
4096.058097
 31
0.0
 12
12514.000371
 22
4099.39143
 32
0.0
 13
12514.000371
 23
4099.39143
 33
0.0
  0
SOLID
  5
4C
  8
0
  6
BYBLOCK
 62
     9
 10
12586.001582
 20
4102.724764
 30
0.0
 11
12586.001582
 21
4096.058097
 31
0.0
 12
12566.001582
 22
4099.39143
 32
0.0
 13
12566.001582
 23
4099.39143
 33
0.0
  0
POINT
  5
4D
  8
DEFPOINTS
  6
BYBLOCK
 62
     0
 10
12514.000371
 20
4150.000733
 30
0.0
  0
POINT
  5
4E
  8
DEFPOINTS
  6
BYBLOCK
 62
     0
 10
12566.001582
 20
4150.000733
 30
0.0
  0
POINT
  5
4F
  8
DEFPOINTS
  6
BYBLOCK
 62
     0
 10
12566.001582
 20
4099.39143
 30
0.0
  0
ENDBLK
  5
51
  8
0
  0
BLOCK
  8
0
  2
*D2
 70
     1
 10
0.0
 20
0.0
 30
0.0
  3
*D2
  1

  0
LINE
  5
5F
  8
0
  6
BYBLOCK
 62
     9
 10
12854.0
 20
4555.001221
 30
0.0
 11
12883.16781
 21
4555.001221
 31
0.0
  0
LINE
  5
60
  8
0
  6
BYBLOCK
 62
     9
 10
12576.001582
 20
4145.000733
 30
0.0
 11
12883.16781
 21
4145.000733
 31
0.0
  0
LINE
  5
61
  8
0
  6
BYBLOCK
 62
     9
 10
12882.16781
 20
4535.001221
 30
0.0
 11
12882.16781
 21
4394.917644
 31
0.0
  0
LINE
  5
62
  8
0
  6
BYBLOCK
 62
     9
 10
12882.16781
 20
4165.000733
 30
0.0
 11
12882.16781
 21
4305.08431
 31
0.0
  0
SOLID
  5
63
  8
0
  6
BYBLOCK
 62
     9
 10
12878.834476
 20
4535.001221
 30
0.0
 11
12885.501143
 21
4535.001221
 31
0.0
 12
12882.16781
 22
4555.001221
 32
0.0
 13
12882.16781
 23
4555.001221
 33
0.0
  0
SOLID
  5
64
  8
0
  6
BYBLOCK
 62
     9
 10
12878.834476
 20
4165.000733
 30
0.0
 11
12885.501143
 21
4165.000733
 31
0.0
 12
12882.16781
 22
4145.000733
 32
0.0
 13
12882.16781
 23
4145.000733
 33
0.0
  0
TEXT
  5
65
  8
0
  6
BYBLOCK
 62
    11
 10
12899.66781
 20
4312.08431
 30
0.0
 40
35.0
  1
410
 50
90.0
  0
POINT
  5
66
  8
DEFPOINTS
  6
BYBLOCK
 62
     0
 10
12844.0
 20
4555.001221
 30
0.0
  0
POINT
  5
67
  8
DEFPOINTS
  6
BYBLOCK
 62
     0
 10
12566.001582
 20
4145.000733
 30
0.0
  0
POINT
  5
68
  8
DEFPOINTS
  6
BYBLOCK
 62
     0
 10
12882.16781
 20
4145.000733
 30
0.0
  0
ENDBLK
  5
6A
  8
0
  0
ENDSEC
  0
SECTION
  2
ENTITIES
  0
LINE
  5
20
  8
TEAM-DET1
 10
-483.699707
 20
513.698975
 30
0.0
 11
624.447265
 21
513.700928
 31
0.0
  0
LINE
  5
22
  8
TEAM-BODY
 10
-844.0
 20
559.998535
 30
0.0
 11
844.0
 21
560.001221
 31
0.0
  0
LINE
  5
24
  8
TEAM-BODY
 10
-844.0
 20
527.998535
 30
0.0
 11
844.0
 21
528.001221
 31
0.0
  0
LINE
  5
25
  8
TEAM-BODY
 10
-395.125977
 20
188.223389
 30
0.0
 11
494.939824
 21
164.934082
 31
0.0
  0
DIMENSION
  5
26
  8
TEAM-MAS
  2
*D0
 10
850.0
 20
597.136345
 30
0.0
 11
0.0
 21
592.136345
 31
0.0
 12
-12000.0
 22
-3995.0
 32
0.0
 13
-850.0
 23
553.998535
 33
0.0
 14
850.0
 24
554.001221
 34
0.0
1001
ACAD
1000
DSTYLE
1002
{
1070
    40
1040
1.0
1002
}
  0
LINE
  5
35
  8
TEAM-AXE
 10
0.0
 20
560.0
 30
0.0
 11
0.000976
 21
177.877442
 31
0.0
  0
LINE
  5
38
  8
TEAM-BODY
 10
-850.0
 20
553.998535
 30
0.0
 11
-850.0
 21
533.998535
 31
0.0
  0
ARC
  5
39
  8
TEAM-BODY
 10
-844.0
 20
533.998535
 30
0.0
 40
6.0
 50
180.0
 51
270.0
  0
ARC
  5
3A
  8
TEAM-BODY
 10
-844.0
 20
553.998535
 30
0.0
 40
6.0
 50
90.0
 51
180.0
  0
ARC
  5
3B
  8
TEAM-BODY
 10
-825.154786
 20
468.831055
 30
0.0
 40
87.000038
 50
29.259447
 51
42.850727
  0
ARC
  5
3C
  8
TEAM-BODY
 10
-388.503907
 20
441.136963
 30
0.0
 40
253.000092
 50
220.501297
 51
268.500153
  0
ARC
  5
3D
  8
TEAM-BODY
 10
503.183409
 20
1232.78489
 30
0.0
 40
1445.35983
 50
209.942864
 51
221.406805
  0
TEXT
  5
3E
  8
TEAM-TXT
 10
-601.391359
 20
457.889599
 30
0.0
 40
30.0
  1
team 111382
 41
0.7
 51
15.0
  7
TEAM
  0
CIRCLE
  5
41
  8
TEAM-INSP
 10
0.0
 20
0.0
 30
0.0
 40
10.0
  0
DIMENSION
  5
43
  8
TEAM-MAS
  2
*D1
 10
566.001582
 20
99.39143
 30
0.0
 11
443.95441
 21
99.332736
 31
0.0
 12
-12000.0
 22
-4000.0
 32
0.0
 70
   128
 13
514.000371
 23
150.000733
 33
0.0
 14
566.001582
 24
150.000733
 34
0.0
1001
ACAD
1000
DSTYLE
1002
{
1070
    40
1040
1.0
1002
}
  0
LINE
  5
52
  8
TEAM-BODY
 10
850.0
 20
554.001221
 30
0.0
 11
850.0
 21
534.001221
 31
0.0
  0
LINE
  5
53
  8
TEAM-BODY
 10
514.000371
 20
150.000733
 30
0.0
 11
566.001582
 21
150.000733
 31
0.0
  0
LINE
  5
54
  8
TEAM-BODY
 10
494.939824
 20
164.934082
 30
0.0
 11
584.562129
 21
166.246826
 31
0.0
  0
ARC
  5
55
  8
TEAM-BODY
 10
844.0
 20
554.001221
 30
0.0
 40
6.0
 50
0.0
 51
90.0
  0
ARC
  5
56
  8
TEAM-BODY
 10
844.0
 20
534.001221
 30
0.0
 40
6.0
 50
270.0
 51
0.0
  0
ARC
  5
57
  8
TEAM-BODY
 10
-374.718866
 20
609.077969
 30
0.0
 40
1141.357469
 50
342.970737
 51
355.926519
  0
ARC
  5
58
  8
TEAM-BODY
 10
494.651738
 20
153.937744
 30
0.0
 40
11.0
 50
14.664207
 51
88.499283
  0
ARC
  5
59
  8
TEAM-BODY
 10
514.000371
 20
159.000733
 30
0.0
 40
9.0
 50
194.663498
 51
270.0
  0
ARC
  5
5A
  8
TEAM-BODY
 10
566.001582
 20
159.000733
 30
0.0
 40
9.0
 50
270.0
 51
349.341766
  0
ARC
  5
5B
  8
TEAM-BODY
 10
585.656367
 20
155.301514
 30
0.0
 40
11.0
 50
95.708946
 51
169.3405
  0
ARC
  5
5C
  8
TEAM-BODY
 10
569.377008
 20
319.282213
 30
0.0
 40
153.787113
 50
275.666678
 51
343.195097
  0
DIMENSION
  5
5D
  8
TEAM-MAS
  2
*D2
 10
882.16781
 20
150.000733
 30
0.0
 11
882.16781
 21
350.000977
 31
0.0
 12
-12000.0
 22
-3995.0
 32
0.0
 13
844.0
 23
560.001221
 33
0.0
 14
566.001582
 24
150.000733
 34
0.0
 50
90.0
1001
ACAD
1000
DSTYLE
1002
{
1070
    40
1040
1.0
1002
}
  0
ENDSEC
  0
EOF
