  0
SECTION
  2
HEADER
  9
$ACADVER
  1
AC1009
  9
$INSBASE
 10
0.0
 20
0.0
 30
0.0
  9
$EXTMIN
 10
-904.810842
 20
-404.791038
 30
0.0
  9
$EXTMAX
 10
952.721656
 20
489.554585
 30
0.000005
  9
$LIMMIN
 10
-904.810842
 20
-404.791038
  9
$LIMMAX
 10
952.721656
 20
489.554585
  9
$ORTHOMODE
 70
     1
  9
$REGENMODE
 70
     1
  9
$FILLMODE
 70
     1
  9
$QTEXTMODE
 70
     0
  9
$MIRRTEXT
 70
     0
  9
$DRAGMODE
 70
     2
  9
$LTSCALE
 40
50.0
  9
$OSMODE
 70
     0
  9
$ATTMODE
 70
     1
  9
$TEXTSIZE
 40
200.0
  9
$TRACEWID
 40
1.0
  9
$TEXTSTYLE
  7
STANDARD
  9
$CLAYER
  8
TEAM-MAS
  9
$CELTYPE
  6
BYLAYER
  9
$CECOLOR
 62
   256
  9
$DIMSCALE
 40
0.0
  9
$DIMASZ
 40
20.0
  9
$DIMEXO
 40
10.0
  9
$DIMDLI
 40
1.0
  9
$DIMRND
 40
0.0
  9
$DIMDLE
 40
0.0
  9
$DIMEXE
 40
1.0
  9
$DIMTP
 40
0.0
  9
$DIMTM
 40
0.0
  9
$DIMTXT
 40
35.0
  9
$DIMCEN
 40
1.0
  9
$DIMTSZ
 40
0.0
  9
$DIMTOL
 70
     0
  9
$DIMLIM
 70
     0
  9
$DIMTIH
 70
     0
  9
$DIMTOH
 70
     0
  9
$DIMSE1
 70
     0
  9
$DIMSE2
 70
     0
  9
$DIMTAD
 70
     0
  9
$DIMZIN
 70
     0
  9
$DIMBLK
  1

  9
$DIMASO
 70
     1
  9
$DIMSHO
 70
     0
  9
$DIMPOST
  1

  9
$DIMAPOST
  1

  9
$DIMALT
 70
     0
  9
$DIMALTD
 70
     2
  9
$DIMALTF
 40
25.4
  9
$DIMLFAC
 40
1.0
  9
$DIMTOFL
 70
     0
  9
$DIMTVP
 40
0.0
  9
$DIMTIX
 70
     0
  9
$DIMSOXD
 70
     0
  9
$DIMSAH
 70
     0
  9
$DIMBLK1
  1

  9
$DIMBLK2
  1

  9
$DIMSTYLE
  2
TEAM
  9
$DIMCLRD
 70
     9
  9
$DIMCLRE
 70
     9
  9
$DIMCLRT
 70
    11
  9
$DIMTFAC
 40
1.0
  9
$DIMGAP
 40
7.0
  9
$LUNITS
 70
     2
  9
$LUPREC
 70
     1
  9
$SKETCHINC
 40
1.0
  9
$FILLETRAD
 40
50.0
  9
$AUNITS
 70
     0
  9
$AUPREC
 70
     0
  9
$MENU
  1
ROPLANS
  9
$ELEVATION
 40
0.0
  9
$PELEVATION
 40
0.0
  9
$THICKNESS
 40
0.0
  9
$LIMCHECK
 70
     0
  9
$BLIPMODE
 70
     1
  9
$CHAMFERA
 40
0.0
  9
$CHAMFERB
 40
0.0
  9
$SKPOLY
 70
     0
  9
$TDCREATE
 40
2450392.957851
  9
$TDUPDATE
 40
2456124.650986
  9
$TDINDWG
 40
2.269834
  9
$TDUSRTIMER
 40
2.269834
  9
$USRTIMER
 70
     1
  9
$ANGBASE
 50
0.0
  9
$ANGDIR
 70
     0
  9
$PDMODE
 70
     0
  9
$PDSIZE
 40
0.0
  9
$PLINEWID
 40
0.0
  9
$COORDS
 70
     2
  9
$SPLFRAME
 70
     0
  9
$SPLINETYPE
 70
     6
  9
$SPLINESEGS
 70
     8
  9
$ATTDIA
 70
     0
  9
$ATTREQ
 70
     0
  9
$HANDLING
 70
     1
  9
$HANDSEED
  5
184
  9
$SURFTAB1
 70
    24
  9
$SURFTAB2
 70
    24
  9
$SURFTYPE
 70
     6
  9
$SURFU
 70
     6
  9
$SURFV
 70
     6
  9
$UCSNAME
  2

  9
$UCSORG
 10
0.0
 20
0.0
 30
0.0
  9
$UCSXDIR
 10
1.0
 20
0.0
 30
0.0
  9
$UCSYDIR
 10
0.0
 20
1.0
 30
0.0
  9
$PUCSNAME
  2

  9
$PUCSORG
 10
0.0
 20
0.0
 30
0.0
  9
$PUCSXDIR
 10
1.0
 20
0.0
 30
0.0
  9
$PUCSYDIR
 10
0.0
 20
1.0
 30
0.0
  9
$USERI1
 70
     0
  9
$USERI2
 70
     0
  9
$USERI3
 70
     0
  9
$USERI4
 70
     0
  9
$USERI5
 70
     0
  9
$USERR1
 40
0.0
  9
$USERR2
 40
0.0
  9
$USERR3
 40
0.0
  9
$USERR4
 40
0.0
  9
$USERR5
 40
0.0
  9
$WORLDVIEW
 70
     1
  9
$SHADEDGE
 70
     0
  9
$SHADEDIF
 70
    70
  9
$TILEMODE
 70
     1
  9
$MAXACTVP
 70
    16
  9
$PLIMCHECK
 70
     0
  9
$PEXTMIN
 10
-0.805942
 20
0.005011
 30
0.0
  9
$PEXTMAX
 10
20.250094
 20
11.356329
 30
0.0
  9
$PLIMMIN
 10
0.0
 20
0.0
  9
$PLIMMAX
 10
12.0
 20
9.0
  9
$UNITMODE
 70
     0
  9
$VISRETAIN
 70
     0
  9
$PLINEGEN
 70
     0
  9
$PSLTSCALE
 70
     0
  0
ENDSEC
  0
SECTION
  2
TABLES
  0
TABLE
  2
VPORT
 70
     2
  0
VPORT
  2
*ACTIVE
 70
     0
 10
0.0
 20
0.0
 11
1.0
 21
1.0
 12
23.955407
 22
42.381773
 13
0.0
 23
0.0
 14
1.0
 24
1.0
 15
50.0
 25
50.0
 16
0.0
 26
0.0
 36
1.0
 17
0.0
 27
0.0
 37
0.0
 40
974.832206
 41
1.911765
 42
50.0
 43
0.0
 44
0.0
 50
0.0
 51
0.0
 71
     0
 72
   100
 73
     1
 74
     1
 75
     0
 76
     0
 77
     0
 78
     0
  0
ENDTAB
  0
TABLE
  2
LTYPE
 70
     2
  0
LTYPE
  2
CONTINUOUS
 70
     0
  3
Solid Line
 72
    65
 73
     0
 40
0.0
  0
LTYPE
  2
31
 70
     0
  3

 72
    65
 73
     4
 40
2.1
 49
1.5
 49
-0.3
 49
0.0
 49
-0.3
  0
ENDTAB
  0
TABLE
  2
LAYER
 70
     8
  0
LAYER
  2
0
 70
     0
 62
     7
  6
CONTINUOUS
  0
LAYER
  2
DEFPOINTS
 70
     0
 62
     7
  6
CONTINUOUS
  0
LAYER
  2
TEAM-BODY
 70
     0
 62
     2
  6
CONTINUOUS
  0
LAYER
  2
TEAM-AXE
 70
     0
 62
    10
  6
31
  0
LAYER
  2
TEAM-MAS
 70
     0
 62
     9
  6
CONTINUOUS
  0
LAYER
  2
TEAM-TXT
 70
     0
 62
    11
  6
CONTINUOUS
  0
LAYER
  2
TEAM-DET1
 70
     0
 62
     4
  6
CONTINUOUS
  0
LAYER
  2
TEAM-INSP
 70
     0
 62
     5
  6
CONTINUOUS
  0
ENDTAB
  0
TABLE
  2
STYLE
 70
     2
  0
STYLE
  2
STANDARD
 70
     0
 40
0.0
 41
1.0
 50
0.0
 71
     0
 42
200.0
  3
txt
  4

  0
STYLE
  2
TEAM
 70
     0
 40
0.0
 41
0.8
 50
15.0
 71
     0
 42
7.0
  3
ROMANS.shx
  4

  0
ENDTAB
  0
TABLE
  2
VIEW
 70
     0
  0
ENDTAB
  0
TABLE
  2
UCS
 70
     0
  0
ENDTAB
  0
TABLE
  2
APPID
 70
     1
  0
APPID
  2
ACAD
 70
     0
  0
ENDTAB
  0
TABLE
  2
DIMSTYLE
 70
     1
  0
DIMSTYLE
  2
TEAM
 70
     0
  3

  4

  5

  6

  7

 40
0.0
 41
20.0
 42
10.0
 43
1.0
 44
1.0
 45
0.0
 46
0.0
 47
0.0
 48
0.0
140
35.0
141
1.0
142
0.0
143
25.4
144
1.0
145
0.0
146
1.0
147
7.0
 71
     0
 72
     0
 73
     0
 74
     0
 75
     0
 76
     0
 77
     0
 78
     0
170
     0
171
     2
172
     0
173
     0
174
     0
175
     0
176
     9
177
     9
178
    11
  0
ENDTAB
  0
ENDSEC
  0
SECTION
  2
BLOCKS
  0
BLOCK
  8
0
  2
$MODEL_SPACE
 70
     0
 10
0.0
 20
0.0
 30
0.0
  3
$MODEL_SPACE
  1

  0
ENDBLK
  5
10F
  8
0
  0
BLOCK
 67
     1
  8
0
  2
$PAPER_SPACE
 70
     0
 10
0.0
 20
0.0
 30
0.0
  3
$PAPER_SPACE
  1

  0
ENDBLK
  5
10D
 67
     1
  8
0
  0
BLOCK
  8
0
  2
*D0
 70
     1
 10
0.0
 20
0.0
 30
0.0
  3
*D0
  1

  0
LINE
  5
8A
  8
0
  6
BYBLOCK
 62
     9
 10
4899.999145
 20
12387.001221
 30
0.0
 11
4899.999145
 21
12440.378087
 31
0.0
  0
LINE
  5
8B
  8
0
  6
BYBLOCK
 62
     9
 10
4590.000122
 20
12010.000732
 30
0.0
 11
4590.000122
 21
12440.378087
 31
0.0
  0
LINE
  5
8C
  8
0
  6
BYBLOCK
 62
     9
 10
4879.999145
 20
12439.378087
 30
0.0
 11
4789.9163
 21
12439.378087
 31
0.0
  0
LINE
  5
8D
  8
0
  6
BYBLOCK
 62
     9
 10
4610.000122
 20
12439.378087
 30
0.0
 11
4700.082967
 21
12439.378087
 31
0.0
  0
SOLID
  5
8E
  8
0
  6
BYBLOCK
 62
     9
 10
4879.999145
 20
12442.711421
 30
0.0
 11
4879.999145
 21
12436.044754
 31
0.0
 12
4899.999145
 22
12439.378087
 32
0.0
 13
4899.999145
 23
12439.378087
 33
0.0
  0
SOLID
  5
8F
  8
0
  6
BYBLOCK
 62
     9
 10
4610.000122
 20
12442.711421
 30
0.0
 11
4610.000122
 21
12436.044754
 31
0.0
 12
4590.000122
 22
12439.378087
 32
0.0
 13
4590.000122
 23
12439.378087
 33
0.0
  0
TEXT
  5
90
  8
0
  6
BYBLOCK
 62
    11
 10
4707.082967
 20
12421.878087
 30
0.0
 40
35.0
  1
310
  0
POINT
  5
91
  8
DEFPOINTS
  6
BYBLOCK
 62
     0
 10
4899.999145
 20
12377.001221
 30
0.0
  0
POINT
  5
92
  8
DEFPOINTS
  6
BYBLOCK
 62
     0
 10
4590.000122
 20
12000.000732
 30
0.0
  0
POINT
  5
93
  8
DEFPOINTS
  6
BYBLOCK
 62
     0
 10
4590.000122
 20
12439.378087
 30
0.0
  0
ENDBLK
  5
95
  8
0
  0
BLOCK
  8
0
  2
*D1
 70
     1
 10
0.0
 20
0.0
 30
0.0
  3
*D1
  1

  0
LINE
  5
22
  8
0
  6
BYBLOCK
 62
     9
 10
4899.999145
 20
12387.001221
 30
0.0
 11
4899.999145
 21
12473.022449
 31
0.0
  0
LINE
  5
23
  8
0
  6
BYBLOCK
 62
     9
 10
3099.999389
 20
12386.998291
 30
0.0
 11
3099.999389
 21
12473.022449
 31
0.0
  0
LINE
  5
24
  8
0
  6
BYBLOCK
 62
     9
 10
4879.999145
 20
12472.022449
 30
0.0
 11
4059.499267
 21
12472.022449
 31
0.0
  0
LINE
  5
25
  8
0
  6
BYBLOCK
 62
     9
 10
3119.999389
 20
12472.022449
 30
0.0
 11
3940.499267
 21
12472.022449
 31
0.0
  0
SOLID
  5
26
  8
0
  6
BYBLOCK
 62
     9
 10
4879.999145
 20
12475.355782
 30
0.0
 11
4879.999145
 21
12468.689116
 31
0.0
 12
4899.999145
 22
12472.022449
 32
0.0
 13
4899.999145
 23
12472.022449
 33
0.0
  0
SOLID
  5
27
  8
0
  6
BYBLOCK
 62
     9
 10
3119.999389
 20
12475.355782
 30
0.0
 11
3119.999389
 21
12468.689116
 31
0.0
 12
3099.999389
 22
12472.022449
 32
0.0
 13
3099.999389
 23
12472.022449
 33
0.0
  0
TEXT
  5
28
  8
0
  6
BYBLOCK
 62
    11
 10
3947.499267
 20
12454.522449
 30
0.0
 40
35.0
  1
1800
  0
POINT
  5
29
  8
DEFPOINTS
  6
BYBLOCK
 62
     0
 10
4899.999145
 20
12377.001221
 30
0.0
  0
POINT
  5
2B
  8
DEFPOINTS
  6
BYBLOCK
 62
     0
 10
3099.999389
 20
12376.998291
 30
0.0
  0
POINT
  5
2C
  8
DEFPOINTS
  6
BYBLOCK
 62
     0
 10
3099.999389
 20
12472.022449
 30
0.0
  0
ENDBLK
  5
2E
  8
0
  0
BLOCK
  8
0
  2
*D2
 70
     1
 10
0.0
 20
0.0
 30
0.0
  3
*D2
  1

  0
LINE
  5
7C
  8
0
  6
BYBLOCK
 62
     9
 10
4886.999145
 20
12400.001221
 30
0.0
 11
4936.12372
 21
12400.001221
 31
0.0
  0
LINE
  5
7D
  8
0
  6
BYBLOCK
 62
     9
 10
4887.00061
 20
11600.001221
 30
0.0
 11
4936.12372
 21
11600.001221
 31
0.0
  0
LINE
  5
7E
  8
0
  6
BYBLOCK
 62
     9
 10
4935.12372
 20
12380.001221
 30
0.0
 11
4935.12372
 21
12047.834554
 31
0.0
  0
LINE
  5
7F
  8
0
  6
BYBLOCK
 62
     9
 10
4935.12372
 20
11620.001221
 30
0.0
 11
4935.12372
 21
11952.167888
 31
0.0
  0
SOLID
  5
80
  8
0
  6
BYBLOCK
 62
     9
 10
4931.790387
 20
12380.001221
 30
0.0
 11
4938.457053
 21
12380.001221
 31
0.0
 12
4935.12372
 22
12400.001221
 32
0.0
 13
4935.12372
 23
12400.001221
 33
0.0
  0
SOLID
  5
81
  8
0
  6
BYBLOCK
 62
     9
 10
4931.790387
 20
11620.001221
 30
0.0
 11
4938.457053
 21
11620.001221
 31
0.0
 12
4935.12372
 22
11600.001221
 32
0.0
 13
4935.12372
 23
11600.001221
 33
0.0
  0
TEXT
  5
82
  8
0
  6
BYBLOCK
 62
    11
 10
4952.62372
 20
11959.167888
 30
0.0
 40
35.0
  1
800
 50
90.0
  0
POINT
  5
83
  8
DEFPOINTS
  6
BYBLOCK
 62
     0
 10
4876.999145
 20
12400.001221
 30
0.0
  0
POINT
  5
84
  8
DEFPOINTS
  6
BYBLOCK
 62
     0
 10
4877.00061
 20
11600.001221
 30
0.0
  0
POINT
  5
85
  8
DEFPOINTS
  6
BYBLOCK
 62
     0
 10
4935.12372
 20
11600.001221
 30
0.0
  0
ENDBLK
  5
87
  8
0
  0
ENDSEC
  0
SECTION
  2
ENTITIES
  0
DIMENSION
  5
20
  8
TEAM-MAS
  2
*D1
 10
-900.000611
 20
472.022449
 30
0.0
 11
-0.000733
 21
472.022449
 31
0.0
 12
-4000.0
 22
-12000.0
 32
0.0
 13
899.999145
 23
377.001221
 33
0.0
 14
-900.000611
 24
376.998291
 34
0.0
1001
ACAD
1000
DSTYLE
1002
{
1070
    40
1040
1.0
1002
}
  0
ARC
  5
2F
  8
TEAM-BODY
 10
-455.378784
 20
-24660.985352
 30
0.0
 40
25000.0
 50
87.775566
 51
90.517929
  0
ARC
  5
31
  8
TEAM-BODY
 10
-455.44812
 20
24660.983398
 30
0.0
 40
25000.0
 50
269.482208
 51
272.224579
  0
LINE
  5
32
  8
TEAM-BODY
 10
877.00061
 20
-399.998779
 30
0.0
 11
-876.99939
 21
-400.001221
 31
0.0
  0
LINE
  5
33
  8
TEAM-BODY
 10
876.999145
 20
400.001221
 30
0.0
 11
-877.000611
 21
399.998291
 31
0.0
  0
LINE
  5
34
  8
TEAM-AXE
 10
900.000122
 20
0.001221
 30
0.0
 11
-900.000122
 21
-0.001221
 31
0.0
  0
LINE
  5
37
  8
TEAM-BODY
 10
453.999634
 20
175.000732
 30
0.0
 11
-341.447632
 21
174.999267
 31
0.0
  0
LINE
  5
38
  8
TEAM-BODY
 10
454.000122
 20
-174.999268
 30
0.0
 11
-341.447144
 21
-175.000733
 31
0.0
  0
TEXT
  5
39
  8
TEAM-TXT
 10
-669.702617
 20
274.672333
 30
0.0
 40
30.0
  1
team 111384
 41
0.7
 51
15.0
  7
TEAM
  0
ARC
  5
3C
  8
TEAM-BODY
 10
-876.999634
 20
-377.001221
 30
0.0
 40
23.0
 50
180.0
 51
270.00058
  0
ARC
  5
3D
  8
TEAM-BODY
 10
154.999634
 20
50.020263
 30
0.0
 40
980.0
 50
169.288864
 51
177.189194
  0
ARC
  5
3E
  8
TEAM-BODY
 10
-680.190308
 20
207.998779
 30
0.0
 40
130.0
 50
90.517998
 51
169.288803
  0
ARC
  5
3F
  8
TEAM-BODY
 10
155.000122
 20
-50.019776
 30
0.0
 40
980.0
 50
182.810959
 51
190.711273
  0
ARC
  5
40
  8
TEAM-BODY
 10
1173.773071
 20
0.001709
 30
0.0
 40
2000.0
 50
177.189194
 51
182.810944
  0
ARC
  5
41
  8
TEAM-BODY
 10
-680.18982
 20
-208.001221
 30
0.0
 40
130.0
 50
190.711182
 51
269.482208
  0
ARC
  5
42
  8
TEAM-BODY
 10
-877.000611
 20
376.998291
 30
0.0
 40
23.0
 50
90.0
 51
180.0
  0
LINE
  5
43
  8
TEAM-BODY
 10
-900.000611
 20
376.998291
 30
0.0
 11
-899.999634
 21
-377.001221
 31
0.0
  0
ARC
  5
44
  8
TEAM-BODY
 10
-341.447144
 20
-95.000733
 30
0.0
 40
80.0
 50
189.766953
 51
270.0
  0
ARC
  5
45
  8
TEAM-BODY
 10
210.436157
 20
0.000244
 30
0.0
 40
640.0
 50
170.233047
 51
189.767136
  0
ARC
  5
46
  8
TEAM-BODY
 10
-341.447388
 20
94.999267
 30
0.0
 40
80.0
 50
90.000168
 51
170.233032
  0
POLYLINE
  5
47
  8
TEAM-DET1
 66
     1
 10
0.0
 20
0.0
 30
0.0
  0
VERTEX
  5
115
  8
TEAM-DET1
 10
779.995727
 20
26.000976
 30
0.0
  0
VERTEX
  5
116
  8
TEAM-DET1
 10
778.38147
 20
25.659912
 30
0.0
  0
VERTEX
  5
117
  8
TEAM-DET1
 10
776.875122
 20
24.702637
 30
0.0
  0
VERTEX
  5
118
  8
TEAM-DET1
 10
775.552368
 20
23.293457
 30
0.0
  0
VERTEX
  5
119
  8
TEAM-DET1
 10
774.443481
 20
21.625244
 30
0.0
  0
VERTEX
  5
11A
  8
TEAM-DET1
 10
773.542358
 20
19.862305
 30
0.0
  0
VERTEX
  5
11B
  8
TEAM-DET1
 10
772.822876
 20
18.117431
 30
0.0
  0
VERTEX
  5
11C
  8
TEAM-DET1
 10
772.253052
 20
16.455078
 30
0.0
  0
VERTEX
  5
11D
  8
TEAM-DET1
 10
771.80188
 20
14.905517
 30
0.0
  0
VERTEX
  5
11E
  8
TEAM-DET1
 10
771.443725
 20
13.476806
 30
0.0
  0
VERTEX
  5
11F
  8
TEAM-DET1
 10
771.157837
 20
12.165527
 30
0.0
  0
VERTEX
  5
120
  8
TEAM-DET1
 10
770.927856
 20
10.962158
 30
0.0
  0
VERTEX
  5
121
  8
TEAM-DET1
 10
770.364624
 20
6.998291
 30
0.0
  0
VERTEX
  5
122
  8
TEAM-DET1
 10
770.044067
 20
2.556152
 30
0.0
  0
VERTEX
  5
123
  8
TEAM-DET1
 10
770.109741
 20
-3.913086
 30
0.0
  0
VERTEX
  5
124
  8
TEAM-DET1
 10
770.927856
 20
-10.960205
 30
0.0
  0
VERTEX
  5
125
  8
TEAM-DET1
 10
771.157837
 20
-12.163574
 30
0.0
  0
VERTEX
  5
126
  8
TEAM-DET1
 10
771.443725
 20
-13.474854
 30
0.0
  0
VERTEX
  5
127
  8
TEAM-DET1
 10
771.80188
 20
-14.903565
 30
0.0
  0
VERTEX
  5
128
  8
TEAM-DET1
 10
772.253052
 20
-16.453125
 30
0.0
  0
VERTEX
  5
129
  8
TEAM-DET1
 10
772.822876
 20
-18.115479
 30
0.0
  0
VERTEX
  5
12A
  8
TEAM-DET1
 10
773.542358
 20
-19.860352
 30
0.0
  0
VERTEX
  5
12B
  8
TEAM-DET1
 10
774.443481
 20
-21.623291
 30
0.0
  0
VERTEX
  5
12C
  8
TEAM-DET1
 10
775.552368
 20
-23.291504
 30
0.0
  0
VERTEX
  5
12D
  8
TEAM-DET1
 10
776.875122
 20
-24.700684
 30
0.0
  0
VERTEX
  5
12E
  8
TEAM-DET1
 10
778.38147
 20
-25.657959
 30
0.0
  0
VERTEX
  5
12F
  8
TEAM-DET1
 10
779.995727
 20
-25.999024
 30
0.0
  0
VERTEX
  5
130
  8
TEAM-DET1
 10
781.609985
 20
-25.657959
 30
0.0
  0
VERTEX
  5
131
  8
TEAM-DET1
 10
783.116333
 20
-24.700684
 30
0.0
  0
VERTEX
  5
132
  8
TEAM-DET1
 10
784.439087
 20
-23.291504
 30
0.0
  0
VERTEX
  5
133
  8
TEAM-DET1
 10
785.547973
 20
-21.623291
 30
0.0
  0
VERTEX
  5
134
  8
TEAM-DET1
 10
786.449097
 20
-19.860352
 30
0.0
  0
VERTEX
  5
135
  8
TEAM-DET1
 10
787.168579
 20
-18.115479
 30
0.0
  0
VERTEX
  5
136
  8
TEAM-DET1
 10
787.738403
 20
-16.453125
 30
0.0
  0
VERTEX
  5
137
  8
TEAM-DET1
 10
788.189575
 20
-14.903565
 30
0.0
  0
VERTEX
  5
138
  8
TEAM-DET1
 10
788.547729
 20
-13.474854
 30
0.0
  0
VERTEX
  5
139
  8
TEAM-DET1
 10
788.833618
 20
-12.163574
 30
0.0
  0
VERTEX
  5
13A
  8
TEAM-DET1
 10
789.063598
 20
-10.960205
 30
0.0
  0
VERTEX
  5
13B
  8
TEAM-DET1
 10
789.249634
 20
-9.853516
 30
0.0
  0
VERTEX
  5
13C
  8
TEAM-DET1
 10
789.710571
 20
-6.164307
 30
0.0
  0
VERTEX
  5
13D
  8
TEAM-DET1
 10
789.968872
 20
-1.901612
 30
0.0
  0
VERTEX
  5
13E
  8
TEAM-DET1
 10
789.835815
 20
4.631347
 30
0.0
  0
VERTEX
  5
13F
  8
TEAM-DET1
 10
788.833618
 20
12.165527
 30
0.0
  0
VERTEX
  5
140
  8
TEAM-DET1
 10
788.547729
 20
13.476806
 30
0.0
  0
VERTEX
  5
141
  8
TEAM-DET1
 10
788.189575
 20
14.905517
 30
0.0
  0
VERTEX
  5
142
  8
TEAM-DET1
 10
787.738403
 20
16.455078
 30
0.0
  0
VERTEX
  5
143
  8
TEAM-DET1
 10
787.168579
 20
18.117431
 30
0.0
  0
VERTEX
  5
144
  8
TEAM-DET1
 10
786.449097
 20
19.862305
 30
0.0
  0
SEQEND
  5
145
  8
TEAM-DET1
  0
DIMENSION
  5
7A
  8
TEAM-MAS
  2
*D2
 10
935.12372
 20
-399.998779
 30
0.0
 11
935.12372
 21
0.001221
 31
0.0
 12
-4000.0
 22
-12000.0
 32
0.0
 13
876.999145
 23
400.001221
 33
0.0
 14
877.00061
 24
-399.998779
 34
0.0
 50
90.0
1001
ACAD
1000
DSTYLE
1002
{
1070
    40
1040
1.0
1002
}
  0
DIMENSION
  5
88
  8
TEAM-MAS
  2
*D0
 10
590.000122
 20
439.378087
 30
0.0
 11
744.999634
 21
439.378087
 31
0.0
 12
-4000.0
 22
-12000.0
 32
0.0
 13
899.999145
 23
377.001221
 33
0.0
 14
590.000122
 24
0.000732
 34
0.0
1001
ACAD
1000
DSTYLE
1002
{
1070
    40
1040
1.0
1002
}
  0
CIRCLE
  5
96
  8
TEAM-INSP
 10
0.0
 20
0.0
 30
0.0
 40
10.0
  0
CIRCLE
  5
98
  8
TEAM-BODY
 10
590.000122
 20
0.000732
 30
0.0
 40
26.0
  0
POLYLINE
  5
99
  8
TEAM-BODY
 66
     1
 10
0.0
 20
0.0
 30
0.0
  0
VERTEX
  5
146
  8
TEAM-BODY
 10
786.449097
 20
19.862305
 30
0.0
  0
VERTEX
  5
147
  8
TEAM-BODY
 10
785.547973
 20
21.625244
 30
0.0
  0
VERTEX
  5
148
  8
TEAM-BODY
 10
784.438843
 20
23.293457
 30
0.0
  0
VERTEX
  5
149
  8
TEAM-BODY
 10
783.116333
 20
24.702637
 30
0.0
  0
VERTEX
  5
14A
  8
TEAM-BODY
 10
781.609985
 20
25.659912
 30
0.0
  0
VERTEX
  5
14B
  8
TEAM-BODY
 10
779.995727
 20
26.000976
 30
0.0
  0
SEQEND
  5
14C
  8
TEAM-BODY
  0
POLYLINE
  5
A1
  8
TEAM-BODY
 66
     1
 10
0.0
 20
0.0
 30
0.0
  0
VERTEX
  5
14D
  8
TEAM-BODY
 10
814.762817
 20
0.001221
 30
0.0
  0
VERTEX
  5
14E
  8
TEAM-BODY
 10
814.564087
 20
14.272705
 30
0.0
  0
VERTEX
  5
14F
  8
TEAM-BODY
 10
813.23938
 20
33.265869
 30
0.0
  0
VERTEX
  5
150
  8
TEAM-BODY
 10
810.853638
 20
52.173584
 30
0.0
  0
VERTEX
  5
151
  8
TEAM-BODY
 10
807.40686
 20
70.945556
 30
0.0
  0
VERTEX
  5
152
  8
TEAM-BODY
 10
802.898559
 20
89.530517
 30
0.0
  0
VERTEX
  5
153
  8
TEAM-BODY
 10
797.327759
 20
107.874756
 30
0.0
  0
VERTEX
  5
154
  8
TEAM-BODY
 10
790.695434
 20
125.921142
 30
0.0
  0
VERTEX
  5
155
  8
TEAM-BODY
 10
783.003052
 20
143.610107
 30
0.0
  0
VERTEX
  5
156
  8
TEAM-BODY
 10
774.255005
 20
160.87915
 30
0.0
  0
VERTEX
  5
157
  8
TEAM-BODY
 10
764.45813
 20
177.661377
 30
0.0
  0
VERTEX
  5
158
  8
TEAM-BODY
 10
753.623657
 20
193.886963
 30
0.0
  0
VERTEX
  5
159
  8
TEAM-BODY
 10
741.766235
 20
209.482666
 30
0.0
  0
VERTEX
  5
15A
  8
TEAM-BODY
 10
728.907348
 20
224.372314
 30
0.0
  0
VERTEX
  5
15B
  8
TEAM-BODY
 10
715.074829
 20
238.476318
 30
0.0
  0
VERTEX
  5
15C
  8
TEAM-BODY
 10
700.303345
 20
251.715576
 30
0.0
  0
VERTEX
  5
15D
  8
TEAM-BODY
 10
684.636841
 20
264.008056
 30
0.0
  0
VERTEX
  5
15E
  8
TEAM-BODY
 10
668.127075
 20
275.273193
 30
0.0
  0
VERTEX
  5
15F
  8
TEAM-BODY
 10
650.835571
 20
285.432373
 30
0.0
  0
VERTEX
  5
160
  8
TEAM-BODY
 10
632.834106
 20
294.411377
 30
0.0
  0
VERTEX
  5
161
  8
TEAM-BODY
 10
614.201782
 20
302.140381
 30
0.0
  0
VERTEX
  5
162
  8
TEAM-BODY
 10
595.02893
 20
308.556396
 30
0.0
  0
VERTEX
  5
163
  8
TEAM-BODY
 10
575.412231
 20
313.606201
 30
0.0
  0
VERTEX
  5
164
  8
TEAM-BODY
 10
555.456177
 20
317.245361
 30
0.0
  0
VERTEX
  5
165
  8
TEAM-BODY
 10
535.27063
 20
319.442138
 30
0.0
  0
VERTEX
  5
166
  8
TEAM-BODY
 10
514.96936
 20
320.176513
 30
0.0
  0
SEQEND
  5
167
  8
TEAM-BODY
  0
POLYLINE
  5
BD
  8
TEAM-BODY
 66
     1
 10
0.0
 20
0.0
 30
0.0
  0
VERTEX
  5
168
  8
TEAM-BODY
 10
814.762817
 20
0.001221
 30
0.0
  0
VERTEX
  5
169
  8
TEAM-BODY
 10
814.564087
 20
-14.270264
 30
0.0
  0
VERTEX
  5
16A
  8
TEAM-BODY
 10
813.23938
 20
-33.263428
 30
0.0
  0
VERTEX
  5
16B
  8
TEAM-BODY
 10
810.854126
 20
-52.171143
 30
0.0
  0
VERTEX
  5
16C
  8
TEAM-BODY
 10
807.407348
 20
-70.943115
 30
0.0
  0
VERTEX
  5
16D
  8
TEAM-BODY
 10
802.899048
 20
-89.528565
 30
0.0
  0
VERTEX
  5
16E
  8
TEAM-BODY
 10
797.328247
 20
-107.872315
 30
0.0
  0
VERTEX
  5
16F
  8
TEAM-BODY
 10
790.695923
 20
-125.918701
 30
0.0
  0
VERTEX
  5
170
  8
TEAM-BODY
 10
783.00354
 20
-143.607666
 30
0.0
  0
VERTEX
  5
171
  8
TEAM-BODY
 10
774.255493
 20
-160.876709
 30
0.0
  0
VERTEX
  5
172
  8
TEAM-BODY
 10
764.458618
 20
-177.658936
 30
0.0
  0
VERTEX
  5
173
  8
TEAM-BODY
 10
753.624145
 20
-193.884522
 30
0.0
  0
VERTEX
  5
174
  8
TEAM-BODY
 10
741.766723
 20
-209.481201
 30
0.0
  0
VERTEX
  5
175
  8
TEAM-BODY
 10
728.907837
 20
-224.370362
 30
0.0
  0
VERTEX
  5
176
  8
TEAM-BODY
 10
715.075317
 20
-238.474854
 30
0.0
  0
VERTEX
  5
177
  8
TEAM-BODY
 10
700.303833
 20
-251.714112
 30
0.0
  0
VERTEX
  5
178
  8
TEAM-BODY
 10
684.637329
 20
-264.006592
 30
0.0
  0
VERTEX
  5
179
  8
TEAM-BODY
 10
668.127563
 20
-275.271729
 30
0.0
  0
VERTEX
  5
17A
  8
TEAM-BODY
 10
650.836059
 20
-285.430908
 30
0.0
  0
VERTEX
  5
17B
  8
TEAM-BODY
 10
632.834595
 20
-294.410401
 30
0.0
  0
VERTEX
  5
17C
  8
TEAM-BODY
 10
614.20227
 20
-302.138916
 30
0.0
  0
VERTEX
  5
17D
  8
TEAM-BODY
 10
595.029907
 20
-308.554932
 30
0.0
  0
VERTEX
  5
17E
  8
TEAM-BODY
 10
575.413208
 20
-313.604737
 30
0.0
  0
VERTEX
  5
17F
  8
TEAM-BODY
 10
555.457153
 20
-317.243897
 30
0.0
  0
VERTEX
  5
180
  8
TEAM-BODY
 10
535.271606
 20
-319.440674
 30
0.0
  0
VERTEX
  5
181
  8
TEAM-BODY
 10
514.970337
 20
-320.175049
 30
0.0
  0
SEQEND
  5
182
  8
TEAM-BODY
  0
ARC
  5
D9
  8
TEAM-BODY
 10
877.00061
 20
-376.998779
 30
0.0
 40
23.0
 50
270.0
 51
0.0
  0
ARC
  5
DA
  8
TEAM-BODY
 10
876.999145
 20
377.001221
 30
0.0
 40
23.0
 50
0.0
 51
90.0
  0
LINE
  5
DB
  8
TEAM-BODY
 10
900.00061
 20
-376.998779
 30
0.0
 11
899.999145
 21
377.001221
 31
0.0
  0
LINE
  5
DC
  8
TEAM-AXE
 10
-0.000855
 20
399.999756
 30
0.0
 11
0.00061
 21
-400.000244
 31
0.0
  0
ARC
  5
DD
  8
TEAM-BODY
 10
454.000122
 20
0.000732
 30
0.0
 40
175.0
 50
270.0
 51
90.00016
  0
ENDSEC
  0
EOF
