  0
SECTION
  2
HEADER
  9
$ACADVER
  1
AC1009
  9
$INSBASE
 10
0.0
 20
0.0
 30
0.0
  9
$EXTMIN
 10
-401.271506
 20
-10.023633
 30
0.0
  9
$EXTMAX
 10
496.693088
 20
611.193778
 30
0.000005
  9
$LIMMIN
 10
-401.271506
 20
-10.023633
  9
$LIMMAX
 10
496.693088
 20
611.193778
  9
$ORTHOMODE
 70
     1
  9
$REGENMODE
 70
     1
  9
$FILLMODE
 70
     1
  9
$QTEXTMODE
 70
     0
  9
$MIRRTEXT
 70
     0
  9
$DRAGMODE
 70
     2
  9
$LTSCALE
 40
50.0
  9
$OSMODE
 70
     0
  9
$ATTMODE
 70
     1
  9
$TEXTSIZE
 40
200.0
  9
$TRACEWID
 40
1.0
  9
$TEXTSTYLE
  7
STANDARD
  9
$CLAYER
  8
TEAM-MAS
  9
$CELTYPE
  6
BYLAYER
  9
$CECOLOR
 62
   256
  9
$DIMSCALE
 40
0.0
  9
$DIMASZ
 40
20.0
  9
$DIMEXO
 40
10.0
  9
$DIMDLI
 40
1.0
  9
$DIMRND
 40
0.0
  9
$DIMDLE
 40
0.0
  9
$DIMEXE
 40
1.0
  9
$DIMTP
 40
0.0
  9
$DIMTM
 40
0.0
  9
$DIMTXT
 40
35.0
  9
$DIMCEN
 40
1.0
  9
$DIMTSZ
 40
0.0
  9
$DIMTOL
 70
     0
  9
$DIMLIM
 70
     0
  9
$DIMTIH
 70
     0
  9
$DIMTOH
 70
     0
  9
$DIMSE1
 70
     0
  9
$DIMSE2
 70
     0
  9
$DIMTAD
 70
     0
  9
$DIMZIN
 70
     0
  9
$DIMBLK
  1

  9
$DIMASO
 70
     1
  9
$DIMSHO
 70
     0
  9
$DIMPOST
  1

  9
$DIMAPOST
  1

  9
$DIMALT
 70
     0
  9
$DIMALTD
 70
     2
  9
$DIMALTF
 40
25.4
  9
$DIMLFAC
 40
1.0
  9
$DIMTOFL
 70
     0
  9
$DIMTVP
 40
0.0
  9
$DIMTIX
 70
     0
  9
$DIMSOXD
 70
     0
  9
$DIMSAH
 70
     0
  9
$DIMBLK1
  1

  9
$DIMBLK2
  1

  9
$DIMSTYLE
  2
TEAM
  9
$DIMCLRD
 70
     9
  9
$DIMCLRE
 70
     9
  9
$DIMCLRT
 70
    11
  9
$DIMTFAC
 40
1.0
  9
$DIMGAP
 40
7.0
  9
$LUNITS
 70
     2
  9
$LUPREC
 70
     1
  9
$SKETCHINC
 40
1.0
  9
$FILLETRAD
 40
50.0
  9
$AUNITS
 70
     0
  9
$AUPREC
 70
     0
  9
$MENU
  1
ROPLANS
  9
$ELEVATION
 40
0.0
  9
$PELEVATION
 40
0.0
  9
$THICKNESS
 40
0.0
  9
$LIMCHECK
 70
     0
  9
$BLIPMODE
 70
     1
  9
$CHAMFERA
 40
0.0
  9
$CHAMFERB
 40
0.0
  9
$SKPOLY
 70
     0
  9
$TDCREATE
 40
2450392.957851
  9
$TDUPDATE
 40
2456124.650986
  9
$TDINDWG
 40
2.269834
  9
$TDUSRTIMER
 40
2.269834
  9
$USRTIMER
 70
     1
  9
$ANGBASE
 50
0.0
  9
$ANGDIR
 70
     0
  9
$PDMODE
 70
     0
  9
$PDSIZE
 40
0.0
  9
$PLINEWID
 40
0.0
  9
$COORDS
 70
     2
  9
$SPLFRAME
 70
     0
  9
$SPLINETYPE
 70
     6
  9
$SPLINESEGS
 70
     8
  9
$ATTDIA
 70
     0
  9
$ATTREQ
 70
     0
  9
$HANDLING
 70
     1
  9
$HANDSEED
  5
A4
  9
$SURFTAB1
 70
    24
  9
$SURFTAB2
 70
    24
  9
$SURFTYPE
 70
     6
  9
$SURFU
 70
     6
  9
$SURFV
 70
     6
  9
$UCSNAME
  2

  9
$UCSORG
 10
0.0
 20
0.0
 30
0.0
  9
$UCSXDIR
 10
1.0
 20
0.0
 30
0.0
  9
$UCSYDIR
 10
0.0
 20
1.0
 30
0.0
  9
$PUCSNAME
  2

  9
$PUCSORG
 10
0.0
 20
0.0
 30
0.0
  9
$PUCSXDIR
 10
1.0
 20
0.0
 30
0.0
  9
$PUCSYDIR
 10
0.0
 20
1.0
 30
0.0
  9
$USERI1
 70
     0
  9
$USERI2
 70
     0
  9
$USERI3
 70
     0
  9
$USERI4
 70
     0
  9
$USERI5
 70
     0
  9
$USERR1
 40
0.0
  9
$USERR2
 40
0.0
  9
$USERR3
 40
0.0
  9
$USERR4
 40
0.0
  9
$USERR5
 40
0.0
  9
$WORLDVIEW
 70
     1
  9
$SHADEDGE
 70
     0
  9
$SHADEDIF
 70
    70
  9
$TILEMODE
 70
     1
  9
$MAXACTVP
 70
    16
  9
$PLIMCHECK
 70
     0
  9
$PEXTMIN
 10
-0.805942
 20
0.005011
 30
0.0
  9
$PEXTMAX
 10
20.250094
 20
11.356329
 30
0.0
  9
$PLIMMIN
 10
0.0
 20
0.0
  9
$PLIMMAX
 10
12.0
 20
9.0
  9
$UNITMODE
 70
     0
  9
$VISRETAIN
 70
     0
  9
$PLINEGEN
 70
     0
  9
$PSLTSCALE
 70
     0
  0
ENDSEC
  0
SECTION
  2
TABLES
  0
TABLE
  2
VPORT
 70
     2
  0
VPORT
  2
*ACTIVE
 70
     0
 10
0.0
 20
0.0
 11
1.0
 21
1.0
 12
47.710791
 22
300.585072
 13
0.0
 23
0.0
 14
1.0
 24
1.0
 15
50.0
 25
50.0
 16
0.0
 26
0.0
 36
1.0
 17
0.0
 27
0.0
 37
0.0
 40
625.128539
 41
1.911765
 42
50.0
 43
0.0
 44
0.0
 50
0.0
 51
0.0
 71
     0
 72
   100
 73
     1
 74
     1
 75
     0
 76
     0
 77
     0
 78
     0
  0
ENDTAB
  0
TABLE
  2
LTYPE
 70
     2
  0
LTYPE
  2
CONTINUOUS
 70
     0
  3
Solid Line
 72
    65
 73
     0
 40
0.0
  0
LTYPE
  2
31
 70
     0
  3

 72
    65
 73
     4
 40
2.1
 49
1.5
 49
-0.3
 49
0.0
 49
-0.3
  0
ENDTAB
  0
TABLE
  2
LAYER
 70
     8
  0
LAYER
  2
0
 70
     0
 62
     7
  6
CONTINUOUS
  0
LAYER
  2
DEFPOINTS
 70
     0
 62
     7
  6
CONTINUOUS
  0
LAYER
  2
TEAM-BODY
 70
     0
 62
     2
  6
CONTINUOUS
  0
LAYER
  2
TEAM-AXE
 70
     0
 62
    10
  6
31
  0
LAYER
  2
TEAM-MAS
 70
     0
 62
     9
  6
CONTINUOUS
  0
LAYER
  2
TEAM-TXT
 70
     0
 62
    11
  6
CONTINUOUS
  0
LAYER
  2
TEAM-DET1
 70
     0
 62
     4
  6
CONTINUOUS
  0
LAYER
  2
TEAM-INSP
 70
     0
 62
     5
  6
CONTINUOUS
  0
ENDTAB
  0
TABLE
  2
STYLE
 70
     2
  0
STYLE
  2
STANDARD
 70
     0
 40
0.0
 41
1.0
 50
0.0
 71
     0
 42
200.0
  3
txt
  4

  0
STYLE
  2
TEAM
 70
     0
 40
0.0
 41
0.8
 50
15.0
 71
     0
 42
7.0
  3
ROMANS.shx
  4

  0
ENDTAB
  0
TABLE
  2
VIEW
 70
     0
  0
ENDTAB
  0
TABLE
  2
UCS
 70
     0
  0
ENDTAB
  0
TABLE
  2
APPID
 70
     1
  0
APPID
  2
ACAD
 70
     0
  0
ENDTAB
  0
TABLE
  2
DIMSTYLE
 70
     1
  0
DIMSTYLE
  2
TEAM
 70
     0
  3

  4

  5

  6

  7

 40
0.0
 41
20.0
 42
10.0
 43
1.0
 44
1.0
 45
0.0
 46
0.0
 47
0.0
 48
0.0
140
35.0
141
1.0
142
0.0
143
25.4
144
1.0
145
0.0
146
1.0
147
7.0
 71
     0
 72
     0
 73
     0
 74
     0
 75
     0
 76
     0
 77
     0
 78
     0
170
     0
171
     2
172
     0
173
     0
174
     0
175
     0
176
     9
177
     9
178
    11
  0
ENDTAB
  0
ENDSEC
  0
SECTION
  2
BLOCKS
  0
BLOCK
  8
0
  2
$MODEL_SPACE
 70
     0
 10
0.0
 20
0.0
 30
0.0
  3
$MODEL_SPACE
  1

  0
ENDBLK
  5
9D
  8
0
  0
BLOCK
 67
     1
  8
0
  2
$PAPER_SPACE
 70
     0
 10
0.0
 20
0.0
 30
0.0
  3
$PAPER_SPACE
  1

  0
ENDBLK
  5
9B
 67
     1
  8
0
  0
BLOCK
  8
0
  2
*D0
 70
     1
 10
0.0
 20
0.0
 30
0.0
  3
*D0
  1

  0
LINE
  5
41
  8
0
  6
BYBLOCK
 62
     9
 10
7599.999878
 20
12558.999756
 30
0.0
 11
7599.999878
 21
12589.646117
 31
0.0
  0
LINE
  5
42
  8
0
  6
BYBLOCK
 62
     9
 10
8400.000122
 20
12559.000244
 30
0.0
 11
8400.000122
 21
12589.646117
 31
0.0
  0
LINE
  5
43
  8
0
  6
BYBLOCK
 62
     9
 10
7619.999878
 20
12588.646117
 30
0.0
 11
7952.166667
 21
12588.646117
 31
0.0
  0
LINE
  5
44
  8
0
  6
BYBLOCK
 62
     9
 10
8380.000122
 20
12588.646117
 30
0.0
 11
8047.833333
 21
12588.646117
 31
0.0
  0
SOLID
  5
45
  8
0
  6
BYBLOCK
 62
     9
 10
7619.999878
 20
12591.979451
 30
0.0
 11
7619.999878
 21
12585.312784
 31
0.0
 12
7599.999878
 22
12588.646117
 32
0.0
 13
7599.999878
 23
12588.646117
 33
0.0
  0
SOLID
  5
46
  8
0
  6
BYBLOCK
 62
     9
 10
8380.000122
 20
12591.979451
 30
0.0
 11
8380.000122
 21
12585.312784
 31
0.0
 12
8400.000122
 22
12588.646117
 32
0.0
 13
8400.000122
 23
12588.646117
 33
0.0
  0
TEXT
  5
47
  8
0
  6
BYBLOCK
 62
    11
 10
7959.166667
 20
12571.146117
 30
0.0
 40
35.0
  1
800
  0
POINT
  5
48
  8
DEFPOINTS
  6
BYBLOCK
 62
     0
 10
7599.999878
 20
12548.999756
 30
0.0
  0
POINT
  5
4A
  8
DEFPOINTS
  6
BYBLOCK
 62
     0
 10
8400.000122
 20
12549.000244
 30
0.0
  0
POINT
  5
4B
  8
DEFPOINTS
  6
BYBLOCK
 62
     0
 10
8400.000122
 20
12588.646117
 30
0.0
  0
ENDBLK
  5
4D
  8
0
  0
BLOCK
  8
0
  2
*D1
 70
     1
 10
0.0
 20
0.0
 30
0.0
  3
*D1
  1

  0
LINE
  5
50
  8
0
  6
BYBLOCK
 62
     9
 10
8404.000122
 20
12555.000244
 30
0.0
 11
8433.693271
 21
12555.000244
 31
0.0
  0
LINE
  5
51
  8
0
  6
BYBLOCK
 62
     9
 10
8036.346802
 20
12125.000244
 30
0.0
 11
8433.693271
 21
12125.000244
 31
0.0
  0
LINE
  5
52
  8
0
  6
BYBLOCK
 62
     9
 10
8432.693271
 20
12535.000244
 30
0.0
 11
8432.693271
 21
12390.750244
 31
0.0
  0
LINE
  5
53
  8
0
  6
BYBLOCK
 62
     9
 10
8432.693271
 20
12145.000244
 30
0.0
 11
8432.693271
 21
12289.250244
 31
0.0
  0
SOLID
  5
54
  8
0
  6
BYBLOCK
 62
     9
 10
8429.359937
 20
12535.000244
 30
0.0
 11
8436.026604
 21
12535.000244
 31
0.0
 12
8432.693271
 22
12555.000244
 32
0.0
 13
8432.693271
 23
12555.000244
 33
0.0
  0
SOLID
  5
55
  8
0
  6
BYBLOCK
 62
     9
 10
8429.359937
 20
12145.000244
 30
0.0
 11
8436.026604
 21
12145.000244
 31
0.0
 12
8432.693271
 22
12125.000244
 32
0.0
 13
8432.693271
 23
12125.000244
 33
0.0
  0
TEXT
  5
56
  8
0
  6
BYBLOCK
 62
    11
 10
8450.193271
 20
12296.250244
 30
0.0
 40
35.0
  1
430
 50
90.0
  0
POINT
  5
57
  8
DEFPOINTS
  6
BYBLOCK
 62
     0
 10
8394.000122
 20
12555.000244
 30
0.0
  0
POINT
  5
58
  8
DEFPOINTS
  6
BYBLOCK
 62
     0
 10
8026.346802
 20
12125.000244
 30
0.0
  0
POINT
  5
59
  8
DEFPOINTS
  6
BYBLOCK
 62
     0
 10
8432.693271
 20
12125.000244
 30
0.0
  0
ENDBLK
  5
5B
  8
0
  0
BLOCK
  8
0
  2
*D2
 70
     1
 10
0.0
 20
0.0
 30
0.0
  3
*D2
  1

  0
LINE
  5
5E
  8
0
  6
BYBLOCK
 62
     9
 10
8010.0
 20
12000.0
 30
0.0
 11
8480.132308
 21
12000.0
 31
0.0
  0
LINE
  5
5F
  8
0
  6
BYBLOCK
 62
     9
 10
8404.000122
 20
12560.000244
 30
0.0
 11
8480.132308
 21
12560.000244
 31
0.0
  0
LINE
  5
60
  8
0
  6
BYBLOCK
 62
     9
 10
8479.132308
 20
12020.0
 30
0.0
 11
8479.132308
 21
12159.250122
 31
0.0
  0
LINE
  5
61
  8
0
  6
BYBLOCK
 62
     9
 10
8479.132308
 20
12540.000244
 30
0.0
 11
8479.132308
 21
12400.750122
 31
0.0
  0
SOLID
  5
62
  8
0
  6
BYBLOCK
 62
     9
 10
8475.798975
 20
12020.0
 30
0.0
 11
8482.465641
 21
12020.0
 31
0.0
 12
8479.132308
 22
12000.0
 32
0.0
 13
8479.132308
 23
12000.0
 33
0.0
  0
SOLID
  5
63
  8
0
  6
BYBLOCK
 62
     9
 10
8475.798975
 20
12540.000244
 30
0.0
 11
8482.465641
 21
12540.000244
 31
0.0
 12
8479.132308
 22
12560.000244
 32
0.0
 13
8479.132308
 23
12560.000244
 33
0.0
  0
TEXT
  5
64
  8
0
  6
BYBLOCK
 62
    11
 10
8496.632308
 20
12166.250122
 30
0.0
 40
35.0
  1
555-560
 50
90.0
  0
POINT
  5
65
  8
DEFPOINTS
  6
BYBLOCK
 62
     0
 10
8000.0
 20
12000.0
 30
0.0
  0
POINT
  5
66
  8
DEFPOINTS
  6
BYBLOCK
 62
     0
 10
8394.000122
 20
12560.000244
 30
0.0
  0
POINT
  5
67
  8
DEFPOINTS
  6
BYBLOCK
 62
     0
 10
8479.132308
 20
12560.000244
 30
0.0
  0
ENDBLK
  5
69
  8
0
  0
ENDSEC
  0
SECTION
  2
ENTITIES
  0
CIRCLE
  5
20
  8
TEAM-DET1
 10
0.000122
 20
485.000244
 30
0.0
 40
26.0
  0
LINE
  5
22
  8
TEAM-DET1
 10
-247.372925
 20
508.144775
 30
0.0
 11
-23.490112
 21
508.145264
 31
0.0
  0
LINE
  5
23
  8
TEAM-DET1
 10
23.490357
 20
508.145264
 30
0.0
 11
247.373169
 21
508.145264
 31
0.0
  0
LINE
  5
24
  8
TEAM-AXE
 10
0.000122
 20
560.000244
 30
0.0
 11
0.000122
 21
130.000244
 31
0.0
  0
LINE
  5
27
  8
TEAM-BODY
 10
394.000122
 20
560.000244
 30
0.0
 11
-394.000122
 21
559.999756
 31
0.0
  0
LINE
  5
29
  8
TEAM-BODY
 10
-26.346557
 20
130.000244
 30
0.0
 11
26.346802
 21
130.000244
 31
0.0
  0
LINE
  5
2A
  8
TEAM-BODY
 10
-400.000122
 20
533.999756
 30
0.0
 11
-400.000122
 21
553.999756
 31
0.0
  0
LINE
  5
2B
  8
TEAM-BODY
 10
394.000122
 20
528.000244
 30
0.0
 11
-394.000122
 21
527.999756
 31
0.0
  0
LINE
  5
2C
  8
TEAM-BODY
 10
400.000122
 20
534.000244
 30
0.0
 11
400.000122
 21
554.000244
 31
0.0
  0
LINE
  5
2D
  8
TEAM-BODY
 10
-43.702026
 20
144.480713
 30
0.0
 11
43.702271
 21
144.480713
 31
0.0
  0
ARC
  5
2E
  8
TEAM-BODY
 10
44.000122
 20
132.484619
 30
0.0
 40
12.0
 50
91.422279
 51
168.736923
  0
ARC
  5
2F
  8
TEAM-BODY
 10
26.346802
 20
136.000244
 30
0.0
 40
6.0
 50
270.0
 51
348.737152
  0
ARC
  5
30
  8
TEAM-BODY
 10
-43.999878
 20
132.484131
 30
0.0
 40
12.0
 50
11.265353
 51
88.577721
  0
ARC
  5
31
  8
TEAM-BODY
 10
-26.346557
 20
136.000244
 30
0.0
 40
6.0
 50
191.262833
 51
270.0
  0
ARC
  5
32
  8
TEAM-BODY
 10
-394.000122
 20
533.999756
 30
0.0
 40
6.0
 50
180.0
 51
270.0
  0
ARC
  5
33
  8
TEAM-BODY
 10
-394.000122
 20
553.999756
 30
0.0
 40
6.0
 50
90.0
 51
180.0
  0
ARC
  5
34
  8
TEAM-BODY
 10
394.000122
 20
534.000244
 30
0.0
 40
6.0
 50
270.0
 51
0.0
  0
ARC
  5
35
  8
TEAM-BODY
 10
394.000122
 20
554.000244
 30
0.0
 40
6.0
 50
0.0
 51
90.0
  0
ARC
  5
36
  8
TEAM-BODY
 10
-844.346393
 20
630.64285
 30
0.0
 40
1173.523638
 50
339.085411
 51
354.982193
  0
ARC
  5
37
  8
TEAM-BODY
 10
164.834595
 20
244.525146
 30
0.0
 40
93.000076
 50
275.13739
 51
339.347351
  0
ARC
  5
38
  8
TEAM-BODY
 10
-164.83435
 20
244.525146
 30
0.0
 40
92.999916
 50
200.652985
 51
265.049194
  0
ARC
  5
39
  8
TEAM-BODY
 10
844.371815
 20
630.648375
 30
0.0
 40
1173.548906
 50
185.017989
 51
200.914405
  0
ARC
  5
3A
  8
TEAM-BODY
 10
5.925904
 20
2143.864502
 30
0.0
 40
2000.0
 50
264.86264
 51
268.578125
  0
ARC
  5
3B
  8
TEAM-BODY
 10
-5.923706
 20
2143.864746
 30
0.0
 40
2000.0
 50
271.421814
 51
275.137299
  0
TEXT
  5
3C
  8
TEAM-TXT
 10
-250.560636
 20
412.773216
 30
0.0
 40
30.0
  1
team 111384
 41
0.7
 51
15.0
  7
TEAM
  0
DIMENSION
  5
3F
  8
TEAM-MAS
  2
*D0
 10
400.000122
 20
593.646117
 30
0.0
 11
0.0
 21
588.646117
 31
0.0
 12
-8000.0
 22
-11995.0
 32
0.0
 13
-400.000122
 23
553.999756
 33
0.0
 14
400.000122
 24
554.000244
 34
0.0
1001
ACAD
1000
DSTYLE
1002
{
1070
    40
1040
1.0
1002
}
  0
DIMENSION
  5
4E
  8
TEAM-MAS
  2
*D1
 10
432.693271
 20
130.000244
 30
0.0
 11
432.693271
 21
340.000244
 31
0.0
 12
-8000.0
 22
-11995.0
 32
0.0
 13
394.000122
 23
560.000244
 33
0.0
 14
26.346802
 24
130.000244
 34
0.0
 50
90.0
1001
ACAD
1000
DSTYLE
1002
{
1070
    40
1040
1.0
1002
}
  0
DIMENSION
  5
5C
  8
TEAM-MAS
  2
*D2
 10
479.132308
 20
560.000244
 30
0.0
 11
479.132308
 21
280.000122
 31
0.0
 12
-8000.0
 22
-12000.0
 32
0.0
  1
555-<>
 13
0.0
 23
0.0
 33
0.0
 14
394.000122
 24
560.000244
 34
0.0
 50
90.0
1001
ACAD
1000
DSTYLE
1002
{
1070
    40
1040
1.0
1002
}
  0
CIRCLE
  5
6A
  8
TEAM-INSP
 10
0.0
 20
0.0
 30
0.0
 40
10.0
  0
ENDSEC
  0
EOF
