  0
SECTION
  2
HEADER
  9
$ACADVER
  1
AC1009
  9
$INSBASE
 10
0.0
 20
0.0
 30
0.0
  9
$EXTMIN
 10
-901.272274
 20
-10.023633
 30
0.0
  9
$EXTMAX
 10
949.037148
 20
611.722146
 30
0.000005
  9
$LIMMIN
 10
-901.272274
 20
-10.023633
  9
$LIMMAX
 10
949.037148
 20
611.722146
  9
$ORTHOMODE
 70
     1
  9
$REGENMODE
 70
     1
  9
$FILLMODE
 70
     1
  9
$QTEXTMODE
 70
     0
  9
$MIRRTEXT
 70
     0
  9
$DRAGMODE
 70
     2
  9
$LTSCALE
 40
50.0
  9
$OSMODE
 70
     0
  9
$ATTMODE
 70
     1
  9
$TEXTSIZE
 40
200.0
  9
$TRACEWID
 40
1.0
  9
$TEXTSTYLE
  7
STANDARD
  9
$CLAYER
  8
TEAM-MAS
  9
$CELTYPE
  6
BYLAYER
  9
$CECOLOR
 62
   256
  9
$DIMSCALE
 40
0.0
  9
$DIMASZ
 40
20.0
  9
$DIMEXO
 40
10.0
  9
$DIMDLI
 40
1.0
  9
$DIMRND
 40
0.0
  9
$DIMDLE
 40
0.0
  9
$DIMEXE
 40
1.0
  9
$DIMTP
 40
0.0
  9
$DIMTM
 40
0.0
  9
$DIMTXT
 40
35.0
  9
$DIMCEN
 40
1.0
  9
$DIMTSZ
 40
0.0
  9
$DIMTOL
 70
     0
  9
$DIMLIM
 70
     0
  9
$DIMTIH
 70
     0
  9
$DIMTOH
 70
     0
  9
$DIMSE1
 70
     0
  9
$DIMSE2
 70
     0
  9
$DIMTAD
 70
     0
  9
$DIMZIN
 70
     0
  9
$DIMBLK
  1

  9
$DIMASO
 70
     1
  9
$DIMSHO
 70
     0
  9
$DIMPOST
  1

  9
$DIMAPOST
  1

  9
$DIMALT
 70
     0
  9
$DIMALTD
 70
     2
  9
$DIMALTF
 40
25.4
  9
$DIMLFAC
 40
1.0
  9
$DIMTOFL
 70
     0
  9
$DIMTVP
 40
0.0
  9
$DIMTIX
 70
     0
  9
$DIMSOXD
 70
     0
  9
$DIMSAH
 70
     0
  9
$DIMBLK1
  1

  9
$DIMBLK2
  1

  9
$DIMSTYLE
  2
TEAM
  9
$DIMCLRD
 70
     9
  9
$DIMCLRE
 70
     9
  9
$DIMCLRT
 70
    11
  9
$DIMTFAC
 40
1.0
  9
$DIMGAP
 40
7.0
  9
$LUNITS
 70
     2
  9
$LUPREC
 70
     1
  9
$SKETCHINC
 40
1.0
  9
$FILLETRAD
 40
50.0
  9
$AUNITS
 70
     0
  9
$AUPREC
 70
     0
  9
$MENU
  1
ROPLANS
  9
$ELEVATION
 40
0.0
  9
$PELEVATION
 40
0.0
  9
$THICKNESS
 40
0.0
  9
$LIMCHECK
 70
     0
  9
$BLIPMODE
 70
     1
  9
$CHAMFERA
 40
0.0
  9
$CHAMFERB
 40
0.0
  9
$SKPOLY
 70
     0
  9
$TDCREATE
 40
2450392.957851
  9
$TDUPDATE
 40
2456124.650986
  9
$TDINDWG
 40
2.269834
  9
$TDUSRTIMER
 40
2.269834
  9
$USRTIMER
 70
     1
  9
$ANGBASE
 50
0.0
  9
$ANGDIR
 70
     0
  9
$PDMODE
 70
     0
  9
$PDSIZE
 40
0.0
  9
$PLINEWID
 40
0.0
  9
$COORDS
 70
     2
  9
$SPLFRAME
 70
     0
  9
$SPLINETYPE
 70
     6
  9
$SPLINESEGS
 70
     8
  9
$ATTDIA
 70
     0
  9
$ATTREQ
 70
     0
  9
$HANDLING
 70
     1
  9
$HANDSEED
  5
B0
  9
$SURFTAB1
 70
    24
  9
$SURFTAB2
 70
    24
  9
$SURFTYPE
 70
     6
  9
$SURFU
 70
     6
  9
$SURFV
 70
     6
  9
$UCSNAME
  2

  9
$UCSORG
 10
0.0
 20
0.0
 30
0.0
  9
$UCSXDIR
 10
1.0
 20
0.0
 30
0.0
  9
$UCSYDIR
 10
0.0
 20
1.0
 30
0.0
  9
$PUCSNAME
  2

  9
$PUCSORG
 10
0.0
 20
0.0
 30
0.0
  9
$PUCSXDIR
 10
1.0
 20
0.0
 30
0.0
  9
$PUCSYDIR
 10
0.0
 20
1.0
 30
0.0
  9
$USERI1
 70
     0
  9
$USERI2
 70
     0
  9
$USERI3
 70
     0
  9
$USERI4
 70
     0
  9
$USERI5
 70
     0
  9
$USERR1
 40
0.0
  9
$USERR2
 40
0.0
  9
$USERR3
 40
0.0
  9
$USERR4
 40
0.0
  9
$USERR5
 40
0.0
  9
$WORLDVIEW
 70
     1
  9
$SHADEDGE
 70
     0
  9
$SHADEDIF
 70
    70
  9
$TILEMODE
 70
     1
  9
$MAXACTVP
 70
    16
  9
$PLIMCHECK
 70
     0
  9
$PEXTMIN
 10
-0.805942
 20
0.005011
 30
0.0
  9
$PEXTMAX
 10
20.250094
 20
11.356329
 30
0.0
  9
$PLIMMIN
 10
0.0
 20
0.0
  9
$PLIMMAX
 10
12.0
 20
9.0
  9
$UNITMODE
 70
     0
  9
$VISRETAIN
 70
     0
  9
$PLINEGEN
 70
     0
  9
$PSLTSCALE
 70
     0
  0
ENDSEC
  0
SECTION
  2
TABLES
  0
TABLE
  2
VPORT
 70
     2
  0
VPORT
  2
*ACTIVE
 70
     0
 10
0.0
 20
0.0
 11
1.0
 21
1.0
 12
23.882437
 22
300.849256
 13
0.0
 23
0.0
 14
1.0
 24
1.0
 15
50.0
 25
50.0
 16
0.0
 26
0.0
 36
1.0
 17
0.0
 27
0.0
 37
0.0
 40
971.041539
 41
1.911765
 42
50.0
 43
0.0
 44
0.0
 50
0.0
 51
0.0
 71
     0
 72
   100
 73
     1
 74
     1
 75
     0
 76
     0
 77
     0
 78
     0
  0
ENDTAB
  0
TABLE
  2
LTYPE
 70
     2
  0
LTYPE
  2
CONTINUOUS
 70
     0
  3
Solid Line
 72
    65
 73
     0
 40
0.0
  0
LTYPE
  2
31
 70
     0
  3

 72
    65
 73
     4
 40
2.1
 49
1.5
 49
-0.3
 49
0.0
 49
-0.3
  0
ENDTAB
  0
TABLE
  2
LAYER
 70
     7
  0
LAYER
  2
0
 70
     0
 62
     7
  6
CONTINUOUS
  0
LAYER
  2
DEFPOINTS
 70
     0
 62
     7
  6
CONTINUOUS
  0
LAYER
  2
TEAM-BODY
 70
     0
 62
     2
  6
CONTINUOUS
  0
LAYER
  2
TEAM-AXE
 70
     0
 62
    10
  6
31
  0
LAYER
  2
TEAM-MAS
 70
     0
 62
     9
  6
CONTINUOUS
  0
LAYER
  2
TEAM-TXT
 70
     0
 62
    11
  6
CONTINUOUS
  0
LAYER
  2
TEAM-INSP
 70
     0
 62
     5
  6
CONTINUOUS
  0
ENDTAB
  0
TABLE
  2
STYLE
 70
     2
  0
STYLE
  2
STANDARD
 70
     0
 40
0.0
 41
1.0
 50
0.0
 71
     0
 42
200.0
  3
txt
  4

  0
STYLE
  2
TEAM
 70
     0
 40
0.0
 41
0.8
 50
15.0
 71
     0
 42
7.0
  3
ROMANS.shx
  4

  0
ENDTAB
  0
TABLE
  2
VIEW
 70
     0
  0
ENDTAB
  0
TABLE
  2
UCS
 70
     0
  0
ENDTAB
  0
TABLE
  2
APPID
 70
     1
  0
APPID
  2
ACAD
 70
     0
  0
ENDTAB
  0
TABLE
  2
DIMSTYLE
 70
     1
  0
DIMSTYLE
  2
TEAM
 70
     0
  3

  4

  5

  6

  7

 40
0.0
 41
20.0
 42
10.0
 43
1.0
 44
1.0
 45
0.0
 46
0.0
 47
0.0
 48
0.0
140
35.0
141
1.0
142
0.0
143
25.4
144
1.0
145
0.0
146
1.0
147
7.0
 71
     0
 72
     0
 73
     0
 74
     0
 75
     0
 76
     0
 77
     0
 78
     0
170
     0
171
     2
172
     0
173
     0
174
     0
175
     0
176
     9
177
     9
178
    11
  0
ENDTAB
  0
ENDSEC
  0
SECTION
  2
BLOCKS
  0
BLOCK
  8
0
  2
$MODEL_SPACE
 70
     0
 10
0.0
 20
0.0
 30
0.0
  3
$MODEL_SPACE
  1

  0
ENDBLK
  5
A3
  8
0
  0
BLOCK
 67
     1
  8
0
  2
$PAPER_SPACE
 70
     0
 10
0.0
 20
0.0
 30
0.0
  3
$PAPER_SPACE
  1

  0
ENDBLK
  5
A1
 67
     1
  8
0
  0
BLOCK
  8
0
  2
*D0
 70
     1
 10
0.0
 20
0.0
 30
0.0
  3
*D0
  1

  0
LINE
  5
26
  8
0
  6
BYBLOCK
 62
     9
 10
11100.0
 20
12558.998535
 30
0.0
 11
11100.0
 21
12590.199865
 31
0.0
  0
LINE
  5
27
  8
0
  6
BYBLOCK
 62
     9
 10
12900.0
 20
12559.001465
 30
0.0
 11
12900.0
 21
12590.199865
 31
0.0
  0
LINE
  5
28
  8
0
  6
BYBLOCK
 62
     9
 10
11120.0
 20
12589.199865
 30
0.0
 11
11940.5
 21
12589.199865
 31
0.0
  0
LINE
  5
29
  8
0
  6
BYBLOCK
 62
     9
 10
12880.0
 20
12589.199865
 30
0.0
 11
12059.5
 21
12589.199865
 31
0.0
  0
SOLID
  5
2A
  8
0
  6
BYBLOCK
 62
     9
 10
11120.0
 20
12592.533198
 30
0.0
 11
11120.0
 21
12585.866531
 31
0.0
 12
11100.0
 22
12589.199865
 32
0.0
 13
11100.0
 23
12589.199865
 33
0.0
  0
SOLID
  5
2B
  8
0
  6
BYBLOCK
 62
     9
 10
12880.0
 20
12592.533198
 30
0.0
 11
12880.0
 21
12585.866531
 31
0.0
 12
12900.0
 22
12589.199865
 32
0.0
 13
12900.0
 23
12589.199865
 33
0.0
  0
TEXT
  5
2C
  8
0
  6
BYBLOCK
 62
    11
 10
11947.5
 20
12571.699865
 30
0.0
 40
35.0
  1
1800
  0
POINT
  5
2D
  8
DEFPOINTS
  6
BYBLOCK
 62
     0
 10
11100.0
 20
12548.998535
 30
0.0
  0
POINT
  5
2F
  8
DEFPOINTS
  6
BYBLOCK
 62
     0
 10
12900.0
 20
12549.001465
 30
0.0
  0
POINT
  5
30
  8
DEFPOINTS
  6
BYBLOCK
 62
     0
 10
12900.0
 20
12589.199865
 30
0.0
  0
ENDBLK
  5
32
  8
0
  0
BLOCK
  8
0
  2
*D1
 70
     1
 10
0.0
 20
0.0
 30
0.0
  3
*D1
  1

  0
LINE
  5
58
  8
0
  6
BYBLOCK
 62
     9
 10
12904.0
 20
12555.001465
 30
0.0
 11
12932.499666
 21
12555.001465
 31
0.0
  0
LINE
  5
59
  8
0
  6
BYBLOCK
 62
     9
 10
12626.001094
 20
12125.000976
 30
0.0
 11
12932.499666
 21
12125.000976
 31
0.0
  0
LINE
  5
5A
  8
0
  6
BYBLOCK
 62
     9
 10
12931.499666
 20
12535.001465
 30
0.0
 11
12931.499666
 21
12390.751221
 31
0.0
  0
LINE
  5
5B
  8
0
  6
BYBLOCK
 62
     9
 10
12931.499666
 20
12145.000976
 30
0.0
 11
12931.499666
 21
12289.251221
 31
0.0
  0
SOLID
  5
5C
  8
0
  6
BYBLOCK
 62
     9
 10
12928.166333
 20
12535.001465
 30
0.0
 11
12934.832999
 21
12535.001465
 31
0.0
 12
12931.499666
 22
12555.001465
 32
0.0
 13
12931.499666
 23
12555.001465
 33
0.0
  0
SOLID
  5
5D
  8
0
  6
BYBLOCK
 62
     9
 10
12928.166333
 20
12145.000976
 30
0.0
 11
12934.832999
 21
12145.000976
 31
0.0
 12
12931.499666
 22
12125.000976
 32
0.0
 13
12931.499666
 23
12125.000976
 33
0.0
  0
TEXT
  5
5E
  8
0
  6
BYBLOCK
 62
    11
 10
12948.999666
 20
12296.251221
 30
0.0
 40
35.0
  1
430
 50
90.0
  0
POINT
  5
5F
  8
DEFPOINTS
  6
BYBLOCK
 62
     0
 10
12894.0
 20
12555.001465
 30
0.0
  0
POINT
  5
60
  8
DEFPOINTS
  6
BYBLOCK
 62
     0
 10
12616.001094
 20
12125.000976
 30
0.0
  0
POINT
  5
61
  8
DEFPOINTS
  6
BYBLOCK
 62
     0
 10
12931.499666
 20
12125.000976
 30
0.0
  0
ENDBLK
  5
63
  8
0
  0
BLOCK
  8
0
  2
*D2
 70
     1
 10
0.0
 20
0.0
 30
0.0
  3
*D2
  1

  0
LINE
  5
66
  8
0
  6
BYBLOCK
 62
     9
 10
12563.999883
 20
12115.000976
 30
0.0
 11
12563.999883
 21
12086.138275
 31
0.0
  0
LINE
  5
67
  8
0
  6
BYBLOCK
 62
     9
 10
12616.001094
 20
12115.000976
 30
0.0
 11
12616.001094
 21
12086.138275
 31
0.0
  0
LINE
  5
68
  8
0
  6
BYBLOCK
 62
     9
 10
12543.999883
 20
12087.138275
 30
0.0
 11
12523.999883
 21
12087.138275
 31
0.0
  0
LINE
  5
69
  8
0
  6
BYBLOCK
 62
     9
 10
12636.001094
 20
12087.138275
 30
0.0
 11
12656.001094
 21
12087.138275
 31
0.0
  0
TEXT
  5
6A
  8
0
  6
BYBLOCK
 62
    11
 10
12457.750319
 20
12069.638275
 30
0.0
 40
35.0
  1
52
  0
LINE
  5
6B
  8
0
  6
BYBLOCK
 62
     9
 10
12563.999883
 20
12087.138275
 30
0.0
 11
12616.001094
 21
12087.138275
 31
0.0
  0
SOLID
  5
6C
  8
0
  6
BYBLOCK
 62
     9
 10
12543.999883
 20
12090.471608
 30
0.0
 11
12543.999883
 21
12083.804942
 31
0.0
 12
12563.999883
 22
12087.138275
 32
0.0
 13
12563.999883
 23
12087.138275
 33
0.0
  0
SOLID
  5
6D
  8
0
  6
BYBLOCK
 62
     9
 10
12636.001094
 20
12090.471608
 30
0.0
 11
12636.001094
 21
12083.804942
 31
0.0
 12
12616.001094
 22
12087.138275
 32
0.0
 13
12616.001094
 23
12087.138275
 33
0.0
  0
POINT
  5
6E
  8
DEFPOINTS
  6
BYBLOCK
 62
     0
 10
12563.999883
 20
12125.000976
 30
0.0
  0
POINT
  5
6F
  8
DEFPOINTS
  6
BYBLOCK
 62
     0
 10
12616.001094
 20
12125.000976
 30
0.0
  0
POINT
  5
70
  8
DEFPOINTS
  6
BYBLOCK
 62
     0
 10
12616.001094
 20
12087.138275
 30
0.0
  0
ENDBLK
  5
72
  8
0
  0
ENDSEC
  0
SECTION
  2
ENTITIES
  0
LINE
  5
20
  8
TEAM-BODY
 10
-894.0
 20
559.998535
 30
0.0
 11
894.0
 21
560.001465
 31
0.0
  0
LINE
  5
22
  8
TEAM-BODY
 10
894.0
 20
528.001465
 30
0.0
 11
-894.0
 21
527.998535
 31
0.0
  0
LINE
  5
23
  8
TEAM-BODY
 10
-429.64209
 20
166.937011
 30
0.0
 11
547.501347
 21
141.367187
 31
0.0
  0
DIMENSION
  5
24
  8
TEAM-MAS
  2
*D0
 10
900.0
 20
594.199865
 30
0.0
 11
0.0
 21
589.199865
 31
0.0
 12
-12000.0
 22
-11995.0
 32
0.0
 13
-900.0
 23
553.998535
 33
0.0
 14
900.0
 24
554.001465
 34
0.0
1001
ACAD
1000
DSTYLE
1002
{
1070
    40
1040
1.0
1002
}
  0
LINE
  5
33
  8
TEAM-AXE
 10
0.0
 20
560.0
 30
0.0
 11
0.000488
 21
155.687011
 31
0.0
  0
LINE
  5
36
  8
TEAM-BODY
 10
-900.0
 20
553.998535
 30
0.0
 11
-900.0
 21
533.998535
 31
0.0
  0
ARC
  5
37
  8
TEAM-BODY
 10
-894.0
 20
553.998535
 30
0.0
 40
6.0
 50
90.0
 51
180.0
  0
ARC
  5
38
  8
TEAM-BODY
 10
-894.0
 20
533.998535
 30
0.0
 40
6.0
 50
180.0
 51
270.0
  0
ARC
  5
39
  8
TEAM-BODY
 10
-423.019776
 20
419.850097
 30
0.0
 40
252.999969
 50
228.002808
 51
268.500092
  0
ARC
  5
3A
  8
TEAM-BODY
 10
50.848479
 20
966.385502
 30
0.0
 40
976.328683
 50
217.713001
 51
228.795975
  0
ARC
  5
3B
  8
TEAM-BODY
 10
-320.157471
 20
672.350097
 30
0.0
 40
503.000092
 50
205.73143
 51
217.068283
  0
ARC
  5
3C
  8
TEAM-BODY
 10
40.178222
 20
846.01123
 30
0.0
 40
903.000061
 50
202.394989
 51
205.731415
  0
ARC
  5
3D
  8
TEAM-BODY
 10
-875.155274
 20
468.831054
 30
0.0
 40
86.999969
 50
22.395273
 51
42.850609
  0
TEXT
  5
3E
  8
TEAM-TXT
 10
-685.301423
 20
467.579604
 30
0.0
 40
30.0
  1
team 111384
 41
0.7
 51
15.0
  7
TEAM
  0
CIRCLE
  5
41
  8
TEAM-INSP
 10
0.0
 20
0.0
 30
0.0
 40
10.0
  0
LINE
  5
43
  8
TEAM-AXE
 10
590.0
 20
560.000488
 30
0.0
 11
590.000488
 21
130.000976
 31
0.0
  0
LINE
  5
44
  8
TEAM-BODY
 10
900.0
 20
554.001465
 30
0.0
 11
900.0
 21
534.001465
 31
0.0
  0
LINE
  5
45
  8
TEAM-BODY
 10
563.999883
 20
130.000976
 30
0.0
 11
616.001094
 21
130.000976
 31
0.0
  0
LINE
  5
46
  8
TEAM-BODY
 10
547.501347
 20
141.367187
 30
0.0
 11
632.179804
 21
142.964355
 31
0.0
  0
ARC
  5
47
  8
TEAM-BODY
 10
894.0
 20
534.001465
 30
0.0
 40
6.0
 50
270.0
 51
0.0
  0
ARC
  5
48
  8
TEAM-BODY
 10
547.265508
 20
132.370117
 30
0.0
 40
9.0
 50
21.615541
 51
88.498413
  0
ARC
  5
49
  8
TEAM-BODY
 10
563.999883
 20
139.000976
 30
0.0
 40
9.0
 50
201.61554
 51
270.0
  0
ARC
  5
4A
  8
TEAM-BODY
 10
616.001094
 20
139.000976
 30
0.0
 40
9.0
 50
270.0
 51
343.982452
  0
ARC
  5
4B
  8
TEAM-BODY
 10
633.302363
 20
134.034668
 30
0.0
 40
9.0
 50
97.165115
 51
163.985428
  0
ARC
  5
4C
  8
TEAM-BODY
 10
-356.548271
 20
609.994251
 30
0.0
 40
1173.185162
 50
342.035739
 51
355.297481
  0
ARC
  5
4D
  8
TEAM-BODY
 10
613.123374
 20
295.598114
 30
0.0
 40
153.818852
 50
277.116599
 51
342.035555
  0
ARC
  5
4E
  8
TEAM-BODY
 10
894.0
 20
554.001465
 30
0.0
 40
6.0
 50
0.0
 51
90.0
  0
POLYLINE
  5
4F
  8
TEAM-BODY
 66
     1
 10
0.0
 20
0.0
 30
0.0
  0
VERTEX
  5
A9
  8
TEAM-BODY
 10
815.969726
 20
528.000976
 30
0.0
  0
VERTEX
  5
AA
  8
TEAM-BODY
 10
814.665039
 20
524.178711
 30
0.0
  0
VERTEX
  5
AB
  8
TEAM-BODY
 10
813.515137
 20
519.499023
 30
0.0
  0
VERTEX
  5
AC
  8
TEAM-BODY
 10
812.771484
 20
514.832031
 30
0.0
  0
VERTEX
  5
AD
  8
TEAM-BODY
 10
812.687988
 20
513.813965
 30
0.0
  0
SEQEND
  5
AE
  8
TEAM-BODY
  0
DIMENSION
  5
56
  8
TEAM-MAS
  2
*D1
 10
931.499666
 20
130.000976
 30
0.0
 11
931.499666
 21
340.001221
 31
0.0
 12
-12000.0
 22
-11995.0
 32
0.0
 13
894.0
 23
560.001465
 33
0.0
 14
616.001094
 24
130.000976
 34
0.0
 50
90.0
1001
ACAD
1000
DSTYLE
1002
{
1070
    40
1040
1.0
1002
}
  0
DIMENSION
  5
64
  8
TEAM-MAS
  2
*D2
 10
616.001094
 20
92.138275
 30
0.0
 11
486.916986
 21
92.138275
 31
0.0
 12
-12000.0
 22
-11995.0
 32
0.0
 70
   128
 13
563.999883
 23
130.000976
 33
0.0
 14
616.001094
 24
130.000976
 34
0.0
1001
ACAD
1000
DSTYLE
1002
{
1070
    40
1040
1.0
1002
}
  0
ENDSEC
  0
EOF
