  0
SECTION
  2
HEADER
  9
$ACADVER
  1
AC1009
  9
$INSBASE
 10
0.0
 20
0.0
 30
0.0
  9
$EXTMIN
 10
-351.286451
 20
-10.023633
 30
0.0
  9
$EXTMAX
 10
445.968011
 20
611.097711
 30
0.000005
  9
$LIMMIN
 10
-351.286451
 20
-10.023633
  9
$LIMMAX
 10
445.968011
 20
611.097711
  9
$ORTHOMODE
 70
     1
  9
$REGENMODE
 70
     1
  9
$FILLMODE
 70
     1
  9
$QTEXTMODE
 70
     0
  9
$MIRRTEXT
 70
     0
  9
$DRAGMODE
 70
     2
  9
$LTSCALE
 40
50.0
  9
$OSMODE
 70
     0
  9
$ATTMODE
 70
     1
  9
$TEXTSIZE
 40
200.0
  9
$TRACEWID
 40
1.0
  9
$TEXTSTYLE
  7
STANDARD
  9
$CLAYER
  8
TEAM-MAS
  9
$CELTYPE
  6
BYLAYER
  9
$CECOLOR
 62
   256
  9
$DIMSCALE
 40
0.0
  9
$DIMASZ
 40
20.0
  9
$DIMEXO
 40
10.0
  9
$DIMDLI
 40
1.0
  9
$DIMRND
 40
0.0
  9
$DIMDLE
 40
0.0
  9
$DIMEXE
 40
1.0
  9
$DIMTP
 40
0.0
  9
$DIMTM
 40
0.0
  9
$DIMTXT
 40
35.0
  9
$DIMCEN
 40
1.0
  9
$DIMTSZ
 40
0.0
  9
$DIMTOL
 70
     0
  9
$DIMLIM
 70
     0
  9
$DIMTIH
 70
     0
  9
$DIMTOH
 70
     0
  9
$DIMSE1
 70
     0
  9
$DIMSE2
 70
     0
  9
$DIMTAD
 70
     0
  9
$DIMZIN
 70
     0
  9
$DIMBLK
  1

  9
$DIMASO
 70
     1
  9
$DIMSHO
 70
     0
  9
$DIMPOST
  1

  9
$DIMAPOST
  1

  9
$DIMALT
 70
     0
  9
$DIMALTD
 70
     2
  9
$DIMALTF
 40
25.4
  9
$DIMLFAC
 40
1.0
  9
$DIMTOFL
 70
     0
  9
$DIMTVP
 40
0.0
  9
$DIMTIX
 70
     0
  9
$DIMSOXD
 70
     0
  9
$DIMSAH
 70
     0
  9
$DIMBLK1
  1

  9
$DIMBLK2
  1

  9
$DIMSTYLE
  2
TEAM
  9
$DIMCLRD
 70
     9
  9
$DIMCLRE
 70
     9
  9
$DIMCLRT
 70
    11
  9
$DIMTFAC
 40
1.0
  9
$DIMGAP
 40
7.0
  9
$LUNITS
 70
     2
  9
$LUPREC
 70
     1
  9
$SKETCHINC
 40
1.0
  9
$FILLETRAD
 40
50.0
  9
$AUNITS
 70
     0
  9
$AUPREC
 70
     0
  9
$MENU
  1
ROPLANS
  9
$ELEVATION
 40
0.0
  9
$PELEVATION
 40
0.0
  9
$THICKNESS
 40
0.0
  9
$LIMCHECK
 70
     0
  9
$BLIPMODE
 70
     1
  9
$CHAMFERA
 40
0.0
  9
$CHAMFERB
 40
0.0
  9
$SKPOLY
 70
     0
  9
$TDCREATE
 40
2450392.957851
  9
$TDUPDATE
 40
2456124.650986
  9
$TDINDWG
 40
2.269834
  9
$TDUSRTIMER
 40
2.269834
  9
$USRTIMER
 70
     1
  9
$ANGBASE
 50
0.0
  9
$ANGDIR
 70
     0
  9
$PDMODE
 70
     0
  9
$PDSIZE
 40
0.0
  9
$PLINEWID
 40
0.0
  9
$COORDS
 70
     2
  9
$SPLFRAME
 70
     0
  9
$SPLINETYPE
 70
     6
  9
$SPLINESEGS
 70
     8
  9
$ATTDIA
 70
     0
  9
$ATTREQ
 70
     0
  9
$HANDLING
 70
     1
  9
$HANDSEED
  5
B8
  9
$SURFTAB1
 70
    24
  9
$SURFTAB2
 70
    24
  9
$SURFTYPE
 70
     6
  9
$SURFU
 70
     6
  9
$SURFV
 70
     6
  9
$UCSNAME
  2

  9
$UCSORG
 10
0.0
 20
0.0
 30
0.0
  9
$UCSXDIR
 10
1.0
 20
0.0
 30
0.0
  9
$UCSYDIR
 10
0.0
 20
1.0
 30
0.0
  9
$PUCSNAME
  2

  9
$PUCSORG
 10
0.0
 20
0.0
 30
0.0
  9
$PUCSXDIR
 10
1.0
 20
0.0
 30
0.0
  9
$PUCSYDIR
 10
0.0
 20
1.0
 30
0.0
  9
$USERI1
 70
     0
  9
$USERI2
 70
     0
  9
$USERI3
 70
     0
  9
$USERI4
 70
     0
  9
$USERI5
 70
     0
  9
$USERR1
 40
0.0
  9
$USERR2
 40
0.0
  9
$USERR3
 40
0.0
  9
$USERR4
 40
0.0
  9
$USERR5
 40
0.0
  9
$WORLDVIEW
 70
     1
  9
$SHADEDGE
 70
     0
  9
$SHADEDIF
 70
    70
  9
$TILEMODE
 70
     1
  9
$MAXACTVP
 70
    16
  9
$PLIMCHECK
 70
     0
  9
$PEXTMIN
 10
-0.805942
 20
0.005011
 30
0.0
  9
$PEXTMAX
 10
20.250094
 20
11.356329
 30
0.0
  9
$PLIMMIN
 10
0.0
 20
0.0
  9
$PLIMMAX
 10
12.0
 20
9.0
  9
$UNITMODE
 70
     0
  9
$VISRETAIN
 70
     0
  9
$PLINEGEN
 70
     0
  9
$PSLTSCALE
 70
     0
  0
ENDSEC
  0
SECTION
  2
TABLES
  0
TABLE
  2
VPORT
 70
     2
  0
VPORT
  2
*ACTIVE
 70
     0
 10
0.0
 20
0.0
 11
1.0
 21
1.0
 12
47.34078
 22
300.537039
 13
0.0
 23
0.0
 14
1.0
 24
1.0
 15
50.0
 25
50.0
 16
0.0
 26
0.0
 36
1.0
 17
0.0
 27
0.0
 37
0.0
 40
625.031867
 41
1.911765
 42
50.0
 43
0.0
 44
0.0
 50
0.0
 51
0.0
 71
     0
 72
   100
 73
     1
 74
     1
 75
     0
 76
     0
 77
     0
 78
     0
  0
ENDTAB
  0
TABLE
  2
LTYPE
 70
     2
  0
LTYPE
  2
CONTINUOUS
 70
     0
  3
Solid Line
 72
    65
 73
     0
 40
0.0
  0
LTYPE
  2
31
 70
     0
  3

 72
    65
 73
     4
 40
2.1
 49
1.5
 49
-0.3
 49
0.0
 49
-0.3
  0
ENDTAB
  0
TABLE
  2
LAYER
 70
     8
  0
LAYER
  2
0
 70
     0
 62
     7
  6
CONTINUOUS
  0
LAYER
  2
DEFPOINTS
 70
     0
 62
     7
  6
CONTINUOUS
  0
LAYER
  2
TEAM-BODY
 70
     0
 62
     2
  6
CONTINUOUS
  0
LAYER
  2
TEAM-AXE
 70
     0
 62
    10
  6
31
  0
LAYER
  2
TEAM-MAS
 70
     0
 62
     9
  6
CONTINUOUS
  0
LAYER
  2
TEAM-TXT
 70
     0
 62
    11
  6
CONTINUOUS
  0
LAYER
  2
TEAM-DET1
 70
     0
 62
     4
  6
CONTINUOUS
  0
LAYER
  2
TEAM-INSP
 70
     0
 62
     5
  6
CONTINUOUS
  0
ENDTAB
  0
TABLE
  2
STYLE
 70
     2
  0
STYLE
  2
STANDARD
 70
     0
 40
0.0
 41
1.0
 50
0.0
 71
     0
 42
200.0
  3
txt
  4

  0
STYLE
  2
TEAM
 70
     0
 40
0.0
 41
0.8
 50
15.0
 71
     0
 42
7.0
  3
ROMANS.shx
  4

  0
ENDTAB
  0
TABLE
  2
VIEW
 70
     0
  0
ENDTAB
  0
TABLE
  2
UCS
 70
     0
  0
ENDTAB
  0
TABLE
  2
APPID
 70
     1
  0
APPID
  2
ACAD
 70
     0
  0
ENDTAB
  0
TABLE
  2
DIMSTYLE
 70
     1
  0
DIMSTYLE
  2
TEAM
 70
     0
  3

  4

  5

  6

  7

 40
0.0
 41
20.0
 42
10.0
 43
1.0
 44
1.0
 45
0.0
 46
0.0
 47
0.0
 48
0.0
140
35.0
141
1.0
142
0.0
143
25.4
144
1.0
145
0.0
146
1.0
147
7.0
 71
     0
 72
     0
 73
     0
 74
     0
 75
     0
 76
     0
 77
     0
 78
     0
170
     0
171
     2
172
     0
173
     0
174
     0
175
     0
176
     9
177
     9
178
    11
  0
ENDTAB
  0
ENDSEC
  0
SECTION
  2
BLOCKS
  0
BLOCK
  8
0
  2
$MODEL_SPACE
 70
     0
 10
0.0
 20
0.0
 30
0.0
  3
$MODEL_SPACE
  1

  0
ENDBLK
  5
A7
  8
0
  0
BLOCK
 67
     1
  8
0
  2
$PAPER_SPACE
 70
     0
 10
0.0
 20
0.0
 30
0.0
  3
$PAPER_SPACE
  1

  0
ENDBLK
  5
A5
 67
     1
  8
0
  0
BLOCK
  8
0
  2
*D0
 70
     1
 10
0.0
 20
0.0
 30
0.0
  3
*D0
  1

  0
LINE
  5
6A
  8
0
  6
BYBLOCK
 62
     9
 10
7650.0
 20
28559.0
 30
0.0
 11
7650.0
 21
28589.558356
 31
0.0
  0
LINE
  5
6B
  8
0
  6
BYBLOCK
 62
     9
 10
8350.0
 20
28559.0
 30
0.0
 11
8350.0
 21
28589.558356
 31
0.0
  0
LINE
  5
6C
  8
0
  6
BYBLOCK
 62
     9
 10
7670.0
 20
28588.558356
 30
0.0
 11
7952.166667
 21
28588.558356
 31
0.0
  0
LINE
  5
6D
  8
0
  6
BYBLOCK
 62
     9
 10
8330.0
 20
28588.558356
 30
0.0
 11
8047.833333
 21
28588.558356
 31
0.0
  0
SOLID
  5
6E
  8
0
  6
BYBLOCK
 62
     9
 10
7670.0
 20
28591.891689
 30
0.0
 11
7670.0
 21
28585.225022
 31
0.0
 12
7650.0
 22
28588.558356
 32
0.0
 13
7650.0
 23
28588.558356
 33
0.0
  0
SOLID
  5
6F
  8
0
  6
BYBLOCK
 62
     9
 10
8330.0
 20
28591.891689
 30
0.0
 11
8330.0
 21
28585.225022
 31
0.0
 12
8350.0
 22
28588.558356
 32
0.0
 13
8350.0
 23
28588.558356
 33
0.0
  0
TEXT
  5
70
  8
0
  6
BYBLOCK
 62
    11
 10
7959.166667
 20
28571.058356
 30
0.0
 40
35.0
  1
700
  0
POINT
  5
71
  8
DEFPOINTS
  6
BYBLOCK
 62
     0
 10
7650.0
 20
28549.0
 30
0.0
  0
POINT
  5
72
  8
DEFPOINTS
  6
BYBLOCK
 62
     0
 10
8350.0
 20
28549.0
 30
0.0
  0
POINT
  5
73
  8
DEFPOINTS
  6
BYBLOCK
 62
     0
 10
8350.0
 20
28588.558356
 30
0.0
  0
ENDBLK
  5
75
  8
0
  0
BLOCK
  8
0
  2
*D1
 70
     1
 10
0.0
 20
0.0
 30
0.0
  3
*D1
  1

  0
LINE
  5
37
  8
0
  6
BYBLOCK
 62
     9
 10
8354.0
 20
28555.0
 30
0.0
 11
8381.150562
 21
28555.0
 31
0.0
  0
LINE
  5
38
  8
0
  6
BYBLOCK
 62
     9
 10
8036.346679
 20
28145.0
 30
0.0
 11
8381.150562
 21
28145.0
 31
0.0
  0
LINE
  5
39
  8
0
  6
BYBLOCK
 62
     9
 10
8380.150562
 20
28535.0
 30
0.0
 11
8380.150562
 21
28394.916667
 31
0.0
  0
LINE
  5
3A
  8
0
  6
BYBLOCK
 62
     9
 10
8380.150562
 20
28165.0
 30
0.0
 11
8380.150562
 21
28305.083333
 31
0.0
  0
SOLID
  5
3B
  8
0
  6
BYBLOCK
 62
     9
 10
8376.817228
 20
28535.0
 30
0.0
 11
8383.483895
 21
28535.0
 31
0.0
 12
8380.150562
 22
28555.0
 32
0.0
 13
8380.150562
 23
28555.0
 33
0.0
  0
SOLID
  5
3C
  8
0
  6
BYBLOCK
 62
     9
 10
8376.817228
 20
28165.0
 30
0.0
 11
8383.483895
 21
28165.0
 31
0.0
 12
8380.150562
 22
28145.0
 32
0.0
 13
8380.150562
 23
28145.0
 33
0.0
  0
TEXT
  5
3D
  8
0
  6
BYBLOCK
 62
    11
 10
8397.650562
 20
28312.083333
 30
0.0
 40
35.0
  1
410
 50
90.0
  0
POINT
  5
3E
  8
DEFPOINTS
  6
BYBLOCK
 62
     0
 10
8344.0
 20
28555.0
 30
0.0
  0
POINT
  5
3F
  8
DEFPOINTS
  6
BYBLOCK
 62
     0
 10
8026.346679
 20
28145.0
 30
0.0
  0
POINT
  5
40
  8
DEFPOINTS
  6
BYBLOCK
 62
     0
 10
8380.150562
 20
28145.0
 30
0.0
  0
ENDBLK
  5
42
  8
0
  0
BLOCK
  8
0
  2
*D2
 70
     1
 10
0.0
 20
0.0
 30
0.0
  3
*D2
  1

  0
LINE
  5
22
  8
0
  6
BYBLOCK
 62
     9
 10
8354.0
 20
28560.0
 30
0.0
 11
8429.4266
 21
28560.0
 31
0.0
  0
LINE
  5
23
  8
0
  6
BYBLOCK
 62
     9
 10
8010.0
 20
28000.0
 30
0.0
 11
8429.4266
 21
28000.0
 31
0.0
  0
LINE
  5
24
  8
0
  6
BYBLOCK
 62
     9
 10
8428.4266
 20
28540.0
 30
0.0
 11
8428.4266
 21
28400.75
 31
0.0
  0
LINE
  5
25
  8
0
  6
BYBLOCK
 62
     9
 10
8428.4266
 20
28020.0
 30
0.0
 11
8428.4266
 21
28159.25
 31
0.0
  0
SOLID
  5
26
  8
0
  6
BYBLOCK
 62
     9
 10
8425.093267
 20
28540.0
 30
0.0
 11
8431.759933
 21
28540.0
 31
0.0
 12
8428.4266
 22
28560.0
 32
0.0
 13
8428.4266
 23
28560.0
 33
0.0
  0
SOLID
  5
27
  8
0
  6
BYBLOCK
 62
     9
 10
8425.093267
 20
28020.0
 30
0.0
 11
8431.759933
 21
28020.0
 31
0.0
 12
8428.4266
 22
28000.0
 32
0.0
 13
8428.4266
 23
28000.0
 33
0.0
  0
TEXT
  5
28
  8
0
  6
BYBLOCK
 62
    11
 10
8445.9266
 20
28166.25
 30
0.0
 40
35.0
  1
545-560
 50
90.0
  0
POINT
  5
29
  8
DEFPOINTS
  6
BYBLOCK
 62
     0
 10
8344.0
 20
28560.0
 30
0.0
  0
POINT
  5
2B
  8
DEFPOINTS
  6
BYBLOCK
 62
     0
 10
8000.0
 20
28000.0
 30
0.0
  0
POINT
  5
2C
  8
DEFPOINTS
  6
BYBLOCK
 62
     0
 10
8428.4266
 20
28000.0
 30
0.0
  0
ENDBLK
  5
2E
  8
0
  0
ENDSEC
  0
SECTION
  2
ENTITIES
  0
DIMENSION
  5
20
  8
TEAM-MAS
  2
*D2
 10
428.4266
 20
0.0
 30
0.0
 11
428.4266
 21
280.0
 31
0.0
 12
-8000.0
 22
-28000.0
 32
0.0
  1
545-<>
 13
344.0
 23
560.0
 33
0.0
 14
0.0
 24
0.0
 34
0.0
 50
90.0
1001
ACAD
1000
DSTYLE
1002
{
1070
    40
1040
1.0
1002
}
  0
LINE
  5
2F
  8
TEAM-AXE
 10
0.0
 20
560.0
 30
0.0
 11
0.0
 21
150.0
 31
0.0
  0
ARC
  5
32
  8
TEAM-BODY
 10
876.199585
 20
612.210233
 30
0.0
 40
1148.658298
 50
184.818749
 51
199.408527
  0
ARC
  5
34
  8
TEAM-BODY
 10
-876.199833
 20
612.210227
 30
0.0
 40
1148.658301
 50
340.591457
 51
355.181235
  0
DIMENSION
  5
35
  8
TEAM-MAS
  2
*D1
 10
380.150562
 20
150.0
 30
0.0
 11
380.150562
 21
350.0
 31
0.0
 12
-8000.0
 22
-27995.0
 32
0.0
 13
344.0
 23
560.0
 33
0.0
 14
26.346679
 24
150.0
 34
0.0
 50
90.0
1001
ACAD
1000
DSTYLE
1002
{
1070
    40
1040
1.0
1002
}
  0
LINE
  5
43
  8
TEAM-BODY
 10
26.346679
 20
150.0
 30
0.0
 11
-26.34668
 21
149.999878
 31
0.0
  0
LINE
  5
44
  8
TEAM-BODY
 10
-43.802735
 20
164.481933
 30
0.0
 11
43.802734
 21
164.481933
 31
0.0
  0
ARC
  5
45
  8
TEAM-BODY
 10
-119.229492
 20
260.724975
 30
0.0
 40
93.000237
 50
198.959579
 51
266.323853
  0
ARC
  5
46
  8
TEAM-BODY
 10
119.229492
 20
260.724975
 30
0.0
 40
93.000237
 50
273.676147
 51
341.040405
  0
ARC
  5
47
  8
TEAM-BODY
 10
-26.34668
 20
159.0
 30
0.0
 40
9.000134
 50
191.264511
 51
270.0
  0
ARC
  5
48
  8
TEAM-BODY
 10
26.346679
 20
159.0
 30
0.0
 40
8.999999
 50
270.0
 51
348.736237
  0
ARC
  5
49
  8
TEAM-BODY
 10
-44.0
 20
155.484131
 30
0.0
 40
8.999999
 50
11.263754
 51
88.744057
  0
ARC
  5
4A
  8
TEAM-BODY
 10
44.0
 20
155.484131
 30
0.0
 40
8.999999
 50
91.255936
 51
168.736237
  0
ARC
  5
4B
  8
TEAM-BODY
 10
0.0
 20
2167.0
 30
0.0
 40
2002.999756
 50
266.416534
 51
268.746918
  0
ARC
  5
4C
  8
TEAM-BODY
 10
0.0
 20
2167.0
 30
0.0
 40
2002.999756
 50
271.253052
 51
273.583466
  0
CIRCLE
  5
4D
  8
TEAM-INSP
 10
0.0
 20
0.0
 30
0.0
 40
10.0
  0
CIRCLE
  5
4F
  8
TEAM-DET1
 10
0.0
 20
493.0
 30
0.0
 40
25.999998
  0
LINE
  5
51
  8
TEAM-BODY
 10
344.0
 20
560.0
 30
0.0
 11
-344.0
 21
560.0
 31
0.0
  0
LINE
  5
52
  8
TEAM-BODY
 10
-350.0
 20
534.0
 30
0.0
 11
-350.0
 21
554.0
 31
0.0
  0
LINE
  5
53
  8
TEAM-BODY
 10
344.0
 20
528.0
 30
0.0
 11
-344.0
 21
528.0
 31
0.0
  0
LINE
  5
54
  8
TEAM-BODY
 10
350.0
 20
534.0
 30
0.0
 11
350.0
 21
554.0
 31
0.0
  0
ARC
  5
55
  8
TEAM-BODY
 10
-344.0
 20
534.0
 30
0.0
 40
6.0
 50
180.0
 51
270.0
  0
ARC
  5
56
  8
TEAM-BODY
 10
-344.0
 20
554.0
 30
0.0
 40
6.0
 50
90.0
 51
180.0
  0
ARC
  5
57
  8
TEAM-BODY
 10
344.0
 20
534.0
 30
0.0
 40
6.0
 50
270.0
 51
0.0
  0
ARC
  5
58
  8
TEAM-BODY
 10
344.0
 20
554.0
 30
0.0
 40
6.0
 50
0.0
 51
90.0
  0
POLYLINE
  5
59
  8
TEAM-BODY
 66
     1
 10
0.0
 20
0.0
 30
0.0
  0
VERTEX
  5
AD
  8
TEAM-BODY
 10
-271.438477
 20
528.0
 30
0.0
  0
VERTEX
  5
AE
  8
TEAM-BODY
 10
-270.005371
 20
523.713623
 30
0.0
  0
VERTEX
  5
AF
  8
TEAM-BODY
 10
-268.853516
 20
518.831299
 30
0.0
  0
VERTEX
  5
B0
  8
TEAM-BODY
 10
-268.398438
 20
515.71875
 30
0.0
  0
SEQEND
  5
B1
  8
TEAM-BODY
  0
POLYLINE
  5
5F
  8
TEAM-BODY
 66
     1
 10
0.0
 20
0.0
 30
0.0
  0
VERTEX
  5
B2
  8
TEAM-BODY
 10
268.398437
 20
515.718506
 30
0.0
  0
VERTEX
  5
B3
  8
TEAM-BODY
 10
268.853515
 20
518.831299
 30
0.0
  0
VERTEX
  5
B4
  8
TEAM-BODY
 10
270.005371
 20
523.713623
 30
0.0
  0
VERTEX
  5
B5
  8
TEAM-BODY
 10
271.438476
 20
528.0
 30
0.0
  0
SEQEND
  5
B6
  8
TEAM-BODY
  0
TEXT
  5
65
  8
TEAM-TXT
 10
-248.647445
 20
429.794134
 30
0.0
 40
30.0
  1
team 111391
 41
0.7
 51
15.0
  7
TEAM
  0
DIMENSION
  5
68
  8
TEAM-MAS
  2
*D0
 10
350.0
 20
593.558356
 30
0.0
 11
0.0
 21
588.558356
 31
0.0
 12
-8000.0
 22
-27995.0
 32
0.0
 13
-350.0
 23
554.0
 33
0.0
 14
350.0
 24
554.0
 34
0.0
1001
ACAD
1000
DSTYLE
1002
{
1070
    40
1040
1.0
1002
}
  0
ENDSEC
  0
EOF
