  0
SECTION
  2
HEADER
  9
$ACADVER
  1
AC1009
  9
$INSBASE
 10
0.0
 20
0.0
 30
0.0
  9
$EXTMIN
 10
-919.648275
 20
-495.025248
 30
-0.001526
  9
$EXTMAX
 10
990.163323
 20
424.86004
 30
0.0
  9
$LIMMIN
 10
-919.648275
 20
-495.025248
  9
$LIMMAX
 10
990.163323
 20
424.86004
  9
$ORTHOMODE
 70
     1
  9
$REGENMODE
 70
     1
  9
$FILLMODE
 70
     1
  9
$QTEXTMODE
 70
     0
  9
$MIRRTEXT
 70
     0
  9
$DRAGMODE
 70
     2
  9
$LTSCALE
 40
50.0
  9
$OSMODE
 70
     7
  9
$ATTMODE
 70
     1
  9
$TEXTSIZE
 40
200.0
  9
$TRACEWID
 40
1.0
  9
$TEXTSTYLE
  7
STANDARD
  9
$CLAYER
  8
TEAM-MAS
  9
$CELTYPE
  6
BYLAYER
  9
$CECOLOR
 62
   256
  9
$DIMSCALE
 40
0.0
  9
$DIMASZ
 40
20.0
  9
$DIMEXO
 40
10.0
  9
$DIMDLI
 40
1.0
  9
$DIMRND
 40
0.0
  9
$DIMDLE
 40
0.0
  9
$DIMEXE
 40
1.0
  9
$DIMTP
 40
0.0
  9
$DIMTM
 40
0.0
  9
$DIMTXT
 40
35.0
  9
$DIMCEN
 40
1.0
  9
$DIMTSZ
 40
0.0
  9
$DIMTOL
 70
     0
  9
$DIMLIM
 70
     0
  9
$DIMTIH
 70
     0
  9
$DIMTOH
 70
     0
  9
$DIMSE1
 70
     0
  9
$DIMSE2
 70
     0
  9
$DIMTAD
 70
     0
  9
$DIMZIN
 70
     0
  9
$DIMBLK
  1

  9
$DIMASO
 70
     1
  9
$DIMSHO
 70
     0
  9
$DIMPOST
  1

  9
$DIMAPOST
  1

  9
$DIMALT
 70
     0
  9
$DIMALTD
 70
     2
  9
$DIMALTF
 40
25.4
  9
$DIMLFAC
 40
1.0
  9
$DIMTOFL
 70
     0
  9
$DIMTVP
 40
0.0
  9
$DIMTIX
 70
     0
  9
$DIMSOXD
 70
     0
  9
$DIMSAH
 70
     0
  9
$DIMBLK1
  1

  9
$DIMBLK2
  1

  9
$DIMSTYLE
  2
TEAM
  9
$DIMCLRD
 70
     9
  9
$DIMCLRE
 70
     9
  9
$DIMCLRT
 70
    11
  9
$DIMTFAC
 40
1.0
  9
$DIMGAP
 40
7.0
  9
$LUNITS
 70
     2
  9
$LUPREC
 70
     1
  9
$SKETCHINC
 40
1.0
  9
$FILLETRAD
 40
5.0
  9
$AUNITS
 70
     0
  9
$AUPREC
 70
     0
  9
$MENU
  1
ROPLANS
  9
$ELEVATION
 40
0.0
  9
$PELEVATION
 40
0.0
  9
$THICKNESS
 40
0.0
  9
$LIMCHECK
 70
     0
  9
$BLIPMODE
 70
     1
  9
$CHAMFERA
 40
0.0
  9
$CHAMFERB
 40
0.0
  9
$SKPOLY
 70
     0
  9
$TDCREATE
 40
2450392.957851
  9
$TDUPDATE
 40
2455944.698999
  9
$TDINDWG
 40
3.037655
  9
$TDUSRTIMER
 40
3.037655
  9
$USRTIMER
 70
     1
  9
$ANGBASE
 50
0.0
  9
$ANGDIR
 70
     0
  9
$PDMODE
 70
     0
  9
$PDSIZE
 40
0.0
  9
$PLINEWID
 40
0.0
  9
$COORDS
 70
     2
  9
$SPLFRAME
 70
     0
  9
$SPLINETYPE
 70
     6
  9
$SPLINESEGS
 70
     8
  9
$ATTDIA
 70
     0
  9
$ATTREQ
 70
     0
  9
$HANDLING
 70
     1
  9
$HANDSEED
  5
114
  9
$SURFTAB1
 70
    24
  9
$SURFTAB2
 70
    24
  9
$SURFTYPE
 70
     6
  9
$SURFU
 70
     6
  9
$SURFV
 70
     6
  9
$UCSNAME
  2

  9
$UCSORG
 10
0.0
 20
0.0
 30
0.0
  9
$UCSXDIR
 10
1.0
 20
0.0
 30
0.0
  9
$UCSYDIR
 10
0.0
 20
1.0
 30
0.0
  9
$PUCSNAME
  2

  9
$PUCSORG
 10
0.0
 20
0.0
 30
0.0
  9
$PUCSXDIR
 10
1.0
 20
0.0
 30
0.0
  9
$PUCSYDIR
 10
0.0
 20
1.0
 30
0.0
  9
$USERI1
 70
     0
  9
$USERI2
 70
     0
  9
$USERI3
 70
     0
  9
$USERI4
 70
     0
  9
$USERI5
 70
     0
  9
$USERR1
 40
0.0
  9
$USERR2
 40
0.0
  9
$USERR3
 40
0.0
  9
$USERR4
 40
0.0
  9
$USERR5
 40
0.0
  9
$WORLDVIEW
 70
     1
  9
$SHADEDGE
 70
     0
  9
$SHADEDIF
 70
    70
  9
$TILEMODE
 70
     1
  9
$MAXACTVP
 70
    16
  9
$PLIMCHECK
 70
     0
  9
$PEXTMIN
 10
-0.805942
 20
0.005011
 30
0.0
  9
$PEXTMAX
 10
20.250094
 20
11.356329
 30
0.0
  9
$PLIMMIN
 10
0.0
 20
0.0
  9
$PLIMMAX
 10
12.0
 20
9.0
  9
$UNITMODE
 70
     0
  9
$VISRETAIN
 70
     0
  9
$PLINEGEN
 70
     0
  9
$PSLTSCALE
 70
     0
  0
ENDSEC
  0
SECTION
  2
TABLES
  0
TABLE
  2
VPORT
 70
     2
  0
VPORT
  2
*ACTIVE
 70
     0
 10
0.0
 20
0.0
 11
1.0
 21
1.0
 12
35.257524
 22
-35.082604
 13
0.0
 23
0.0
 14
1.0
 24
1.0
 15
20.0
 25
20.0
 16
0.0
 26
0.0
 36
1.0
 17
0.0
 27
0.0
 37
0.0
 40
1006.47948
 41
1.903766
 42
50.0
 43
0.0
 44
0.0
 50
0.0
 51
0.0
 71
     0
 72
   100
 73
     1
 74
     1
 75
     0
 76
     0
 77
     0
 78
     0
  0
ENDTAB
  0
TABLE
  2
LTYPE
 70
     2
  0
LTYPE
  2
CONTINUOUS
 70
     0
  3
Solid Line
 72
    65
 73
     0
 40
0.0
  0
LTYPE
  2
31
 70
     0
  3

 72
    65
 73
     4
 40
2.1
 49
1.5
 49
-0.3
 49
0.0
 49
-0.3
  0
ENDTAB
  0
TABLE
  2
LAYER
 70
     9
  0
LAYER
  2
0
 70
     0
 62
     7
  6
CONTINUOUS
  0
LAYER
  2
DEFPOINTS
 70
     0
 62
     7
  6
CONTINUOUS
  0
LAYER
  2
TEAM-BODY
 70
     0
 62
     2
  6
CONTINUOUS
  0
LAYER
  2
TEAM-AXE
 70
     0
 62
    10
  6
31
  0
LAYER
  2
TEAM-MAS
 70
     0
 62
     9
  6
CONTINUOUS
  0
LAYER
  2
TEAM-TXT
 70
     0
 62
    11
  6
CONTINUOUS
  0
LAYER
  2
TEAM-DET1
 70
     0
 62
     4
  6
CONTINUOUS
  0
LAYER
  2
TEAM-DET3
 70
     0
 62
    14
  6
CONTINUOUS
  0
LAYER
  2
TEAM-INSP
 70
     0
 62
     5
  6
CONTINUOUS
  0
ENDTAB
  0
TABLE
  2
STYLE
 70
     2
  0
STYLE
  2
STANDARD
 70
     0
 40
0.0
 41
1.0
 50
0.0
 71
     0
 42
200.0
  3
txt
  4

  0
STYLE
  2
TEAM
 70
     0
 40
0.0
 41
0.8
 50
15.0
 71
     0
 42
7.0
  3
ROMANS.shx
  4

  0
ENDTAB
  0
TABLE
  2
VIEW
 70
     0
  0
ENDTAB
  0
TABLE
  2
UCS
 70
     0
  0
ENDTAB
  0
TABLE
  2
APPID
 70
     1
  0
APPID
  2
ACAD
 70
     0
  0
ENDTAB
  0
TABLE
  2
DIMSTYLE
 70
     1
  0
DIMSTYLE
  2
TEAM
 70
     0
  3

  4

  5

  6

  7

 40
0.0
 41
20.0
 42
10.0
 43
1.0
 44
1.0
 45
0.0
 46
0.0
 47
0.0
 48
0.0
140
35.0
141
1.0
142
0.0
143
25.4
144
1.0
145
0.0
146
1.0
147
7.0
 71
     0
 72
     0
 73
     0
 74
     0
 75
     0
 76
     0
 77
     0
 78
     0
170
     0
171
     2
172
     0
173
     0
174
     0
175
     0
176
     9
177
     9
178
    11
  0
ENDTAB
  0
ENDSEC
  0
SECTION
  2
BLOCKS
  0
BLOCK
  8
0
  2
$MODEL_SPACE
 70
     0
 10
0.0
 20
0.0
 30
0.0
  3
$MODEL_SPACE
  1

  0
ENDBLK
  5
F3
  8
0
  0
BLOCK
 67
     1
  8
0
  2
$PAPER_SPACE
 70
     0
 10
0.0
 20
0.0
 30
0.0
  3
$PAPER_SPACE
  1

  0
ENDBLK
  5
F1
 67
     1
  8
0
  0
BLOCK
  8
0
  2
*D0
 70
     1
 10
0.0
 20
0.0
 30
0.0
  3
*D0
  1

  0
LINE
  5
31
  8
0
  6
BYBLOCK
 62
     9
 10
899.591183
 20
339620.0
 30
0.0
 11
899.591183
 21
339521.502821
 31
0.0
  0
LINE
  5
32
  8
0
  6
BYBLOCK
 62
     9
 10
-900.408817
 20
339620.0
 30
0.0
 11
-900.408817
 21
339521.502821
 31
0.0
  0
LINE
  5
33
  8
0
  6
BYBLOCK
 62
     9
 10
879.591183
 20
339522.502821
 30
0.0
 11
59.091183
 21
339522.502821
 31
0.0
  0
LINE
  5
34
  8
0
  6
BYBLOCK
 62
     9
 10
-880.408817
 20
339522.502821
 30
0.0
 11
-59.908817
 21
339522.502821
 31
0.0
  0
SOLID
  5
35
  8
0
  6
BYBLOCK
 62
     9
 10
879.591183
 20
339525.836154
 30
0.0
 11
879.591183
 21
339519.169487
 31
0.0
 12
899.591183
 22
339522.502821
 32
0.0
 13
899.591183
 23
339522.502821
 33
0.0
  0
SOLID
  5
36
  8
0
  6
BYBLOCK
 62
     9
 10
-880.408817
 20
339525.836154
 30
0.0
 11
-880.408817
 21
339519.169487
 31
0.0
 12
-900.408817
 22
339522.502821
 32
0.0
 13
-900.408817
 23
339522.502821
 33
0.0
  0
TEXT
  5
37
  8
0
  6
BYBLOCK
 62
    11
 10
-52.908817
 20
339505.002821
 30
0.0
 40
35.0
  1
1800
  0
POINT
  5
38
  8
DEFPOINTS
  6
BYBLOCK
 62
     0
 10
899.591183
 20
339630.0
 30
0.0
  0
POINT
  5
39
  8
DEFPOINTS
  6
BYBLOCK
 62
     0
 10
-900.408817
 20
339630.0
 30
0.0
  0
POINT
  5
3A
  8
DEFPOINTS
  6
BYBLOCK
 62
     0
 10
-900.408817
 20
339522.502821
 30
0.0
  0
ENDBLK
  5
3C
  8
0
  0
BLOCK
  8
0
  2
*D1
 70
     1
 10
0.0
 20
0.0
 30
0.0
  3
*D1
  1

  0
LINE
  5
22
  8
0
  6
BYBLOCK
 62
     9
 10
-0.41
 20
339990.0
 30
0.0
 11
-0.41
 21
339562.912697
 31
0.0
  0
LINE
  5
23
  8
0
  6
BYBLOCK
 62
     9
 10
899.591183
 20
339620.0
 30
0.0
 11
899.591183
 21
339562.912697
 31
0.0
  0
LINE
  5
24
  8
0
  6
BYBLOCK
 62
     9
 10
19.59
 20
339563.912697
 30
0.0
 11
401.757258
 21
339563.912697
 31
0.0
  0
LINE
  5
25
  8
0
  6
BYBLOCK
 62
     9
 10
879.591183
 20
339563.912697
 30
0.0
 11
497.423925
 21
339563.912697
 31
0.0
  0
SOLID
  5
26
  8
0
  6
BYBLOCK
 62
     9
 10
19.59
 20
339567.24603
 30
0.0
 11
19.59
 21
339560.579363
 31
0.0
 12
-0.41
 22
339563.912697
 32
0.0
 13
-0.41
 23
339563.912697
 33
0.0
  0
SOLID
  5
27
  8
0
  6
BYBLOCK
 62
     9
 10
879.591183
 20
339567.24603
 30
0.0
 11
879.591183
 21
339560.579363
 31
0.0
 12
899.591183
 22
339563.912697
 32
0.0
 13
899.591183
 23
339563.912697
 33
0.0
  0
TEXT
  5
28
  8
0
  6
BYBLOCK
 62
    11
 10
408.757258
 20
339546.412697
 30
0.0
 40
35.0
  1
900
  0
POINT
  5
29
  8
DEFPOINTS
  6
BYBLOCK
 62
     0
 10
-0.41
 20
340000.0
 30
0.0
  0
POINT
  5
2B
  8
DEFPOINTS
  6
BYBLOCK
 62
     0
 10
899.591183
 20
339630.0
 30
0.0
  0
POINT
  5
2C
  8
DEFPOINTS
  6
BYBLOCK
 62
     0
 10
899.591183
 20
339563.912697
 30
0.0
  0
ENDBLK
  5
2E
  8
0
  0
BLOCK
  8
0
  2
*D2
 70
     1
 10
0.0
 20
0.0
 30
0.0
  3
*D2
  1

  0
LINE
  5
78
  8
0
  6
BYBLOCK
 62
     9
 10
931.59662
 20
339600.0
 30
0.0
 11
973.19504
 21
339600.0
 31
0.0
  0
LINE
  5
79
  8
0
  6
BYBLOCK
 62
     9
 10
879.591183
 20
340400.0
 30
0.0
 11
973.19504
 21
340400.0
 31
0.0
  0
LINE
  5
7A
  8
0
  6
BYBLOCK
 62
     9
 10
972.19504
 20
339620.0
 30
0.0
 11
972.19504
 21
339952.166667
 31
0.0
  0
LINE
  5
7B
  8
0
  6
BYBLOCK
 62
     9
 10
972.19504
 20
340380.0
 30
0.0
 11
972.19504
 21
340047.833333
 31
0.0
  0
SOLID
  5
7C
  8
0
  6
BYBLOCK
 62
     9
 10
968.861706
 20
339620.0
 30
0.0
 11
975.528373
 21
339620.0
 31
0.0
 12
972.19504
 22
339600.0
 32
0.0
 13
972.19504
 23
339600.0
 33
0.0
  0
SOLID
  5
7D
  8
0
  6
BYBLOCK
 62
     9
 10
968.861706
 20
340380.0
 30
0.0
 11
975.528373
 21
340380.0
 31
0.0
 12
972.19504
 22
340400.0
 32
0.0
 13
972.19504
 23
340400.0
 33
0.0
  0
TEXT
  5
7E
  8
0
  6
BYBLOCK
 62
    11
 10
989.69504
 20
339959.166667
 30
0.0
 40
35.0
  1
800
 50
90.0
  0
POINT
  5
7F
  8
DEFPOINTS
  6
BYBLOCK
 62
     0
 10
921.59662
 20
339600.0
 30
0.0
  0
POINT
  5
80
  8
DEFPOINTS
  6
BYBLOCK
 62
     0
 10
869.591183
 20
340400.0
 30
0.0
  0
POINT
  5
81
  8
DEFPOINTS
  6
BYBLOCK
 62
     0
 10
972.19504
 20
340400.0
 30
0.0
  0
ENDBLK
  5
83
  8
0
  0
BLOCK
  8
0
  2
*D3
 70
     1
 10
0.0
 20
0.0
 30
0.0
  3
*D3
  1

  0
LINE
  5
6A
  8
0
  6
BYBLOCK
 62
     9
 10
879.591183
 20
339600.0
 30
0.0
 11
934.795676
 21
339600.0
 31
0.0
  0
LINE
  5
6B
  8
0
  6
BYBLOCK
 62
     9
 10
909.591183
 20
340000.0
 30
0.0
 11
934.795676
 21
340000.0
 31
0.0
  0
LINE
  5
6C
  8
0
  6
BYBLOCK
 62
     9
 10
933.795676
 20
339620.0
 30
0.0
 11
933.795676
 21
339752.166667
 31
0.0
  0
LINE
  5
6D
  8
0
  6
BYBLOCK
 62
     9
 10
933.795676
 20
339980.0
 30
0.0
 11
933.795676
 21
339847.833333
 31
0.0
  0
SOLID
  5
6E
  8
0
  6
BYBLOCK
 62
     9
 10
930.462343
 20
339620.0
 30
0.0
 11
937.129009
 21
339620.0
 31
0.0
 12
933.795676
 22
339600.0
 32
0.0
 13
933.795676
 23
339600.0
 33
0.0
  0
SOLID
  5
6F
  8
0
  6
BYBLOCK
 62
     9
 10
930.462343
 20
339980.0
 30
0.0
 11
937.129009
 21
339980.0
 31
0.0
 12
933.795676
 22
340000.0
 32
0.0
 13
933.795676
 23
340000.0
 33
0.0
  0
TEXT
  5
70
  8
0
  6
BYBLOCK
 62
    11
 10
951.295676
 20
339759.166667
 30
0.0
 40
35.0
  1
400
 50
90.0
  0
POINT
  5
71
  8
DEFPOINTS
  6
BYBLOCK
 62
     0
 10
869.591183
 20
339600.0
 30
0.0
  0
POINT
  5
72
  8
DEFPOINTS
  6
BYBLOCK
 62
     0
 10
899.591183
 20
340000.0
 30
0.0
  0
POINT
  5
73
  8
DEFPOINTS
  6
BYBLOCK
 62
     0
 10
933.795676
 20
340000.0
 30
0.0
  0
ENDBLK
  5
75
  8
0
  0
ENDSEC
  0
SECTION
  2
ENTITIES
  0
DIMENSION
  5
20
  8
TEAM-MAS
  2
*D1
 10
900.001183
 20
-436.087303
 30
0.0
 11
450.000591
 21
-436.087303
 31
0.0
 12
0.41
 22
-340000.0
 32
0.0
 13
0.0
 23
0.0
 33
0.0
 14
900.001183
 24
-370.0
 34
0.0
  0
DIMENSION
  5
2F
  8
TEAM-MAS
  2
*D0
 10
-899.998817
 20
-477.497179
 30
0.0
 11
0.001183
 21
-477.497179
 31
0.0
 12
0.41
 22
-340000.0
 32
0.0
 13
900.001183
 23
-370.0
 33
0.0
 14
-899.998817
 24
-370.0
 34
0.0
1001
ACAD
1000
DSTYLE
1002
{
1070
    78
1070
     0
1070
    40
1040
1.0
1002
}
  0
LINE
  5
3D
  8
TEAM-DET3
 10
501.774331
 20
296.705618
 30
0.0
 11
733.345388
 21
347.064732
 31
0.0
  0
LINE
  5
3F
  8
TEAM-DET3
 10
501.774331
 20
-296.705618
 30
0.0
 11
733.345388
 21
-347.064732
 31
0.0
  0
ARC
  5
40
  8
TEAM-BODY
 10
-133.787808
 20
-12.897712
 30
0.0
 40
656.543242
 50
342.883382
 51
1.125641
  0
ARC
  5
42
  8
TEAM-BODY
 10
-133.787808
 20
12.897712
 30
0.0
 40
656.543242
 50
358.874359
 51
17.116618
  0
LINE
  5
43
  8
TEAM-DET1
 10
-814.998817
 20
365.0
 30
0.0
 11
815.001183
 21
365.0
 31
0.0
  0
LINE
  5
45
  8
TEAM-BODY
 10
-869.998817
 20
400.0
 30
0.0
 11
870.001183
 21
400.0
 31
0.0
  0
LINE
  5
46
  8
TEAM-AXE
 10
-919.59
 20
0.0
 30
0.0
 11
900.001183
 21
0.0
 31
0.0
  0
LINE
  5
49
  8
TEAM-DET1
 10
815.001183
 20
-365.0
 30
0.0
 11
-814.998817
 21
-365.0
 31
0.0
  0
LINE
  5
4A
  8
TEAM-BODY
 10
870.001183
 20
-400.0
 30
0.0
 11
-869.998817
 21
-400.0
 31
0.0
  0
ARC
  5
4B
  8
TEAM-BODY
 10
398.10485
 20
176.69814
 30
0.0
 40
100.0
 50
17.116618
 51
94.585579
  0
ARC
  5
4C
  8
TEAM-BODY
 10
398.10485
 20
-176.69814
 30
0.0
 40
100.0
 50
265.414421
 51
342.883382
  0
LINE
  5
4D
  8
TEAM-AXE
 10
-30.095042
 20
-316.375603
 30
0.0
 11
29.904958
 21
-316.375603
 31
0.0
  0
LINE
  5
4E
  8
TEAM-AXE
 10
-0.095042
 20
-276.375603
 30
0.0
 11
-0.095042
 21
-356.375603
 31
0.0
  0
POLYLINE
  5
4F
  8
TEAM-DET1
 66
     1
 10
0.0
 20
0.0
 30
0.0
 70
     1
  0
VERTEX
  5
F9
  8
TEAM-DET1
 10
-0.095042
 20
-302.937978
 30
0.0
 42
0.054265
  0
VERTEX
  5
FA
  8
TEAM-DET1
 10
-10.283241
 20
-304.046979
 30
0.0
 42
0.0681
  0
VERTEX
  5
FB
  8
TEAM-DET1
 10
-17.959546
 20
-306.873767
 30
0.0
 42
0.105466
  0
VERTEX
  5
FC
  8
TEAM-DET1
 10
-23.774573
 20
-311.76159
 30
0.0
 42
0.16694
  0
VERTEX
  5
FD
  8
TEAM-DET1
 10
-25.359266
 20
-316.375603
 30
0.0
 42
0.16694
  0
VERTEX
  5
FE
  8
TEAM-DET1
 10
-23.774573
 20
-320.989616
 30
0.0
 42
0.105466
  0
VERTEX
  5
FF
  8
TEAM-DET1
 10
-17.959546
 20
-325.877439
 30
0.0
 42
0.0681
  0
VERTEX
  5
100
  8
TEAM-DET1
 10
-10.283241
 20
-328.704228
 30
0.0
 42
0.054265
  0
VERTEX
  5
101
  8
TEAM-DET1
 10
-0.095042
 20
-329.813228
 30
0.0
 42
0.054265
  0
VERTEX
  5
102
  8
TEAM-DET1
 10
10.093158
 20
-328.704228
 30
0.0
 42
0.0681
  0
VERTEX
  5
103
  8
TEAM-DET1
 10
17.769463
 20
-325.877439
 30
0.0
 42
0.105466
  0
VERTEX
  5
104
  8
TEAM-DET1
 10
23.58449
 20
-320.989616
 30
0.0
 42
0.16694
  0
VERTEX
  5
105
  8
TEAM-DET1
 10
25.169183
 20
-316.375603
 30
0.0
 42
0.16694
  0
VERTEX
  5
106
  8
TEAM-DET1
 10
23.58449
 20
-311.76159
 30
0.0
 42
0.105466
  0
VERTEX
  5
107
  8
TEAM-DET1
 10
17.769463
 20
-306.873767
 30
0.0
 42
0.0681
  0
VERTEX
  5
108
  8
TEAM-DET1
 10
10.093158
 20
-304.046979
 30
0.0
 42
0.054265
  0
SEQEND
  5
109
  8
TEAM-DET1
  0
CIRCLE
  5
50
  8
TEAM-INSP
 10
0.0
 20
0.0
 30
0.0
 40
10.0
  0
POLYLINE
  5
52
  8
TEAM-DET1
 66
     1
 10
0.0
 20
0.0
 30
0.0
 70
     1
  0
VERTEX
  5
10A
  8
TEAM-DET1
 10
-43.906853
 20
-55.478518
 30
0.0
  0
VERTEX
  5
10B
  8
TEAM-DET1
 10
43.906853
 20
-55.478518
 30
0.0
 42
0.414214
  0
VERTEX
  5
10C
  8
TEAM-DET1
 10
68.906853
 20
-30.478518
 30
0.0
  0
VERTEX
  5
10D
  8
TEAM-DET1
 10
68.906853
 20
30.478518
 30
0.0
 42
0.414214
  0
VERTEX
  5
10E
  8
TEAM-DET1
 10
43.906853
 20
55.478518
 30
0.0
  0
VERTEX
  5
10F
  8
TEAM-DET1
 10
-43.906853
 20
55.478518
 30
0.0
 42
0.414214
  0
VERTEX
  5
110
  8
TEAM-DET1
 10
-68.906853
 20
30.478518
 30
0.0
  0
VERTEX
  5
111
  8
TEAM-DET1
 10
-68.906853
 20
-30.478518
 30
0.0
 42
0.414214
  0
SEQEND
  5
112
  8
TEAM-DET1
  0
CIRCLE
  5
53
  8
TEAM-DET1
 10
0.0
 20
0.0
 30
0.0
 40
30.0
  0
LINE
  5
54
  8
TEAM-AXE
 10
0.0
 20
424.831967
 30
0.0
 11
0.0
 21
-424.831967
 31
0.0
  0
LINE
  5
55
  8
TEAM-BODY
 10
390.110046
 20
276.378043
 30
0.0
 11
-407.480129
 21
276.378043
 31
0.0
  0
LINE
  5
56
  8
TEAM-BODY
 10
390.110046
 20
-276.378043
 30
0.0
 11
-407.480129
 21
-276.378043
 31
0.0
  0
ARC
  5
57
  8
TEAM-BODY
 10
116.417725
 20
-12.897712
 30
0.0
 40
656.543242
 50
178.874359
 51
197.116618
  0
ARC
  5
58
  8
TEAM-BODY
 10
116.417725
 20
12.897712
 30
0.0
 40
656.543242
 50
162.883382
 51
181.125641
  0
ARC
  5
59
  8
TEAM-DET1
 10
-814.998817
 20
315.0
 30
0.0
 40
50.0
 50
90.0
 51
180.0
  0
ARC
  5
5A
  8
TEAM-BODY
 10
-869.99884
 20
370.000022
 30
0.0
 40
29.999978
 50
89.999957
 51
180.000043
  0
LINE
  5
5B
  8
TEAM-DET3
 10
-563.732105
 20
123.301786
 30
0.0
 11
-779.225205
 21
260.421623
 31
0.0
  0
ARC
  5
5C
  8
TEAM-DET1
 10
-814.998817
 20
-315.0
 30
0.0
 40
50.0
 50
180.0
 51
270.0
  0
ARC
  5
5D
  8
TEAM-BODY
 10
-869.99884
 20
-370.000022
 30
0.0
 40
29.999978
 50
179.999957
 51
270.000043
  0
LINE
  5
5E
  8
TEAM-DET3
 10
-563.732105
 20
-123.301786
 30
0.0
 11
-779.225205
 21
-260.421623
 31
0.0
  0
LINE
  5
5F
  8
TEAM-DET1
 10
-864.998817
 20
-315.0
 30
0.0
 11
-864.998817
 21
315.0
 31
0.0
  0
LINE
  5
60
  8
TEAM-BODY
 10
-899.998817
 20
-370.0
 30
0.0
 11
-899.998817
 21
370.0
 31
0.0
  0
LINE
  5
61
  8
TEAM-DET3
 10
-500.954331
 20
296.705618
 30
0.0
 11
-732.525388
 21
347.064732
 31
0.0
  0
LINE
  5
62
  8
TEAM-DET3
 10
-500.954331
 20
-296.705618
 30
0.0
 11
-732.525388
 21
-347.064732
 31
0.0
  0
ARC
  5
63
  8
TEAM-BODY
 10
-415.474933
 20
176.69814
 30
0.0
 40
100.0
 50
85.414421
 51
162.883382
  0
TEXT
  5
64
  8
TEAM-TXT
 10
-438.16844
 20
300.467717
 30
0.0
 40
30.0
  1
team 111411
 41
0.8
 51
15.0
  7
TEAM
  0
ARC
  5
67
  8
TEAM-BODY
 10
-415.474933
 20
-176.69814
 30
0.0
 40
100.0
 50
197.116618
 51
274.585579
  0
DIMENSION
  5
68
  8
TEAM-MAS
  2
*D3
 10
934.205676
 20
0.0
 30
0.0
 11
934.205676
 21
-200.0
 31
0.0
 12
0.41
 22
-340000.0
 32
0.0
 13
870.001183
 23
-400.0
 33
0.0
 14
900.001183
 24
0.0
 34
0.0
 50
90.0
  0
DIMENSION
  5
76
  8
TEAM-MAS
  2
*D2
 10
972.60504
 20
400.0
 30
0.0
 11
972.60504
 21
0.0
 31
0.0
 12
0.41
 22
-340000.0
 32
0.0
 13
922.00662
 23
-400.0
 33
0.0
 14
870.001183
 24
400.0
 34
0.0
 50
90.0
  0
ARC
  5
84
  8
TEAM-DET1
 10
815.001183
 20
315.0
 30
0.0
 40
50.0
 50
0.0
 51
90.0
  0
ARC
  5
85
  8
TEAM-BODY
 10
870.001205
 20
370.000022
 30
0.0
 40
29.999978
 50
359.999957
 51
90.000043
  0
LINE
  5
86
  8
TEAM-DET3
 10
564.552105
 20
123.301786
 30
0.0
 11
780.045205
 21
260.421623
 31
0.0
  0
LINE
  5
87
  8
TEAM-DET3
 10
564.552105
 20
-123.301786
 30
0.0
 11
780.045205
 21
-260.421623
 31
0.0
  0
ARC
  5
88
  8
TEAM-DET1
 10
815.001183
 20
-315.0
 30
0.0
 40
50.0
 50
270.0
 51
0.0
  0
ARC
  5
89
  8
TEAM-BODY
 10
870.001205
 20
-370.000022
 30
0.0
 40
29.999978
 50
269.999957
 51
0.000043
  0
LINE
  5
8A
  8
TEAM-DET1
 10
865.001183
 20
315.0
 30
0.0
 11
865.001183
 21
-315.0
 31
0.0
  0
LINE
  5
8B
  8
TEAM-BODY
 10
900.001183
 20
370.0
 30
0.0
 11
900.001183
 21
-370.0
 31
0.0
  0
ENDSEC
  0
EOF
