  0
SECTION
  2
HEADER
  9
$ACADVER
  1
AC1009
  9
$INSBASE
 10
0.0
 20
0.0
 30
0.0
  9
$EXTMIN
 10
-891.465103
 20
-10.020114
 30
-10.000305
  9
$EXTMAX
 10
957.740904
 20
649.15945
 30
0.000305
  9
$LIMMIN
 10
-882.49954
 20
-0.00168
  9
$LIMMAX
 10
957.740904
 20
649.15945
  9
$ORTHOMODE
 70
     1
  9
$REGENMODE
 70
     1
  9
$FILLMODE
 70
     1
  9
$QTEXTMODE
 70
     0
  9
$MIRRTEXT
 70
     0
  9
$DRAGMODE
 70
     2
  9
$LTSCALE
 40
50.0
  9
$OSMODE
 70
     7
  9
$ATTMODE
 70
     1
  9
$TEXTSIZE
 40
200.0
  9
$TRACEWID
 40
1.0
  9
$TEXTSTYLE
  7
STANDARD
  9
$CLAYER
  8
TEAM-MAS
  9
$CELTYPE
  6
BYLAYER
  9
$CECOLOR
 62
   256
  9
$DIMSCALE
 40
0.0
  9
$DIMASZ
 40
20.0
  9
$DIMEXO
 40
10.0
  9
$DIMDLI
 40
1.0
  9
$DIMRND
 40
0.0
  9
$DIMDLE
 40
0.0
  9
$DIMEXE
 40
1.0
  9
$DIMTP
 40
0.0
  9
$DIMTM
 40
0.0
  9
$DIMTXT
 40
35.0
  9
$DIMCEN
 40
1.0
  9
$DIMTSZ
 40
0.0
  9
$DIMTOL
 70
     0
  9
$DIMLIM
 70
     0
  9
$DIMTIH
 70
     0
  9
$DIMTOH
 70
     0
  9
$DIMSE1
 70
     0
  9
$DIMSE2
 70
     0
  9
$DIMTAD
 70
     0
  9
$DIMZIN
 70
     0
  9
$DIMBLK
  1

  9
$DIMASO
 70
     1
  9
$DIMSHO
 70
     0
  9
$DIMPOST
  1

  9
$DIMAPOST
  1

  9
$DIMALT
 70
     0
  9
$DIMALTD
 70
     2
  9
$DIMALTF
 40
25.4
  9
$DIMLFAC
 40
1.0
  9
$DIMTOFL
 70
     0
  9
$DIMTVP
 40
0.0
  9
$DIMTIX
 70
     0
  9
$DIMSOXD
 70
     0
  9
$DIMSAH
 70
     0
  9
$DIMBLK1
  1

  9
$DIMBLK2
  1

  9
$DIMSTYLE
  2
TEAM
  9
$DIMCLRD
 70
     9
  9
$DIMCLRE
 70
     9
  9
$DIMCLRT
 70
    11
  9
$DIMTFAC
 40
1.0
  9
$DIMGAP
 40
7.0
  9
$LUNITS
 70
     2
  9
$LUPREC
 70
     1
  9
$SKETCHINC
 40
1.0
  9
$FILLETRAD
 40
5.0
  9
$AUNITS
 70
     0
  9
$AUPREC
 70
     0
  9
$MENU
  1
ROPLANS
  9
$ELEVATION
 40
0.0
  9
$PELEVATION
 40
0.0
  9
$THICKNESS
 40
0.0
  9
$LIMCHECK
 70
     0
  9
$BLIPMODE
 70
     1
  9
$CHAMFERA
 40
0.0
  9
$CHAMFERB
 40
0.0
  9
$SKPOLY
 70
     0
  9
$TDCREATE
 40
2450392.957851
  9
$TDUPDATE
 40
2455944.698999
  9
$TDINDWG
 40
3.037655
  9
$TDUSRTIMER
 40
3.037655
  9
$USRTIMER
 70
     1
  9
$ANGBASE
 50
0.0
  9
$ANGDIR
 70
     0
  9
$PDMODE
 70
     0
  9
$PDSIZE
 40
0.0
  9
$PLINEWID
 40
0.0
  9
$COORDS
 70
     2
  9
$SPLFRAME
 70
     0
  9
$SPLINETYPE
 70
     6
  9
$SPLINESEGS
 70
     8
  9
$ATTDIA
 70
     0
  9
$ATTREQ
 70
     0
  9
$HANDLING
 70
     1
  9
$HANDSEED
  5
12A
  9
$SURFTAB1
 70
    24
  9
$SURFTAB2
 70
    24
  9
$SURFTYPE
 70
     6
  9
$SURFU
 70
     6
  9
$SURFV
 70
     6
  9
$UCSNAME
  2

  9
$UCSORG
 10
0.0
 20
0.0
 30
0.0
  9
$UCSXDIR
 10
1.0
 20
0.0
 30
0.0
  9
$UCSYDIR
 10
0.0
 20
1.0
 30
0.0
  9
$PUCSNAME
  2

  9
$PUCSORG
 10
0.0
 20
0.0
 30
0.0
  9
$PUCSXDIR
 10
1.0
 20
0.0
 30
0.0
  9
$PUCSYDIR
 10
0.0
 20
1.0
 30
0.0
  9
$USERI1
 70
     0
  9
$USERI2
 70
     0
  9
$USERI3
 70
     0
  9
$USERI4
 70
     0
  9
$USERI5
 70
     0
  9
$USERR1
 40
0.0
  9
$USERR2
 40
0.0
  9
$USERR3
 40
0.0
  9
$USERR4
 40
0.0
  9
$USERR5
 40
0.0
  9
$WORLDVIEW
 70
     1
  9
$SHADEDGE
 70
     0
  9
$SHADEDIF
 70
    70
  9
$TILEMODE
 70
     1
  9
$MAXACTVP
 70
    16
  9
$PLIMCHECK
 70
     0
  9
$PEXTMIN
 10
-0.805942
 20
0.005011
 30
0.0
  9
$PEXTMAX
 10
20.250094
 20
11.356329
 30
0.0
  9
$PLIMMIN
 10
0.0
 20
0.0
  9
$PLIMMAX
 10
12.0
 20
9.0
  9
$UNITMODE
 70
     0
  9
$VISRETAIN
 70
     0
  9
$PLINEGEN
 70
     0
  9
$PSLTSCALE
 70
     0
  0
ENDSEC
  0
SECTION
  2
TABLES
  0
TABLE
  2
VPORT
 70
     2
  0
VPORT
  2
*ACTIVE
 70
     0
 10
0.0
 20
0.0
 11
1.0
 21
1.0
 12
33.137901
 22
319.569668
 13
0.0
 23
0.0
 14
1.0
 24
1.0
 15
20.0
 25
20.0
 16
0.0
 26
0.0
 36
1.0
 17
0.0
 27
0.0
 37
0.0
 40
974.540055
 41
1.903766
 42
50.0
 43
0.0
 44
0.0
 50
0.0
 51
0.0
 71
     0
 72
   100
 73
     1
 74
     1
 75
     0
 76
     0
 77
     0
 78
     0
  0
ENDTAB
  0
TABLE
  2
LTYPE
 70
     3
  0
LTYPE
  2
CONTINUOUS
 70
     0
  3
Solid Line
 72
    65
 73
     0
 40
0.0
  0
LTYPE
  2
31
 70
     0
  3

 72
    65
 73
     4
 40
2.1
 49
1.5
 49
-0.3
 49
0.0
 49
-0.3
  0
LTYPE
  2
22
 70
     0
  3

 72
    65
 73
     2
 40
1.4
 49
1.2
 49
-0.2
  0
ENDTAB
  0
TABLE
  2
LAYER
 70
    10
  0
LAYER
  2
0
 70
     0
 62
     7
  6
CONTINUOUS
  0
LAYER
  2
DEFPOINTS
 70
     0
 62
     7
  6
CONTINUOUS
  0
LAYER
  2
TEAM-BODY
 70
     0
 62
     2
  6
CONTINUOUS
  0
LAYER
  2
TEAM-AXE
 70
     0
 62
    10
  6
31
  0
LAYER
  2
TEAM-MAS
 70
     0
 62
     9
  6
CONTINUOUS
  0
LAYER
  2
TEAM-TXT
 70
     0
 62
    11
  6
CONTINUOUS
  0
LAYER
  2
TEAM-HIDE
 70
     0
 62
     8
  6
22
  0
LAYER
  2
TEAM-KAN
 70
     0
 62
     6
  6
CONTINUOUS
  0
LAYER
  2
TEAM-DET3
 70
     0
 62
    14
  6
CONTINUOUS
  0
LAYER
  2
TEAM-INSP
 70
     0
 62
     5
  6
CONTINUOUS
  0
ENDTAB
  0
TABLE
  2
STYLE
 70
     2
  0
STYLE
  2
STANDARD
 70
     0
 40
0.0
 41
1.0
 50
0.0
 71
     0
 42
200.0
  3
txt
  4

  0
STYLE
  2
TEAM
 70
     0
 40
0.0
 41
0.8
 50
15.0
 71
     0
 42
7.0
  3
ROMANS.shx
  4

  0
ENDTAB
  0
TABLE
  2
VIEW
 70
     0
  0
ENDTAB
  0
TABLE
  2
UCS
 70
     0
  0
ENDTAB
  0
TABLE
  2
APPID
 70
     2
  0
APPID
  2
ACAD
 70
     0
  0
APPID
  2
ROASYM
 70
     0
  0
ENDTAB
  0
TABLE
  2
DIMSTYLE
 70
     1
  0
DIMSTYLE
  2
TEAM
 70
     0
  3

  4

  5

  6

  7

 40
0.0
 41
20.0
 42
10.0
 43
1.0
 44
1.0
 45
0.0
 46
0.0
 47
0.0
 48
0.0
140
35.0
141
1.0
142
0.0
143
25.4
144
1.0
145
0.0
146
1.0
147
7.0
 71
     0
 72
     0
 73
     0
 74
     0
 75
     0
 76
     0
 77
     0
 78
     0
170
     0
171
     2
172
     0
173
     0
174
     0
175
     0
176
     9
177
     9
178
    11
  0
ENDTAB
  0
ENDSEC
  0
SECTION
  2
BLOCKS
  0
BLOCK
  8
0
  2
$MODEL_SPACE
 70
     0
 10
0.0
 20
0.0
 30
0.0
  3
$MODEL_SPACE
  1

  0
ENDBLK
  5
123
  8
0
  0
BLOCK
 67
     1
  8
0
  2
$PAPER_SPACE
 70
     0
 10
0.0
 20
0.0
 30
0.0
  3
$PAPER_SPACE
  1

  0
ENDBLK
  5
121
 67
     1
  8
0
  0
BLOCK
  8
0
  2
*D0
 70
     1
 10
0.0
 20
0.0
 30
0.0
  3
*D0
  1

  0
LINE
  5
22
  8
0
  6
BYBLOCK
 62
     9
 10
7955.0
 20
340145.0
 30
0.0
 11
7955.0
 21
340081.765376
 31
0.0
  0
LINE
  5
23
  8
0
  6
BYBLOCK
 62
     9
 10
8045.0
 20
340145.0
 30
0.0
 11
8045.0
 21
340081.765376
 31
0.0
  0
LINE
  5
24
  8
0
  6
BYBLOCK
 62
     9
 10
7975.0
 20
340082.765376
 30
0.0
 11
8025.0
 21
340082.765376
 31
0.0
  0
TEXT
  5
25
  8
0
  6
BYBLOCK
 62
    11
 10
8072.571595
 20
340065.265376
 30
0.0
 40
35.0
  1
90
  0
SOLID
  5
26
  8
0
  6
BYBLOCK
 62
     9
 10
7975.0
 20
340086.098709
 30
0.0
 11
7975.0
 21
340079.432043
 31
0.0
 12
7955.0
 22
340082.765376
 32
0.0
 13
7955.0
 23
340082.765376
 33
0.0
  0
SOLID
  5
27
  8
0
  6
BYBLOCK
 62
     9
 10
8025.0
 20
340086.098709
 30
0.0
 11
8025.0
 21
340079.432043
 31
0.0
 12
8045.0
 22
340082.765376
 32
0.0
 13
8045.0
 23
340082.765376
 33
0.0
  0
POINT
  5
28
  8
DEFPOINTS
  6
BYBLOCK
 62
     0
 10
7955.0
 20
340155.0
 30
10.0
  0
POINT
  5
2A
  8
DEFPOINTS
  6
BYBLOCK
 62
     0
 10
8045.0
 20
340155.0
 30
10.0
  0
POINT
  5
2B
  8
DEFPOINTS
  6
BYBLOCK
 62
     0
 10
8045.0
 20
340082.765376
 30
0.0
  0
ENDBLK
  5
2D
  8
0
  0
BLOCK
  8
0
  2
*D1
 70
     1
 10
0.0
 20
0.0
 30
0.0
  3
*D1
  1

  0
LINE
  5
30
  8
0
  6
BYBLOCK
 62
     9
 10
7108.591323
 20
340590.000002
 30
0.0
 11
7108.591323
 21
340632.639334
 31
0.0
  0
LINE
  5
31
  8
0
  6
BYBLOCK
 62
     9
 10
8908.591183
 20
340590.000002
 30
0.0
 11
8908.591183
 21
340632.639334
 31
0.0
  0
LINE
  5
32
  8
0
  6
BYBLOCK
 62
     9
 10
7128.591323
 20
340631.639334
 30
0.0
 11
7949.091253
 21
340631.639334
 31
0.0
  0
LINE
  5
33
  8
0
  6
BYBLOCK
 62
     9
 10
8888.591183
 20
340631.639334
 30
0.0
 11
8068.091253
 21
340631.639334
 31
0.0
  0
SOLID
  5
34
  8
0
  6
BYBLOCK
 62
     9
 10
7128.591323
 20
340634.972667
 30
0.0
 11
7128.591323
 21
340628.306
 31
0.0
 12
7108.591323
 22
340631.639334
 32
0.0
 13
7108.591323
 23
340631.639334
 33
0.0
  0
SOLID
  5
35
  8
0
  6
BYBLOCK
 62
     9
 10
8888.591183
 20
340634.972667
 30
0.0
 11
8888.591183
 21
340628.306
 31
0.0
 12
8908.591183
 22
340631.639334
 32
0.0
 13
8908.591183
 23
340631.639334
 33
0.0
  0
TEXT
  5
36
  8
0
  6
BYBLOCK
 62
    11
 10
7956.091253
 20
340614.139334
 30
0.0
 40
35.0
  1
1800
  0
POINT
  5
37
  8
DEFPOINTS
  6
BYBLOCK
 62
     0
 10
7108.591323
 20
340580.000002
 30
0.0
  0
POINT
  5
38
  8
DEFPOINTS
  6
BYBLOCK
 62
     0
 10
8908.591183
 20
340580.000002
 30
0.0
  0
POINT
  5
39
  8
DEFPOINTS
  6
BYBLOCK
 62
     0
 10
8908.591183
 20
340631.639334
 30
0.0
  0
ENDBLK
  5
3B
  8
0
  0
BLOCK
  8
0
  2
*D2
 70
     1
 10
0.0
 20
0.0
 30
0.0
  3
*D2
  1

  0
LINE
  5
4D
  8
0
  6
BYBLOCK
 62
     9
 10
8908.591184
 20
340600.0
 30
0.0
 11
8941.18447
 21
340600.0
 31
0.0
  0
LINE
  5
4E
  8
0
  6
BYBLOCK
 62
     9
 10
8055.0
 20
340155.0
 30
0.0
 11
8941.18447
 21
340155.0
 31
0.0
  0
LINE
  5
4F
  8
0
  6
BYBLOCK
 62
     9
 10
8940.18447
 20
340580.0
 30
0.0
 11
8940.18447
 21
340431.166667
 31
0.0
  0
LINE
  5
50
  8
0
  6
BYBLOCK
 62
     9
 10
8940.18447
 20
340175.0
 30
0.0
 11
8940.18447
 21
340323.833333
 31
0.0
  0
SOLID
  5
51
  8
0
  6
BYBLOCK
 62
     9
 10
8936.851137
 20
340580.0
 30
0.0
 11
8943.517803
 21
340580.0
 31
0.0
 12
8940.18447
 22
340600.0
 32
0.0
 13
8940.18447
 23
340600.0
 33
0.0
  0
SOLID
  5
52
  8
0
  6
BYBLOCK
 62
     9
 10
8936.851137
 20
340175.0
 30
0.0
 11
8943.517803
 21
340175.0
 31
0.0
 12
8940.18447
 22
340155.0
 32
0.0
 13
8940.18447
 23
340155.0
 33
0.0
  0
TEXT
  5
53
  8
0
  6
BYBLOCK
 62
    11
 10
8957.68447
 20
340330.833333
 30
0.0
 40
35.0
  1
445
 50
90.0
  0
POINT
  5
54
  8
DEFPOINTS
  6
BYBLOCK
 62
     0
 10
8898.591184
 20
340600.0
 30
0.0
  0
POINT
  5
55
  8
DEFPOINTS
  6
BYBLOCK
 62
     0
 10
8045.0
 20
340155.0
 30
0.0
  0
POINT
  5
56
  8
DEFPOINTS
  6
BYBLOCK
 62
     0
 10
8940.18447
 20
340155.0
 30
0.0
  0
ENDBLK
  5
58
  8
0
  0
ENDSEC
  0
SECTION
  2
ENTITIES
  0
DIMENSION
  5
20
  8
TEAM-MAS
  2
*D0
 10
45.0
 20
82.765376
 30
-10.0
 11
98.821595
 21
82.765376
 31
-10.0
 12
-8000.0
 22
-340000.0
 32
-10.0
 70
   128
 13
-45.0
 23
155.0
 33
0.0
 14
45.0
 24
155.0
 34
0.0
  0
DIMENSION
  5
2E
  8
TEAM-MAS
  2
*D1
 10
908.591183
 20
631.639334
 30
0.0
 11
8.591253
 21
631.639334
 31
0.0
 12
-8000.0
 22
-340000.0
 32
0.0
 13
-891.408677
 23
580.000002
 33
0.0
 14
908.591183
 24
580.000002
 34
0.0
1001
ACAD
1000
DSTYLE
1002
{
1070
    78
1070
     0
1070
    40
1040
1.0
1002
}
  0
TEXT
  5
3C
  8
TEAM-TXT
 10
-770.380057
 20
537.76114
 30
0.0
 40
30.0
  1
team 111411
 41
0.8
 51
15.0
  7
TEAM
  0
LINE
  5
3F
  8
TEAM-HIDE
 10
-387.85034
 20
-0.00046
 30
0.0
 11
-882.49954
 21
-0.00168
 31
0.0
  0
ARC
  5
42
  8
TEAM-BODY
 10
119.517024
 20
848.179483
 30
0.0
 40
947.743854
 50
201.352128
 51
222.79266
  0
LINE
  5
44
  8
TEAM-BODY
 10
846.982184
 20
600.0
 30
0.0
 11
-847.182184
 21
600.0
 31
0.0
1001
ROASYM
1002
{
1000
WAS
1002
{
1000
AS
1000

1000

1070
    -1
1070
    -1
1000
WAS
1000
WA
1000

1070
     1
1070
     1
1010
0.0
1020
0.0
1030
0.0
1010
0.0
1020
90.2776
1030
0.0
1002
}
1000
WWV
1002
{
1000
AS
1000

1000

1070
    -1
1070
    -1
1000
WWV
1000
WW
1000

1070
     1
1070
     1
1010
0.0
1020
0.0
1030
0.0
1010
-600.0
1020
750.0
1030
0.0
1002
}
1000
WKR
1002
{
1000
AS
1000

1000

1070
    -1
1070
    -1
1000
WKR
1000
WK
1000

1070
     1
1070
     1
1010
0.0
1020
0.0
1030
0.0
1010
-447.0
1020
750.0
1030
0.0
1002
}
1002
}
  0
LINE
  5
46
  8
TEAM-BODY
 10
-891.408677
 20
580.000002
 30
0.0
 11
908.591183
 21
580.000002
 31
0.0
  0
ARC
  5
47
  8
TEAM-BODY
 10
-875.164091
 20
460.000002
 30
0.0
 40
120.0
 50
21.052681
 51
90.0
  0
LINE
  5
48
  8
TEAM-BODY
 10
-847.182184
 20
600.0
 30
0.0
 11
-891.408677
 21
600.0
 31
0.0
  0
LINE
  5
49
  8
TEAM-BODY
 10
-891.408677
 20
600.0
 30
0.0
 11
-891.408677
 21
590.000001
 31
0.0
  0
LINE
  5
4A
  8
TEAM-BODY
 10
-891.408677
 20
590.000001
 30
0.0
 11
-891.408677
 21
580.000002
 31
0.0
  0
DIMENSION
  5
4B
  8
TEAM-MAS
  2
*D2
 10
940.18447
 20
155.0
 30
0.0
 11
940.18447
 21
377.5
 31
0.0
 12
-8000.0
 22
-340000.0
 32
0.0
 13
898.591184
 23
600.0
 33
0.0
 14
45.0
 24
155.0
 34
0.0
 50
90.0
  0
LINE
  5
59
  8
TEAM-BODY
 10
898.591184
 20
600.0
 30
0.0
 11
846.982184
 21
600.0
 31
0.0
  0
ARC
  5
5A
  8
TEAM-BODY
 10
872.346456
 20
460.000002
 30
0.0
 40
120.0
 50
90.0
 51
158.947319
  0
LINE
  5
5B
  8
TEAM-BODY
 10
908.591183
 20
580.000002
 30
0.0
 11
908.591183
 21
590.000001
 31
0.0
  0
ARC
  5
5C
  8
TEAM-BODY
 10
898.591191
 20
590.000008
 30
0.0
 40
9.999992
 50
359.999957
 51
90.000043
  0
ARC
  5
5D
  8
TEAM-BODY
 10
-122.334659
 20
848.179483
 30
0.0
 40
947.743854
 50
317.20734
 51
338.647872
  0
LINE
  5
5E
  8
TEAM-DET3
 10
427.5
 20
187.0781
 30
0.0
 11
427.5
 21
201.61668
 31
0.0
  0
LINE
  5
60
  8
TEAM-HIDE
 10
-357.15088
 20
-0.00046
 30
0.0
 11
357.15088
 21
0.00046
 31
0.0
  0
LINE
  5
61
  8
TEAM-DET3
 10
-317.5
 20
194.67058
 30
0.0
 11
-317.5
 21
209.20914
 31
0.0
  0
ARC
  5
62
  8
TEAM-DET3
 10
-333.49976
 20
186.67008
 30
0.0
 40
3.0
 50
90.0
 51
130.527954
  0
ARC
  5
63
  8
TEAM-DET3
 10
-338.49976
 20
190.28946
 30
0.0
 40
3.0
 50
270.0
 51
310.511505
  0
ARC
  5
64
  8
TEAM-DET3
 10
-333.49976
 20
208.8295
 30
0.0
 40
3.0
 50
90.0
 51
130.527954
  0
ARC
  5
65
  8
TEAM-DET3
 10
-338.49976
 20
212.4489
 30
0.0
 40
3.0
 50
270.0
 51
310.495087
  0
ARC
  5
66
  8
TEAM-DET3
 10
-338.49976
 20
214.82926
 30
0.0
 40
3.0
 50
270.0
 51
310.495087
  0
ARC
  5
67
  8
TEAM-DET3
 10
-333.49976
 20
211.20866
 30
0.0
 40
3.0
 50
90.0
 51
130.515305
  0
LINE
  5
68
  8
TEAM-DET3
 10
-338.49976
 20
188.8356
 30
0.0
 11
-338.49976
 21
207.903
 31
0.0
  0
LINE
  5
69
  8
TEAM-DET3
 10
-333.49976
 20
191.21598
 30
0.0
 11
-333.49976
 21
210.28336
 31
0.0
  0
LINE
  5
6A
  8
TEAM-DET3
 10
-338.49976
 20
168.62474
 30
0.0
 11
-338.49976
 21
187.28928
 31
0.0
  0
LINE
  5
6B
  8
TEAM-DET3
 10
-322.5
 20
211.82878
 30
0.0
 11
-333.49976
 21
211.82878
 31
0.0
  0
LINE
  5
6C
  8
TEAM-DET3
 10
-322.5
 20
214.20914
 30
0.0
 11
-333.49976
 21
214.20914
 31
0.0
  0
LINE
  5
6D
  8
TEAM-DET3
 10
-322.5
 20
189.67058
 30
0.0
 11
-333.49976
 21
189.67058
 31
0.0
  0
ARC
  5
6E
  8
TEAM-DET3
 10
-372.5
 20
166.0402
 30
0.0
 40
8.0
 50
0.0
 51
22.401295
  0
ARC
  5
6F
  8
TEAM-DET3
 10
-359.2505
 20
51.35758
 30
0.0
 40
4.75
 50
270.0
 51
0.0
  0
LINE
  5
70
  8
TEAM-DET3
 10
-338.49976
 20
156.476
 30
0.0
 11
-354.49952
 21
79.53508
 31
0.0
  0
LINE
  5
71
  8
TEAM-DET3
 10
-338.49976
 20
156.476
 30
0.0
 11
-338.49976
 21
168.62474
 31
0.0
  0
LINE
  5
72
  8
TEAM-DET3
 10
-364.49952
 20
142.35734
 30
0.0
 11
-364.49952
 21
166.0402
 31
0.0
  0
LINE
  5
73
  8
TEAM-DET3
 10
-354.49952
 20
51.35758
 30
0.0
 11
-354.49952
 21
79.53508
 31
0.0
  0
LINE
  5
74
  8
TEAM-DET3
 10
-367.5
 20
46.6066
 30
0.0
 11
-367.5
 21
10.80034
 31
0.0
  0
LINE
  5
75
  8
TEAM-DET3
 10
-357.15088
 20
10.80034
 30
0.0
 11
-357.15088
 21
-0.00046
 31
0.0
  0
ARC
  5
76
  8
TEAM-DET3
 10
-322.5
 20
194.67058
 30
0.0
 40
5.0
 50
270.0
 51
0.0
  0
ARC
  5
77
  8
TEAM-DET3
 10
-322.5
 20
209.20914
 30
0.0
 40
5.0
 50
0.0
 51
90.0
  0
ARC
  5
78
  8
TEAM-DET3
 10
-322.5
 20
206.82878
 30
0.0
 40
5.0
 50
0.0
 51
90.0
  0
CIRCLE
  5
79
  8
TEAM-INSP
 10
0.0
 20
0.0
 30
0.0
 40
10.0
  0
LINE
  5
7B
  8
TEAM-AXE
 10
0.0
 20
179.999956
 30
0.0
 11
0.0
 21
145.0
 31
0.0
  0
LINE
  5
7E
  8
TEAM-KAN
 10
45.0
 20
155.0
 30
0.0
 11
50.0
 21
165.0
 31
0.0
  0
LINE
  5
80
  8
TEAM-KAN
 10
-45.0
 20
155.0
 30
0.0
 11
45.0
 21
155.0
 31
0.0
  0
LINE
  5
81
  8
TEAM-KAN
 10
-50.0
 20
165.0
 30
0.0
 11
-45.0
 21
155.0
 31
0.0
  0
LINE
  5
82
  8
TEAM-AXE
 10
361.92016
 20
158.44774
 30
0.0
 11
383.07984
 21
158.44774
 31
0.0
  0
LINE
  5
83
  8
TEAM-AXE
 10
372.5
 20
204.2363
 30
0.0
 11
372.5
 21
-5.35018
 31
0.0
  0
LINE
  5
84
  8
TEAM-DET3
 10
376.56066
 20
19.01352
 30
0.0
 11
376.56066
 21
39.01414
 31
0.0
  0
LINE
  5
85
  8
TEAM-DET3
 10
368.44054
 20
39.01414
 30
0.0
 11
368.44054
 21
19.01352
 31
0.0
  0
LINE
  5
86
  8
TEAM-DET3
 10
376.56066
 20
19.01352
 30
0.0
 11
377.5
 21
14.0007
 31
0.0
  0
LINE
  5
87
  8
TEAM-DET3
 10
368.44054
 20
19.01352
 30
0.0
 11
367.5
 21
14.0007
 31
0.0
  0
LINE
  5
88
  8
TEAM-DET3
 10
372.16674
 20
10.80124
 30
0.0
 11
377.5
 21
14.0007
 31
0.0
  0
LINE
  5
89
  8
TEAM-DET3
 10
367.5
 20
14.0007
 30
0.0
 11
372.83324
 21
10.80124
 31
0.0
  0
ARC
  5
8A
  8
TEAM-DET3
 10
372.5
 20
158.44774
 30
0.0
 40
8.0
 50
11.818751
 51
171.18338
  0
ARC
  5
8B
  8
TEAM-DET3
 10
333.49976
 20
179.07762
 30
0.0
 40
3.0
 50
49.472038
 51
90.0
  0
ARC
  5
8C
  8
TEAM-DET3
 10
338.49976
 20
182.697
 30
0.0
 40
3.0
 50
229.480255
 51
270.0
  0
ARC
  5
8D
  8
TEAM-DET3
 10
333.49976
 20
201.23704
 30
0.0
 40
3.0
 50
49.472038
 51
90.0
  0
ARC
  5
8E
  8
TEAM-DET3
 10
338.49976
 20
204.85642
 30
0.0
 40
3.0
 50
229.501129
 51
270.0
  0
ARC
  5
8F
  8
TEAM-DET3
 10
338.49976
 20
207.2368
 30
0.0
 40
3.0
 50
229.501129
 51
270.0
  0
ARC
  5
90
  8
TEAM-DET3
 10
333.49976
 20
203.61618
 30
0.0
 40
3.0
 50
49.501122
 51
90.0
  0
ARC
  5
91
  8
TEAM-DET3
 10
322.5
 20
187.0781
 30
0.0
 40
5.0
 50
180.0
 51
270.0
  0
ARC
  5
92
  8
TEAM-DET3
 10
322.5
 20
201.61668
 30
0.0
 40
5.0
 50
90.0
 51
180.0
  0
ARC
  5
93
  8
TEAM-DET3
 10
322.5
 20
199.2363
 30
0.0
 40
5.0
 50
90.0
 51
180.0
  0
ARC
  5
94
  8
TEAM-DET3
 10
411.50024
 20
179.07762
 30
0.0
 40
3.0
 50
90.0
 51
130.527954
  0
ARC
  5
95
  8
TEAM-DET3
 10
406.50024
 20
182.697
 30
0.0
 40
3.0
 50
270.0
 51
310.498871
  0
ARC
  5
96
  8
TEAM-DET3
 10
411.50024
 20
201.23704
 30
0.0
 40
3.0
 50
90.0
 51
130.527954
  0
ARC
  5
97
  8
TEAM-DET3
 10
406.50024
 20
204.85642
 30
0.0
 40
3.0
 50
270.0
 51
310.498871
  0
ARC
  5
98
  8
TEAM-DET3
 10
406.50024
 20
207.2368
 30
0.0
 40
3.0
 50
270.0
 51
310.498871
  0
ARC
  5
99
  8
TEAM-DET3
 10
411.50024
 20
203.61618
 30
0.0
 40
3.0
 50
90.0
 51
130.51973
  0
LINE
  5
9A
  8
TEAM-DET3
 10
411.50024
 20
183.62352
 30
0.0
 11
411.50024
 21
202.6909
 31
0.0
  0
LINE
  5
9B
  8
TEAM-DET3
 10
406.50024
 20
181.24314
 30
0.0
 11
406.50024
 21
200.31052
 31
0.0
  0
LINE
  5
9C
  8
TEAM-DET3
 10
338.49976
 20
181.24314
 30
0.0
 11
338.49976
 21
200.31052
 31
0.0
  0
LINE
  5
9D
  8
TEAM-DET3
 10
333.49976
 20
183.62352
 30
0.0
 11
333.49976
 21
202.6909
 31
0.0
  0
LINE
  5
9E
  8
TEAM-DET3
 10
338.49976
 20
158.99064
 30
0.0
 11
338.49976
 21
179.69712
 31
0.0
  0
LINE
  5
9F
  8
TEAM-DET3
 10
322.5
 20
204.2363
 30
0.0
 11
333.49976
 21
204.2363
 31
0.0
  0
LINE
  5
A0
  8
TEAM-DET3
 10
322.5
 20
206.61668
 30
0.0
 11
333.49976
 21
206.61668
 31
0.0
  0
LINE
  5
A1
  8
TEAM-DET3
 10
322.5
 20
182.0781
 30
0.0
 11
333.49976
 21
182.0781
 31
0.0
  0
LINE
  5
A2
  8
TEAM-DET3
 10
317.5
 20
187.0781
 30
0.0
 11
317.5
 21
201.61668
 31
0.0
  0
LINE
  5
A3
  8
TEAM-DET3
 10
406.50024
 20
160.77104
 30
0.0
 11
406.50024
 21
179.69774
 31
0.0
  0
LINE
  5
A4
  8
TEAM-DET3
 10
422.5
 20
204.2363
 30
0.0
 11
411.50024
 21
204.2363
 31
0.0
  0
LINE
  5
A5
  8
TEAM-DET3
 10
422.5
 20
206.61668
 30
0.0
 11
411.50024
 21
206.61668
 31
0.0
  0
LINE
  5
A6
  8
TEAM-DET3
 10
422.5
 20
182.0781
 30
0.0
 11
411.50024
 21
182.0781
 31
0.0
  0
LINE
  5
A7
  8
TEAM-DET3
 10
406.50024
 20
204.2363
 30
0.0
 11
338.49976
 21
204.2363
 31
0.0
  0
LINE
  5
A8
  8
TEAM-DET3
 10
406.50024
 20
201.85594
 30
0.0
 11
338.49976
 21
201.85594
 31
0.0
  0
ARC
  5
A9
  8
TEAM-DET3
 10
372.5
 20
158.44774
 30
0.0
 40
8.0
 50
171.18338
 51
180.0
  0
ARC
  5
AA
  8
TEAM-DET3
 10
385.7495
 20
43.76512
 30
0.0
 40
4.75
 50
270.0
 51
0.0
  0
ARC
  5
AB
  8
TEAM-DET3
 10
359.25048
 20
43.76512
 30
0.0
 40
4.75
 50
180.0
 51
270.0
  0
ARC
  5
AC
  8
TEAM-DET3
 10
372.5
 20
158.44774
 30
0.0
 40
8.0
 50
0.0
 51
11.818751
  0
LINE
  5
AD
  8
TEAM-DET3
 10
406.50024
 20
148.88352
 30
0.0
 11
406.50024
 21
160.77104
 31
0.0
  0
LINE
  5
AE
  8
TEAM-DET3
 10
406.50024
 20
148.88352
 30
0.0
 11
390.50048
 21
71.9426
 31
0.0
  0
LINE
  5
AF
  8
TEAM-DET3
 10
338.49976
 20
148.88352
 30
0.0
 11
354.4995
 21
71.9426
 31
0.0
  0
LINE
  5
B0
  8
TEAM-DET3
 10
338.49976
 20
148.88352
 30
0.0
 11
338.49976
 21
158.99064
 31
0.0
  0
LINE
  5
B1
  8
TEAM-DET3
 10
364.4995
 20
134.76486
 30
0.0
 11
364.4995
 21
158.44774
 31
0.0
  0
LINE
  5
B2
  8
TEAM-DET3
 10
380.50048
 20
134.76486
 30
0.0
 11
380.50048
 21
158.44774
 31
0.0
  0
LINE
  5
B3
  8
TEAM-DET3
 10
364.4995
 20
134.76486
 30
0.0
 11
380.50048
 21
134.76486
 31
0.0
  0
LINE
  5
B4
  8
TEAM-DET3
 10
390.50048
 20
43.76512
 30
0.0
 11
390.50048
 21
71.9426
 31
0.0
  0
LINE
  5
B5
  8
TEAM-DET3
 10
354.4995
 20
43.76512
 30
0.0
 11
354.4995
 21
71.9426
 31
0.0
  0
LINE
  5
B6
  8
TEAM-DET3
 10
367.5
 20
39.01414
 30
0.0
 11
367.5
 21
10.80124
 31
0.0
  0
LINE
  5
B7
  8
TEAM-DET3
 10
359.25048
 20
39.01414
 30
0.0
 11
385.7495
 21
39.01414
 31
0.0
  0
LINE
  5
B8
  8
TEAM-DET3
 10
377.5
 20
10.80124
 30
0.0
 11
377.5
 21
39.01414
 31
0.0
  0
LINE
  5
B9
  8
TEAM-DET3
 10
357.15088
 20
0.00046
 30
0.0
 11
387.85034
 21
0.00046
 31
0.0
  0
LINE
  5
BA
  8
TEAM-DET3
 10
357.15088
 20
10.80124
 30
0.0
 11
387.85034
 21
10.80124
 31
0.0
  0
LINE
  5
BB
  8
TEAM-DET3
 10
377.5
 20
14.0007
 30
0.0
 11
367.5
 21
14.0007
 31
0.0
  0
LINE
  5
BC
  8
TEAM-DET3
 10
357.15088
 20
10.80124
 30
0.0
 11
357.15088
 21
0.00046
 31
0.0
  0
LINE
  5
BD
  8
TEAM-DET3
 10
387.85034
 20
10.80124
 30
0.0
 11
387.85034
 21
0.00046
 31
0.0
  0
LINE
  5
BE
  8
TEAM-AXE
 10
0.0
 20
600.0
 30
0.0
 11
0.0
 21
132.81174
 31
0.0
  0
ARC
  5
BF
  8
TEAM-DET3
 10
422.5
 20
187.0781
 30
0.0
 40
5.0
 50
270.0
 51
0.0
  0
ARC
  5
C0
  8
TEAM-DET3
 10
422.5
 20
201.61668
 30
0.0
 40
5.0
 50
0.0
 51
90.0
  0
ARC
  5
C1
  8
TEAM-DET3
 10
422.5
 20
199.2363
 30
0.0
 40
5.0
 50
0.0
 51
90.0
  0
ARC
  5
C2
  8
TEAM-BODY
 10
-487.112482
 20
285.0
 30
0.0
 40
120.0
 50
222.239504
 51
270.0
  0
LINE
  5
C3
  8
TEAM-AXE
 10
-372.5
 20
211.82878
 30
0.0
 11
-372.5
 21
-5.3514
 31
0.0
  0
LINE
  5
C4
  8
TEAM-DET3
 10
-422.5
 20
211.82878
 30
0.0
 11
-411.50024
 21
211.82878
 31
0.0
  0
LINE
  5
C5
  8
TEAM-DET3
 10
-422.5
 20
214.20914
 30
0.0
 11
-411.50024
 21
214.20914
 31
0.0
  0
LINE
  5
C6
  8
TEAM-DET3
 10
-422.5
 20
189.67058
 30
0.0
 11
-411.50024
 21
189.67058
 31
0.0
  0
ARC
  5
C7
  8
TEAM-DET3
 10
-422.5
 20
194.67058
 30
0.0
 40
5.0
 50
180.0
 51
270.0
  0
ARC
  5
C8
  8
TEAM-DET3
 10
-422.5
 20
209.20914
 30
0.0
 40
5.0
 50
90.0
 51
180.0
  0
ARC
  5
C9
  8
TEAM-DET3
 10
-422.5
 20
206.82878
 30
0.0
 40
5.0
 50
90.0
 51
180.0
  0
LINE
  5
CA
  8
TEAM-DET3
 10
-427.5
 20
194.67058
 30
0.0
 11
-427.5
 21
209.20914
 31
0.0
  0
LINE
  5
CB
  8
TEAM-DET3
 10
-368.50006
 20
46.6066
 30
0.0
 11
-368.50006
 21
19.32816
 31
0.0
  0
LINE
  5
CC
  8
TEAM-DET3
 10
-376.49994
 20
19.3367
 30
0.0
 11
-376.49994
 21
46.6066
 31
0.0
  0
LINE
  5
CD
  8
TEAM-DET3
 10
-376.49994
 20
19.3367
 30
0.0
 11
-377.5
 21
13.9998
 31
0.0
  0
LINE
  5
CE
  8
TEAM-DET3
 10
-372.16676
 20
10.80034
 30
0.0
 11
-377.5
 21
13.9998
 31
0.0
  0
ARC
  5
CF
  8
TEAM-DET3
 10
-411.50024
 20
186.67008
 30
0.0
 40
3.0
 50
49.472038
 51
90.0
  0
ARC
  5
D0
  8
TEAM-DET3
 10
-406.50024
 20
190.28946
 30
0.0
 40
3.0
 50
229.48848
 51
270.0
  0
ARC
  5
D1
  8
TEAM-DET3
 10
-411.50024
 20
208.8295
 30
0.0
 40
3.0
 50
49.472038
 51
90.0
  0
ARC
  5
D2
  8
TEAM-DET3
 10
-406.50024
 20
212.4489
 30
0.0
 40
3.0
 50
229.504883
 51
270.0
  0
ARC
  5
D3
  8
TEAM-DET3
 10
-406.50024
 20
214.82926
 30
0.0
 40
3.0
 50
229.504883
 51
270.0
  0
ARC
  5
D4
  8
TEAM-DET3
 10
-411.50024
 20
211.20866
 30
0.0
 40
3.0
 50
49.484684
 51
90.0
  0
LINE
  5
D5
  8
TEAM-DET3
 10
-411.50024
 20
191.21598
 30
0.0
 11
-411.50024
 21
210.28336
 31
0.0
  0
LINE
  5
D6
  8
TEAM-DET3
 10
-406.50024
 20
188.8356
 30
0.0
 11
-406.50024
 21
207.903
 31
0.0
  0
LINE
  5
D7
  8
TEAM-DET3
 10
-406.50024
 20
169.81156
 30
0.0
 11
-406.50024
 21
187.2902
 31
0.0
  0
ARC
  5
D8
  8
TEAM-DET3
 10
-385.74952
 20
51.35758
 30
0.0
 40
4.75
 50
180.0
 51
270.0
  0
ARC
  5
D9
  8
TEAM-DET3
 10
-372.5
 20
166.0402
 30
0.0
 40
8.0
 50
155.597656
 51
180.0
  0
LINE
  5
DA
  8
TEAM-DET3
 10
-406.50024
 20
156.476
 30
0.0
 11
-406.50024
 21
169.81156
 31
0.0
  0
LINE
  5
DB
  8
TEAM-DET3
 10
-406.50024
 20
156.476
 30
0.0
 11
-390.5005
 21
79.53508
 31
0.0
  0
LINE
  5
DC
  8
TEAM-DET3
 10
-380.5005
 20
142.35734
 30
0.0
 11
-380.5005
 21
166.0402
 31
0.0
  0
LINE
  5
DD
  8
TEAM-DET3
 10
-390.5005
 20
51.35758
 30
0.0
 11
-390.5005
 21
79.53508
 31
0.0
  0
LINE
  5
DE
  8
TEAM-DET3
 10
-377.5
 20
10.80034
 30
0.0
 11
-377.5
 21
46.6066
 31
0.0
  0
LINE
  5
DF
  8
TEAM-DET3
 10
-387.85034
 20
10.80034
 30
0.0
 11
-387.85034
 21
-0.00046
 31
0.0
  0
LINE
  5
E0
  8
TEAM-BODY
 10
-487.112482
 20
165.0
 30
0.0
 11
484.294847
 21
165.0
 31
0.0
  0
LINE
  5
E1
  8
TEAM-AXE
 10
-361.92016
 20
166.0402
 30
0.0
 11
-383.07984
 21
166.0402
 31
0.0
  0
LINE
  5
E2
  8
TEAM-DET3
 10
-368.50006
 20
19.32816
 30
0.0
 11
-367.5
 21
13.9998
 31
0.0
  0
LINE
  5
E3
  8
TEAM-DET3
 10
-367.5
 20
13.9998
 30
0.0
 11
-372.83326
 21
10.80034
 31
0.0
  0
ARC
  5
E4
  8
TEAM-DET3
 10
-372.5
 20
166.0402
 30
0.0
 40
8.0
 50
22.401295
 51
155.597656
  0
LINE
  5
E5
  8
TEAM-DET3
 10
-406.50024
 20
211.82878
 30
0.0
 11
-338.49976
 21
211.82878
 31
0.0
  0
LINE
  5
E6
  8
TEAM-DET3
 10
-406.50024
 20
209.4484
 30
0.0
 11
-338.49976
 21
209.4484
 31
0.0
  0
LINE
  5
E7
  8
TEAM-DET3
 10
-364.49952
 20
142.35734
 30
0.0
 11
-380.5005
 21
142.35734
 31
0.0
  0
LINE
  5
E8
  8
TEAM-DET3
 10
-359.2505
 20
46.6066
 30
0.0
 11
-385.74952
 21
46.6066
 31
0.0
  0
LINE
  5
E9
  8
TEAM-DET3
 10
-357.15088
 20
-0.00046
 30
0.0
 11
-387.85034
 21
-0.00046
 31
0.0
  0
LINE
  5
EA
  8
TEAM-DET3
 10
-357.15088
 20
10.80034
 30
0.0
 11
-387.85034
 21
10.80034
 31
0.0
  0
LINE
  5
EB
  8
TEAM-DET3
 10
-377.5
 20
13.9998
 30
0.0
 11
-367.5
 21
13.9998
 31
0.0
  0
ARC
  5
EC
  8
TEAM-BODY
 10
484.294847
 20
285.0
 30
0.0
 40
120.0
 50
270.0
 51
317.760496
  0
LINE
  5
ED
  8
TEAM-HIDE
 10
387.85034
 20
0.00046
 30
0.0
 11
817.5003
 21
0.00046
 31
0.0
  0
ENDSEC
  0
EOF
