  0
SECTION
  2
HEADER
  9
$ACADVER
  1
AC1009
  9
$INSBASE
 10
0.0
 20
0.0
 30
0.0
  9
$EXTMIN
 10
-904.798362
 20
-454.838428
 30
0.0
  9
$EXTMAX
 10
1013.791356
 20
554.97929
 30
0.000005
  9
$LIMMIN
 10
-904.798362
 20
-454.838428
  9
$LIMMAX
 10
1013.791356
 20
554.97929
  9
$ORTHOMODE
 70
     1
  9
$REGENMODE
 70
     1
  9
$FILLMODE
 70
     1
  9
$QTEXTMODE
 70
     0
  9
$MIRRTEXT
 70
     0
  9
$DRAGMODE
 70
     2
  9
$LTSCALE
 40
50.0
  9
$OSMODE
 70
     7
  9
$ATTMODE
 70
     1
  9
$TEXTSIZE
 40
200.0
  9
$TRACEWID
 40
1.0
  9
$TEXTSTYLE
  7
STANDARD
  9
$CLAYER
  8
TEAM-MAS
  9
$CELTYPE
  6
BYLAYER
  9
$CECOLOR
 62
   256
  9
$DIMSCALE
 40
0.0
  9
$DIMASZ
 40
20.0
  9
$DIMEXO
 40
10.0
  9
$DIMDLI
 40
1.0
  9
$DIMRND
 40
0.0
  9
$DIMDLE
 40
0.0
  9
$DIMEXE
 40
1.0
  9
$DIMTP
 40
0.0
  9
$DIMTM
 40
0.0
  9
$DIMTXT
 40
35.0
  9
$DIMCEN
 40
1.0
  9
$DIMTSZ
 40
0.0
  9
$DIMTOL
 70
     0
  9
$DIMLIM
 70
     0
  9
$DIMTIH
 70
     0
  9
$DIMTOH
 70
     0
  9
$DIMSE1
 70
     0
  9
$DIMSE2
 70
     0
  9
$DIMTAD
 70
     0
  9
$DIMZIN
 70
     0
  9
$DIMBLK
  1

  9
$DIMASO
 70
     1
  9
$DIMSHO
 70
     0
  9
$DIMPOST
  1

  9
$DIMAPOST
  1

  9
$DIMALT
 70
     0
  9
$DIMALTD
 70
     2
  9
$DIMALTF
 40
25.4
  9
$DIMLFAC
 40
1.0
  9
$DIMTOFL
 70
     0
  9
$DIMTVP
 40
0.0
  9
$DIMTIX
 70
     0
  9
$DIMSOXD
 70
     0
  9
$DIMSAH
 70
     0
  9
$DIMBLK1
  1

  9
$DIMBLK2
  1

  9
$DIMSTYLE
  2
TEAM
  9
$DIMCLRD
 70
     9
  9
$DIMCLRE
 70
     9
  9
$DIMCLRT
 70
    11
  9
$DIMTFAC
 40
1.0
  9
$DIMGAP
 40
15.0
  9
$LUNITS
 70
     2
  9
$LUPREC
 70
     1
  9
$SKETCHINC
 40
1.0
  9
$FILLETRAD
 40
50.0
  9
$AUNITS
 70
     0
  9
$AUPREC
 70
     0
  9
$MENU
  1
ROPLANS
  9
$ELEVATION
 40
0.0
  9
$PELEVATION
 40
0.0
  9
$THICKNESS
 40
0.0
  9
$LIMCHECK
 70
     0
  9
$BLIPMODE
 70
     1
  9
$CHAMFERA
 40
0.0
  9
$CHAMFERB
 40
0.0
  9
$SKPOLY
 70
     0
  9
$TDCREATE
 40
2450392.957851
  9
$TDUPDATE
 40
2455817.684121
  9
$TDINDWG
 40
2.638353
  9
$TDUSRTIMER
 40
2.638353
  9
$USRTIMER
 70
     1
  9
$ANGBASE
 50
0.0
  9
$ANGDIR
 70
     0
  9
$PDMODE
 70
     0
  9
$PDSIZE
 40
0.0
  9
$PLINEWID
 40
0.0
  9
$COORDS
 70
     2
  9
$SPLFRAME
 70
     0
  9
$SPLINETYPE
 70
     6
  9
$SPLINESEGS
 70
     8
  9
$ATTDIA
 70
     0
  9
$ATTREQ
 70
     0
  9
$HANDLING
 70
     1
  9
$HANDSEED
  5
24C
  9
$SURFTAB1
 70
    36
  9
$SURFTAB2
 70
    36
  9
$SURFTYPE
 70
     6
  9
$SURFU
 70
     6
  9
$SURFV
 70
     6
  9
$UCSNAME
  2

  9
$UCSORG
 10
0.0
 20
0.0
 30
0.0
  9
$UCSXDIR
 10
1.0
 20
0.0
 30
0.0
  9
$UCSYDIR
 10
0.0
 20
1.0
 30
0.0
  9
$PUCSNAME
  2

  9
$PUCSORG
 10
0.0
 20
0.0
 30
0.0
  9
$PUCSXDIR
 10
1.0
 20
0.0
 30
0.0
  9
$PUCSYDIR
 10
0.0
 20
1.0
 30
0.0
  9
$USERI1
 70
     0
  9
$USERI2
 70
     0
  9
$USERI3
 70
     0
  9
$USERI4
 70
     0
  9
$USERI5
 70
     0
  9
$USERR1
 40
0.0
  9
$USERR2
 40
0.0
  9
$USERR3
 40
0.0
  9
$USERR4
 40
0.0
  9
$USERR5
 40
0.0
  9
$WORLDVIEW
 70
     1
  9
$SHADEDGE
 70
     1
  9
$SHADEDIF
 70
    70
  9
$TILEMODE
 70
     1
  9
$MAXACTVP
 70
    16
  9
$PLIMCHECK
 70
     0
  9
$PEXTMIN
 10
-0.805942
 20
0.005011
 30
0.0
  9
$PEXTMAX
 10
20.250094
 20
11.356329
 30
0.0
  9
$PLIMMIN
 10
0.0
 20
0.0
  9
$PLIMMAX
 10
12.0
 20
9.0
  9
$UNITMODE
 70
     0
  9
$VISRETAIN
 70
     0
  9
$PLINEGEN
 70
     0
  9
$PSLTSCALE
 70
     0
  0
ENDSEC
  0
SECTION
  2
TABLES
  0
TABLE
  2
VPORT
 70
     2
  0
VPORT
  2
*ACTIVE
 70
     0
 10
0.0
 20
0.0
 11
1.0
 21
1.0
 12
54.496497
 22
50.070431
 13
0.0
 23
0.0
 14
1.0
 24
1.0
 15
50.0
 25
50.0
 16
0.0
 26
0.0
 36
1.0
 17
0.0
 27
0.0
 37
0.0
 40
1016.148863
 41
1.903766
 42
50.0
 43
0.0
 44
0.0
 50
0.0
 51
0.0
 71
     0
 72
   100
 73
     1
 74
     1
 75
     0
 76
     0
 77
     0
 78
     0
  0
ENDTAB
  0
TABLE
  2
LTYPE
 70
     2
  0
LTYPE
  2
CONTINUOUS
 70
     0
  3
Solid Line
 72
    65
 73
     0
 40
0.0
  0
LTYPE
  2
31
 70
     0
  3

 72
    65
 73
     4
 40
2.1
 49
1.5
 49
-0.3
 49
0.0
 49
-0.3
  0
ENDTAB
  0
TABLE
  2
LAYER
 70
     9
  0
LAYER
  2
0
 70
     0
 62
     7
  6
CONTINUOUS
  0
LAYER
  2
DEFPOINTS
 70
     0
 62
     7
  6
CONTINUOUS
  0
LAYER
  2
TEAM-BODY
 70
     0
 62
     2
  6
CONTINUOUS
  0
LAYER
  2
TEAM-AXE
 70
     0
 62
    10
  6
31
  0
LAYER
  2
TEAM-MAS
 70
     0
 62
     9
  6
CONTINUOUS
  0
LAYER
  2
TEAM-TXT
 70
     0
 62
    11
  6
CONTINUOUS
  0
LAYER
  2
TEAM-DET1
 70
     0
 62
     4
  6
CONTINUOUS
  0
LAYER
  2
TEAM-KAN
 70
     0
 62
     6
  6
CONTINUOUS
  0
LAYER
  2
TEAM-INSP
 70
     0
 62
     5
  6
CONTINUOUS
  0
ENDTAB
  0
TABLE
  2
STYLE
 70
     2
  0
STYLE
  2
STANDARD
 70
     0
 40
0.0
 41
1.0
 50
0.0
 71
     0
 42
200.0
  3
txt
  4

  0
STYLE
  2
TEAM
 70
     0
 40
0.0
 41
0.8
 50
15.0
 71
     0
 42
7.0
  3
ROMANS.shx
  4

  0
ENDTAB
  0
TABLE
  2
VIEW
 70
     0
  0
ENDTAB
  0
TABLE
  2
UCS
 70
     0
  0
ENDTAB
  0
TABLE
  2
APPID
 70
     1
  0
APPID
  2
ACAD
 70
     0
  0
ENDTAB
  0
TABLE
  2
DIMSTYLE
 70
     1
  0
DIMSTYLE
  2
TEAM
 70
     0
  3

  4

  5

  6

  7

 40
0.0
 41
20.0
 42
10.0
 43
1.0
 44
1.0
 45
0.0
 46
0.0
 47
0.0
 48
0.0
140
35.0
141
1.0
142
0.0
143
25.4
144
1.0
145
0.0
146
1.0
147
15.0
 71
     0
 72
     0
 73
     0
 74
     0
 75
     0
 76
     0
 77
     0
 78
     0
170
     0
171
     2
172
     0
173
     0
174
     0
175
     0
176
     9
177
     9
178
    11
  0
ENDTAB
  0
ENDSEC
  0
SECTION
  2
BLOCKS
  0
BLOCK
  8
0
  2
$MODEL_SPACE
 70
     0
 10
0.0
 20
0.0
 30
0.0
  3
$MODEL_SPACE
  1

  0
ENDBLK
  5
1D5
  8
0
  0
BLOCK
 67
     1
  8
0
  2
$PAPER_SPACE
 70
     0
 10
0.0
 20
0.0
 30
0.0
  3
$PAPER_SPACE
  1

  0
ENDBLK
  5
1D3
 67
     1
  8
0
  0
BLOCK
  8
0
  2
*D0
 70
     1
 10
0.0
 20
0.0
 30
0.0
  3
*D0
  1

  0
LINE
  5
83
  8
0
  6
BYBLOCK
 62
     9
 10
4000.0
 20
44040.000015
 30
0.0
 11
4000.0
 21
44493.125647
 31
0.0
  0
LINE
  5
84
  8
0
  6
BYBLOCK
 62
     9
 10
4899.999939
 20
44436.999954
 30
0.0
 11
4899.999939
 21
44493.125647
 31
0.0
  0
LINE
  5
85
  8
0
  6
BYBLOCK
 62
     9
 10
4020.0
 20
44492.125647
 30
0.0
 11
4394.166636
 21
44492.125647
 31
0.0
  0
LINE
  5
86
  8
0
  6
BYBLOCK
 62
     9
 10
4879.999939
 20
44492.125647
 30
0.0
 11
4505.833303
 21
44492.125647
 31
0.0
  0
SOLID
  5
87
  8
0
  6
BYBLOCK
 62
     9
 10
4020.0
 20
44495.458981
 30
0.0
 11
4020.0
 21
44488.792314
 31
0.0
 12
4000.0
 22
44492.125647
 32
0.0
 13
4000.0
 23
44492.125647
 33
0.0
  0
SOLID
  5
88
  8
0
  6
BYBLOCK
 62
     9
 10
4879.999939
 20
44495.458981
 30
0.0
 11
4879.999939
 21
44488.792314
 31
0.0
 12
4899.999939
 22
44492.125647
 32
0.0
 13
4899.999939
 23
44492.125647
 33
0.0
  0
TEXT
  5
89
  8
0
  6
BYBLOCK
 62
    11
 10
4409.166636
 20
44474.625647
 30
0.0
 40
35.0
  1
900
  0
POINT
  5
8A
  8
DEFPOINTS
  6
BYBLOCK
 62
     0
 10
4000.0
 20
44030.000015
 30
0.0
  0
POINT
  5
8B
  8
DEFPOINTS
  6
BYBLOCK
 62
     0
 10
4899.999939
 20
44426.999954
 30
0.0
  0
POINT
  5
8C
  8
DEFPOINTS
  6
BYBLOCK
 62
     0
 10
4899.999939
 20
44492.125647
 30
0.0
  0
ENDBLK
  5
8E
  8
0
  0
BLOCK
  8
0
  2
*D1
 70
     1
 10
0.0
 20
0.0
 30
0.0
  3
*D1
  1

  0
LINE
  5
59
  8
0
  6
BYBLOCK
 62
     9
 10
4886.999939
 20
44449.999954
 30
0.0
 11
4948.886251
 21
44449.999954
 31
0.0
  0
LINE
  5
5A
  8
0
  6
BYBLOCK
 62
     9
 10
4010.0
 20
44030.000015
 30
0.0
 11
4948.886251
 21
44030.000015
 31
0.0
  0
LINE
  5
5B
  8
0
  6
BYBLOCK
 62
     9
 10
4947.886251
 20
44429.999954
 30
0.0
 11
4947.886251
 21
44298.749985
 31
0.0
  0
LINE
  5
5C
  8
0
  6
BYBLOCK
 62
     9
 10
4947.886251
 20
44050.000015
 30
0.0
 11
4947.886251
 21
44181.249985
 31
0.0
  0
SOLID
  5
5D
  8
0
  6
BYBLOCK
 62
     9
 10
4944.552918
 20
44429.999954
 30
0.0
 11
4951.219585
 21
44429.999954
 31
0.0
 12
4947.886251
 22
44449.999954
 32
0.0
 13
4947.886251
 23
44449.999954
 33
0.0
  0
SOLID
  5
5E
  8
0
  6
BYBLOCK
 62
     9
 10
4944.552918
 20
44050.000015
 30
0.0
 11
4951.219585
 21
44050.000015
 31
0.0
 12
4947.886251
 22
44030.000015
 32
0.0
 13
4947.886251
 23
44030.000015
 33
0.0
  0
TEXT
  5
5F
  8
0
  6
BYBLOCK
 62
    11
 10
4965.386251
 20
44196.249985
 30
0.0
 40
35.0
  1
420
 50
90.0
  0
POINT
  5
60
  8
DEFPOINTS
  6
BYBLOCK
 62
     0
 10
4876.999939
 20
44449.999954
 30
0.0
  0
POINT
  5
61
  8
DEFPOINTS
  6
BYBLOCK
 62
     0
 10
4000.0
 20
44030.000015
 30
0.0
  0
POINT
  5
62
  8
DEFPOINTS
  6
BYBLOCK
 62
     0
 10
4947.886251
 20
44030.000015
 30
0.0
  0
ENDBLK
  5
64
  8
0
  0
BLOCK
  8
0
  2
*D2
 70
     1
 10
0.0
 20
0.0
 30
0.0
  3
*D2
  1

  0
LINE
  5
67
  8
0
  6
BYBLOCK
 62
     9
 10
4010.0
 20
44030.000015
 30
0.0
 11
4948.886251
 21
44030.000015
 31
0.0
  0
LINE
  5
68
  8
0
  6
BYBLOCK
 62
     9
 10
4886.999939
 20
43550.000046
 30
0.0
 11
4948.886251
 21
43550.000046
 31
0.0
  0
LINE
  5
69
  8
0
  6
BYBLOCK
 62
     9
 10
4947.886251
 20
44010.000015
 30
0.0
 11
4947.886251
 21
43848.750031
 31
0.0
  0
LINE
  5
6A
  8
0
  6
BYBLOCK
 62
     9
 10
4947.886251
 20
43570.000046
 30
0.0
 11
4947.886251
 21
43731.250031
 31
0.0
  0
SOLID
  5
6B
  8
0
  6
BYBLOCK
 62
     9
 10
4944.552918
 20
44010.000015
 30
0.0
 11
4951.219585
 21
44010.000015
 31
0.0
 12
4947.886251
 22
44030.000015
 32
0.0
 13
4947.886251
 23
44030.000015
 33
0.0
  0
SOLID
  5
6C
  8
0
  6
BYBLOCK
 62
     9
 10
4944.552918
 20
43570.000046
 30
0.0
 11
4951.219585
 21
43570.000046
 31
0.0
 12
4947.886251
 22
43550.000046
 32
0.0
 13
4947.886251
 23
43550.000046
 33
0.0
  0
TEXT
  5
6D
  8
0
  6
BYBLOCK
 62
    11
 10
4965.386251
 20
43746.250031
 30
0.0
 40
35.0
  1
480
 50
90.0
  0
POINT
  5
6E
  8
DEFPOINTS
  6
BYBLOCK
 62
     0
 10
4000.0
 20
44030.000015
 30
0.0
  0
POINT
  5
6F
  8
DEFPOINTS
  6
BYBLOCK
 62
     0
 10
4876.999939
 20
43550.000046
 30
0.0
  0
POINT
  5
70
  8
DEFPOINTS
  6
BYBLOCK
 62
     0
 10
4947.886251
 20
43550.000046
 30
0.0
  0
ENDBLK
  5
72
  8
0
  0
BLOCK
  8
0
  2
*D3
 70
     1
 10
0.0
 20
0.0
 30
0.0
  3
*D3
  1

  0
LINE
  5
75
  8
0
  6
BYBLOCK
 62
     9
 10
4886.999939
 20
44449.999954
 30
0.0
 11
4997.255701
 21
44449.999954
 31
0.0
  0
LINE
  5
76
  8
0
  6
BYBLOCK
 62
     9
 10
4886.999939
 20
43550.000046
 30
0.0
 11
4997.255701
 21
43550.000046
 31
0.0
  0
LINE
  5
77
  8
0
  6
BYBLOCK
 62
     9
 10
4996.255701
 20
44429.999954
 30
0.0
 11
4996.255701
 21
44055.833333
 31
0.0
  0
LINE
  5
78
  8
0
  6
BYBLOCK
 62
     9
 10
4996.255701
 20
43570.000046
 30
0.0
 11
4996.255701
 21
43944.166667
 31
0.0
  0
SOLID
  5
79
  8
0
  6
BYBLOCK
 62
     9
 10
4992.922368
 20
44429.999954
 30
0.0
 11
4999.589035
 21
44429.999954
 31
0.0
 12
4996.255701
 22
44449.999954
 32
0.0
 13
4996.255701
 23
44449.999954
 33
0.0
  0
SOLID
  5
7A
  8
0
  6
BYBLOCK
 62
     9
 10
4992.922368
 20
43570.000046
 30
0.0
 11
4999.589035
 21
43570.000046
 31
0.0
 12
4996.255701
 22
43550.000046
 32
0.0
 13
4996.255701
 23
43550.000046
 33
0.0
  0
TEXT
  5
7B
  8
0
  6
BYBLOCK
 62
    11
 10
5013.755701
 20
43959.166667
 30
0.0
 40
35.0
  1
900
 50
90.0
  0
POINT
  5
7C
  8
DEFPOINTS
  6
BYBLOCK
 62
     0
 10
4876.999939
 20
44449.999954
 30
0.0
  0
POINT
  5
7D
  8
DEFPOINTS
  6
BYBLOCK
 62
     0
 10
4876.999939
 20
43550.000046
 30
0.0
  0
POINT
  5
7E
  8
DEFPOINTS
  6
BYBLOCK
 62
     0
 10
4996.255701
 20
43550.000046
 30
0.0
  0
ENDBLK
  5
80
  8
0
  0
BLOCK
  8
0
  2
*D4
 70
     1
 10
0.0
 20
0.0
 30
0.0
  3
*D4
  1

  0
LINE
  5
22
  8
0
  6
BYBLOCK
 62
     9
 10
4899.999939
 20
44436.999954
 30
0.0
 11
4899.999939
 21
44538.414864
 31
0.0
  0
LINE
  5
23
  8
0
  6
BYBLOCK
 62
     9
 10
3100.000049
 20
44436.999954
 30
0.0
 11
3100.000049
 21
44538.414864
 31
0.0
  0
LINE
  5
24
  8
0
  6
BYBLOCK
 62
     9
 10
4879.999939
 20
44537.414864
 30
0.0
 11
4067.499994
 21
44537.414864
 31
0.0
  0
LINE
  5
25
  8
0
  6
BYBLOCK
 62
     9
 10
3120.000049
 20
44537.414864
 30
0.0
 11
3932.499994
 21
44537.414864
 31
0.0
  0
SOLID
  5
26
  8
0
  6
BYBLOCK
 62
     9
 10
4879.999939
 20
44540.748197
 30
0.0
 11
4879.999939
 21
44534.08153
 31
0.0
 12
4899.999939
 22
44537.414864
 32
0.0
 13
4899.999939
 23
44537.414864
 33
0.0
  0
SOLID
  5
27
  8
0
  6
BYBLOCK
 62
     9
 10
3120.000049
 20
44540.748197
 30
0.0
 11
3120.000049
 21
44534.08153
 31
0.0
 12
3100.000049
 22
44537.414864
 32
0.0
 13
3100.000049
 23
44537.414864
 33
0.0
  0
TEXT
  5
28
  8
0
  6
BYBLOCK
 62
    11
 10
3947.499994
 20
44519.914864
 30
0.0
 40
35.0
  1
1800
  0
POINT
  5
29
  8
DEFPOINTS
  6
BYBLOCK
 62
     0
 10
4899.999939
 20
44426.999954
 30
0.0
  0
POINT
  5
2B
  8
DEFPOINTS
  6
BYBLOCK
 62
     0
 10
3100.000049
 20
44426.999954
 30
0.0
  0
POINT
  5
2C
  8
DEFPOINTS
  6
BYBLOCK
 62
     0
 10
3100.000049
 20
44537.414864
 30
0.0
  0
ENDBLK
  5
2E
  8
0
  0
ENDSEC
  0
SECTION
  2
ENTITIES
  0
DIMENSION
  5
20
  8
TEAM-MAS
  2
*D4
 10
-899.999951
 20
537.414864
 30
0.0
 11
-0.000006
 21
537.414864
 31
0.0
 12
-4000.0
 22
-44000.0
 32
0.0
 13
899.999939
 23
426.999954
 33
0.0
 14
-899.999951
 24
426.999954
 34
0.0
1001
ACAD
1000
DSTYLE
1002
{
1070
    40
1040
1.0
1002
}
  0
LINE
  5
2F
  8
TEAM-BODY
 10
-876.999955
 20
449.999954
 30
0.0
 11
876.999939
 21
449.999954
 31
0.0
  0
LINE
  5
31
  8
TEAM-BODY
 10
876.999939
 20
-449.999954
 30
0.0
 11
-876.999955
 21
-449.999954
 31
0.0
  0
LINE
  5
32
  8
TEAM-BODY
 10
-876.999955
 20
443.999954
 30
0.0
 11
876.999939
 21
443.999954
 31
0.0
  0
LINE
  5
33
  8
TEAM-BODY
 10
876.999939
 20
-443.999954
 30
0.0
 11
-876.999955
 21
-443.999954
 31
0.0
  0
ARC
  5
34
  8
TEAM-BODY
 10
-366.232422
 20
74.222671
 30
0.0
 40
109.999992
 50
91.83226
 51
179.825012
  0
ARC
  5
35
  8
TEAM-BODY
 10
-366.232422
 20
-14.222641
 30
0.0
 40
109.999992
 50
180.174973
 51
268.167755
  0
ARC
  5
36
  8
TEAM-BODY
 10
0.007222
 20
-92745.699904
 30
0.0
 40
93148.198638
 50
89.579784
 51
90.420223
  0
ARC
  5
37
  8
TEAM-BODY
 10
-0.006836
 20
92805.802624
 30
0.0
 40
93148.303891
 50
269.579784
 51
270.420216
  0
LINE
  5
38
  8
TEAM-AXE
 10
839.999939
 20
30.000015
 30
0.0
 11
-839.999955
 21
30.000015
 31
0.0
  0
LINE
  5
3B
  8
TEAM-AXE
 10
899.999939
 20
0.000015
 30
0.0
 11
-899.999951
 21
0.000015
 31
0.0
  0
ARC
  5
3C
  8
TEAM-DET1
 10
0.007222
 20
-92745.777866
 30
0.0
 40
93135.7766
 50
89.579788
 51
90.420218
  0
ARC
  5
3E
  8
TEAM-DET1
 10
-0.006836
 20
92805.880587
 30
0.0
 40
93135.881854
 50
269.579789
 51
270.420211
  0
ARC
  5
3F
  8
TEAM-BODY
 10
-679.106903
 20
-112.490219
 30
0.0
 40
512.499939
 50
90.453415
 51
100.610245
  0
ARC
  5
40
  8
TEAM-BODY
 10
-679.106903
 20
172.488296
 30
0.0
 40
512.499939
 50
259.389709
 51
269.54657
  0
ARC
  5
41
  8
TEAM-BODY
 10
-876.999955
 20
426.999954
 30
0.0
 40
22.999998
 50
90.0
 51
180.0
  0
ARC
  5
42
  8
TEAM-BODY
 10
-876.999955
 20
-426.999954
 30
0.0
 40
22.999998
 50
180.0
 51
270.0
  0
LINE
  5
43
  8
TEAM-BODY
 10
-899.999951
 20
-426.999954
 30
0.0
 11
-899.999951
 21
426.999954
 31
0.0
  0
LINE
  5
44
  8
TEAM-BODY
 10
-893.999947
 20
-426.999954
 30
0.0
 11
-893.999947
 21
426.999954
 31
0.0
  0
ARC
  5
45
  8
TEAM-BODY
 10
-756.440384
 20
300.330093
 30
0.0
 40
92.500015
 50
100.610306
 51
173.7341
  0
ARC
  5
46
  8
TEAM-BODY
 10
1201.204979
 20
198.345092
 30
0.0
 40
2052.654881
 50
176.869933
 51
179.65652
  0
ARC
  5
47
  8
TEAM-BODY
 10
-756.440384
 20
-240.330063
 30
0.0
 40
92.500015
 50
186.267105
 51
259.38974
  0
ARC
  5
48
  8
TEAM-BODY
 10
1201.126604
 20
-138.349155
 30
0.0
 40
2052.576507
 50
180.343381
 51
183.130127
  0
ARC
  5
49
  8
TEAM-BODY
 10
14159.998352
 20
30.001968
 30
0.0
 40
15012.499023
 50
179.310532
 51
180.689484
  0
ARC
  5
4A
  8
TEAM-BODY
 10
-876.999955
 20
426.999954
 30
0.0
 40
16.999998
 50
90.0
 51
180.0
  0
ARC
  5
4B
  8
TEAM-BODY
 10
-876.999955
 20
-426.999954
 30
0.0
 40
16.999998
 50
180.0
 51
270.0
  0
ARC
  5
4C
  8
TEAM-BODY
 10
14123.69757
 20
30.001968
 30
0.0
 40
14599.999023
 50
179.825134
 51
180.174866
  0
ARC
  5
4D
  8
TEAM-DET1
 10
-679.106903
 20
-112.490219
 30
0.0
 40
499.999969
 50
90.453384
 51
100.610184
  0
ARC
  5
4E
  8
TEAM-DET1
 10
-679.106903
 20
172.488296
 30
0.0
 40
499.999969
 50
259.389771
 51
269.5466
  0
ARC
  5
4F
  8
TEAM-DET1
 10
1214.032143
 20
198.344856
 30
0.0
 40
2052.982079
 50
176.908529
 51
179.660763
  0
ARC
  5
50
  8
TEAM-DET1
 10
-756.440384
 20
300.330093
 30
0.0
 40
79.999992
 50
100.610016
 51
173.733368
  0
ARC
  5
51
  8
TEAM-DET1
 10
1214.032765
 20
-138.348813
 30
0.0
 40
2052.982701
 50
180.339125
 51
183.091358
  0
ARC
  5
52
  8
TEAM-DET1
 10
-756.440384
 20
-240.330063
 30
0.0
 40
79.999992
 50
186.266617
 51
259.389984
  0
ARC
  5
53
  8
TEAM-DET1
 10
14159.998352
 20
30.001968
 30
0.0
 40
14999.999023
 50
179.310516
 51
180.689484
  0
TEXT
  5
54
  8
TEAM-TXT
 10
-801.416675
 20
288.581088
 30
0.0
 40
30.0
  1
team 111441
 41
0.8
 51
15.0
  7
TEAM
  0
DIMENSION
  5
57
  8
TEAM-MAS
  2
*D1
 10
947.886251
 20
30.000015
 30
0.0
 11
947.886251
 21
239.999985
 31
0.0
 12
-4000.0
 22
-44000.0
 32
0.0
 13
876.999939
 23
449.999954
 33
0.0
 14
0.0
 24
30.000015
 34
0.0
 50
90.0
1001
ACAD
1000
DSTYLE
1002
{
1070
    40
1040
1.0
1002
}
  0
DIMENSION
  5
65
  8
TEAM-MAS
  2
*D2
 10
947.886251
 20
-449.999954
 30
0.0
 11
947.886251
 21
-209.99997
 31
0.0
 12
-4000.0
 22
-44000.0
 32
0.0
 13
0.0
 23
30.000015
 33
0.0
 14
876.999939
 24
-449.999954
 34
0.0
 50
90.0
1001
ACAD
1000
DSTYLE
1002
{
1070
    40
1040
1.0
1002
}
  0
DIMENSION
  5
73
  8
TEAM-MAS
  2
*D3
 10
996.255701
 20
-449.999954
 30
0.0
 11
996.255701
 21
0.0
 31
0.0
 12
-4000.0
 22
-44000.0
 32
0.0
 13
876.999939
 23
449.999954
 33
0.0
 14
876.999939
 24
-449.999954
 34
0.0
 50
90.0
1001
ACAD
1000
DSTYLE
1002
{
1070
    40
1040
1.0
1002
}
  0
DIMENSION
  5
81
  8
TEAM-MAS
  2
*D0
 10
899.999939
 20
492.125647
 30
0.0
 11
449.99997
 21
492.125647
 31
0.0
 12
-4000.0
 22
-44000.0
 32
0.0
 13
0.0
 23
30.000015
 33
0.0
 14
899.999939
 24
426.999954
 34
0.0
1001
ACAD
1000
DSTYLE
1002
{
1070
    40
1040
1.0
1002
}
  0
CIRCLE
  5
8F
  8
TEAM-INSP
 10
0.0
 20
0.0
 30
0.0
 40
7.1
  0
ARC
  5
91
  8
TEAM-BODY
 10
876.999939
 20
-426.999954
 30
0.0
 40
22.999998
 50
270.0
 51
0.0
  0
ARC
  5
92
  8
TEAM-BODY
 10
876.999939
 20
426.999954
 30
0.0
 40
22.999998
 50
0.0
 51
90.0
  0
LINE
  5
93
  8
TEAM-BODY
 10
899.999939
 20
426.999954
 30
0.0
 11
899.999939
 21
-426.999954
 31
0.0
  0
LINE
  5
94
  8
TEAM-BODY
 10
55.359375
 20
-21.878891
 30
0.0
 11
-55.359375
 21
-21.880844
 31
0.0
  0
LINE
  5
95
  8
TEAM-BODY
 10
-79.359375
 20
57.673843
 30
0.0
 11
-79.359375
 21
2.119156
 31
0.0
  0
LINE
  5
96
  8
TEAM-BODY
 10
55.359375
 20
81.675796
 30
0.0
 11
-55.359375
 21
81.673843
 31
0.0
  0
LINE
  5
97
  8
TEAM-BODY
 10
79.359375
 20
57.675796
 30
0.0
 11
79.359375
 21
2.121109
 31
0.0
  0
LINE
  5
98
  8
TEAM-BODY
 10
893.999939
 20
426.999954
 30
0.0
 11
893.999939
 21
-426.999954
 31
0.0
  0
ARC
  5
99
  8
TEAM-BODY
 10
-55.359375
 20
2.119156
 30
0.0
 40
23.999998
 50
180.0
 51
270.0
  0
ARC
  5
9A
  8
TEAM-BODY
 10
-55.359375
 20
57.673843
 30
0.0
 40
23.999998
 50
90.0
 51
180.0
  0
ARC
  5
9B
  8
TEAM-BODY
 10
55.359375
 20
57.675796
 30
0.0
 40
23.999998
 50
0.0
 51
90.0
  0
ARC
  5
9C
  8
TEAM-BODY
 10
55.359375
 20
2.121109
 30
0.0
 40
23.999998
 50
270.0
 51
0.0
  0
ARC
  5
9D
  8
TEAM-BODY
 10
0.001561
 20
-13181.901497
 30
0.0
 40
13371.183434
 50
88.415417
 51
91.584589
  0
ARC
  5
9E
  8
TEAM-BODY
 10
366.232361
 20
74.222671
 30
0.0
 40
109.999992
 50
0.17498
 51
88.167732
  0
ARC
  5
9F
  8
TEAM-BODY
 10
-14123.698914
 20
29.998062
 30
0.0
 40
14599.999023
 50
359.825134
 51
0.174872
  0
ARC
  5
A0
  8
TEAM-BODY
 10
366.232361
 20
-14.222641
 30
0.0
 40
109.999992
 50
271.832245
 51
359.825012
  0
ARC
  5
A1
  8
TEAM-BODY
 10
-0.00008
 20
13241.925566
 30
0.0
 40
13371.20613
 50
268.415412
 51
271.584562
  0
ARC
  5
A2
  8
TEAM-BODY
 10
756.440368
 20
300.330093
 30
0.0
 40
92.500015
 50
6.267113
 51
79.389694
  0
ARC
  5
A3
  8
TEAM-BODY
 10
-1201.124828
 20
198.349244
 30
0.0
 40
2052.574668
 50
0.343378
 51
3.130128
  0
ARC
  5
A4
  8
TEAM-BODY
 10
679.106872
 20
-112.488266
 30
0.0
 40
512.499939
 50
79.389709
 51
89.546585
  0
ARC
  5
A5
  8
TEAM-BODY
 10
-14159.999695
 20
29.998062
 30
0.0
 40
15012.499023
 50
359.310547
 51
0.689483
  0
ARC
  5
A6
  8
TEAM-BODY
 10
756.440368
 20
-240.330063
 30
0.0
 40
92.500015
 50
280.610321
 51
353.7341
  0
ARC
  5
A7
  8
TEAM-BODY
 10
876.999939
 20
426.999954
 30
0.0
 40
16.999998
 50
0.0
 51
90.0
  0
ARC
  5
A8
  8
TEAM-BODY
 10
876.999939
 20
-426.999954
 30
0.0
 40
16.999998
 50
270.0
 51
0.0
  0
ARC
  5
A9
  8
TEAM-BODY
 10
-1201.199136
 20
-138.34508
 30
0.0
 40
2052.648976
 50
356.869921
 51
359.656519
  0
ARC
  5
AA
  8
TEAM-BODY
 10
679.106872
 20
172.49025
 30
0.0
 40
512.499939
 50
270.4534
 51
280.610229
  0
ARC
  5
AB
  8
TEAM-DET1
 10
55.382324
 20
57.720718
 30
0.0
 40
29.999998
 50
359.906738
 51
90.092316
  0
ARC
  5
AC
  8
TEAM-DET1
 10
-0.00293
 20
34318.904983
 30
0.0
 40
34231.230469
 50
269.908661
 51
270.091339
  0
ARC
  5
AD
  8
TEAM-DET1
 10
-55.382325
 20
57.718765
 30
0.0
 40
29.999998
 50
89.907677
 51
180.093246
  0
ARC
  5
AE
  8
TEAM-DET1
 10
-17093.749695
 20
29.8965
 30
0.0
 40
17008.388672
 50
359.908875
 51
0.091112
  0
ARC
  5
AF
  8
TEAM-DET1
 10
17093.748352
 20
29.898453
 30
0.0
 40
17008.386719
 50
179.90889
 51
180.09111
  0
ARC
  5
B0
  8
TEAM-DET1
 10
55.382324
 20
2.076187
 30
0.0
 40
29.999998
 50
269.907684
 51
0.093255
  0
ARC
  5
B1
  8
TEAM-DET1
 10
0.002929
 20
-34259.173141
 30
0.0
 40
34231.292969
 50
89.908684
 51
90.091324
  0
ARC
  5
B2
  8
TEAM-DET1
 10
-55.382325
 20
2.074234
 30
0.0
 40
29.999998
 50
179.906738
 51
270.092316
  0
LINE
  5
B3
  8
TEAM-AXE
 10
0.0
 20
-449.999954
 30
0.0
 11
0.0
 21
449.999954
 31
0.0
  0
CIRCLE
  5
B4
  8
TEAM-KAN
 10
0.0
 20
30.000015
 30
0.0
 40
26.0
  0
LINE
  5
B6
  8
TEAM-AXE
 10
34.384765
 20
-314.800735
 30
0.0
 11
-34.384766
 21
-314.800735
 31
0.0
  0
POLYLINE
  5
B7
  8
TEAM-DET1
 66
     1
 10
0.0
 20
0.0
 30
0.0
  0
VERTEX
  5
1DB
  8
TEAM-DET1
 10
7.717773
 20
-317.855423
 30
0.0
  0
VERTEX
  5
1DC
  8
TEAM-DET1
 10
8.410644
 20
-317.828079
 30
0.0
  0
VERTEX
  5
1DD
  8
TEAM-DET1
 10
9.209961
 20
-317.792923
 30
0.0
  0
VERTEX
  5
1DE
  8
TEAM-DET1
 10
10.14209
 20
-317.746048
 30
0.0
  0
VERTEX
  5
1DF
  8
TEAM-DET1
 10
11.238769
 20
-317.685501
 30
0.0
  0
VERTEX
  5
1E0
  8
TEAM-DET1
 10
12.541015
 20
-317.60347
 30
0.0
  0
VERTEX
  5
1E1
  8
TEAM-DET1
 10
14.095703
 20
-317.488235
 30
0.0
  0
VERTEX
  5
1E2
  8
TEAM-DET1
 10
15.954101
 20
-317.326126
 30
0.0
  0
VERTEX
  5
1E3
  8
TEAM-DET1
 10
18.143554
 20
-317.091751
 30
0.0
  0
VERTEX
  5
1E4
  8
TEAM-DET1
 10
20.620117
 20
-316.749954
 30
0.0
  0
VERTEX
  5
1E5
  8
TEAM-DET1
 10
23.150879
 20
-316.255814
 30
0.0
  0
VERTEX
  5
1E6
  8
TEAM-DET1
 10
25.191894
 20
-315.591751
 30
0.0
  0
VERTEX
  5
1E7
  8
TEAM-DET1
 10
26.0
 20
-314.800735
 30
0.0
  0
SEQEND
  5
1E8
  8
TEAM-DET1
  0
POLYLINE
  5
B8
  8
TEAM-DET1
 66
     1
 10
0.0
 20
0.0
 30
0.0
  0
VERTEX
  5
1E9
  8
TEAM-DET1
 10
-15.953614
 20
-312.273392
 30
0.0
  0
VERTEX
  5
1EA
  8
TEAM-DET1
 10
-18.143555
 20
-312.507767
 30
0.0
  0
VERTEX
  5
1EB
  8
TEAM-DET1
 10
-20.620117
 20
-312.851517
 30
0.0
  0
VERTEX
  5
1EC
  8
TEAM-DET1
 10
-23.150391
 20
-313.343704
 30
0.0
  0
VERTEX
  5
1ED
  8
TEAM-DET1
 10
-25.191407
 20
-314.007767
 30
0.0
  0
VERTEX
  5
1EE
  8
TEAM-DET1
 10
-26.0
 20
-314.800735
 30
0.0
  0
VERTEX
  5
1EF
  8
TEAM-DET1
 10
-25.191407
 20
-315.591751
 30
0.0
  0
VERTEX
  5
1F0
  8
TEAM-DET1
 10
-23.150391
 20
-316.257767
 30
0.0
  0
VERTEX
  5
1F1
  8
TEAM-DET1
 10
-20.620117
 20
-316.749954
 30
0.0
  0
VERTEX
  5
1F2
  8
TEAM-DET1
 10
-18.143555
 20
-317.091751
 30
0.0
  0
VERTEX
  5
1F3
  8
TEAM-DET1
 10
-15.953614
 20
-317.326126
 30
0.0
  0
VERTEX
  5
1F4
  8
TEAM-DET1
 10
-14.095703
 20
-317.488235
 30
0.0
  0
VERTEX
  5
1F5
  8
TEAM-DET1
 10
-12.541016
 20
-317.60347
 30
0.0
  0
VERTEX
  5
1F6
  8
TEAM-DET1
 10
-11.23877
 20
-317.685501
 30
0.0
  0
VERTEX
  5
1F7
  8
TEAM-DET1
 10
-10.14209
 20
-317.746048
 30
0.0
  0
VERTEX
  5
1F8
  8
TEAM-DET1
 10
-9.209961
 20
-317.792923
 30
0.0
  0
VERTEX
  5
1F9
  8
TEAM-DET1
 10
-8.410645
 20
-317.828079
 30
0.0
  0
VERTEX
  5
1FA
  8
TEAM-DET1
 10
-7.717774
 20
-317.855423
 30
0.0
  0
VERTEX
  5
1FB
  8
TEAM-DET1
 10
-7.112793
 20
-317.87886
 30
0.0
  0
VERTEX
  5
1FC
  8
TEAM-DET1
 10
-6.579102
 20
-317.896439
 30
0.0
  0
VERTEX
  5
1FD
  8
TEAM-DET1
 10
-6.104492
 20
-317.91011
 30
0.0
  0
VERTEX
  5
1FE
  8
TEAM-DET1
 10
-5.680176
 20
-317.921829
 30
0.0
  0
VERTEX
  5
1FF
  8
TEAM-DET1
 10
-5.297364
 20
-317.933548
 30
0.0
  0
VERTEX
  5
200
  8
TEAM-DET1
 10
-4.950196
 20
-317.94136
 30
0.0
  0
VERTEX
  5
201
  8
TEAM-DET1
 10
-4.633301
 20
-317.949173
 30
0.0
  0
VERTEX
  5
202
  8
TEAM-DET1
 10
-4.342774
 20
-317.955032
 30
0.0
  0
VERTEX
  5
203
  8
TEAM-DET1
 10
-4.074219
 20
-317.960892
 30
0.0
  0
VERTEX
  5
204
  8
TEAM-DET1
 10
-3.826172
 20
-317.964798
 30
0.0
  0
VERTEX
  5
205
  8
TEAM-DET1
 10
-3.594727
 20
-317.968704
 30
0.0
  0
VERTEX
  5
206
  8
TEAM-DET1
 10
-2.804688
 20
-317.980423
 30
0.0
  0
VERTEX
  5
207
  8
TEAM-DET1
 10
-2.166992
 20
-317.988235
 30
0.0
  0
VERTEX
  5
208
  8
TEAM-DET1
 10
-1.382813
 20
-317.996048
 30
0.0
  0
VERTEX
  5
209
  8
TEAM-DET1
 10
-0.506836
 20
-317.999954
 30
0.0
  0
VERTEX
  5
20A
  8
TEAM-DET1
 10
0.506836
 20
-317.999954
 30
0.0
  0
VERTEX
  5
20B
  8
TEAM-DET1
 10
1.626953
 20
-317.994095
 30
0.0
  0
VERTEX
  5
20C
  8
TEAM-DET1
 10
2.804687
 20
-317.980423
 30
0.0
  0
VERTEX
  5
20D
  8
TEAM-DET1
 10
3.594726
 20
-317.968704
 30
0.0
  0
VERTEX
  5
20E
  8
TEAM-DET1
 10
3.826172
 20
-317.964798
 30
0.0
  0
VERTEX
  5
20F
  8
TEAM-DET1
 10
4.074218
 20
-317.960892
 30
0.0
  0
VERTEX
  5
210
  8
TEAM-DET1
 10
4.342773
 20
-317.955032
 30
0.0
  0
VERTEX
  5
211
  8
TEAM-DET1
 10
4.6333
 20
-317.949173
 30
0.0
  0
VERTEX
  5
212
  8
TEAM-DET1
 10
4.950195
 20
-317.94136
 30
0.0
  0
VERTEX
  5
213
  8
TEAM-DET1
 10
5.297851
 20
-317.933548
 30
0.0
  0
VERTEX
  5
214
  8
TEAM-DET1
 10
5.680175
 20
-317.921829
 30
0.0
  0
VERTEX
  5
215
  8
TEAM-DET1
 10
6.10498
 20
-317.91011
 30
0.0
  0
VERTEX
  5
216
  8
TEAM-DET1
 10
6.579101
 20
-317.896439
 30
0.0
  0
VERTEX
  5
217
  8
TEAM-DET1
 10
7.112793
 20
-317.87886
 30
0.0
  0
VERTEX
  5
218
  8
TEAM-DET1
 10
7.717773
 20
-317.855423
 30
0.0
  0
SEQEND
  5
219
  8
TEAM-DET1
  0
POLYLINE
  5
B9
  8
TEAM-DET1
 66
     1
 10
0.0
 20
0.0
 30
0.0
  0
VERTEX
  5
21A
  8
TEAM-DET1
 10
26.0
 20
-314.800735
 30
0.0
  0
VERTEX
  5
21B
  8
TEAM-DET1
 10
25.191406
 20
-314.007767
 30
0.0
  0
VERTEX
  5
21C
  8
TEAM-DET1
 10
23.15039
 20
-313.343704
 30
0.0
  0
VERTEX
  5
21D
  8
TEAM-DET1
 10
20.620117
 20
-312.851517
 30
0.0
  0
VERTEX
  5
21E
  8
TEAM-DET1
 10
18.143554
 20
-312.507767
 30
0.0
  0
VERTEX
  5
21F
  8
TEAM-DET1
 10
15.953613
 20
-312.273392
 30
0.0
  0
VERTEX
  5
220
  8
TEAM-DET1
 10
14.095703
 20
-312.111282
 30
0.0
  0
VERTEX
  5
221
  8
TEAM-DET1
 10
12.541015
 20
-311.996048
 30
0.0
  0
VERTEX
  5
222
  8
TEAM-DET1
 10
11.238769
 20
-311.914017
 30
0.0
  0
VERTEX
  5
223
  8
TEAM-DET1
 10
10.14209
 20
-311.85347
 30
0.0
  0
VERTEX
  5
224
  8
TEAM-DET1
 10
9.209961
 20
-311.808548
 30
0.0
  0
VERTEX
  5
225
  8
TEAM-DET1
 10
8.410644
 20
-311.771439
 30
0.0
  0
VERTEX
  5
226
  8
TEAM-DET1
 10
7.717773
 20
-311.744095
 30
0.0
  0
VERTEX
  5
227
  8
TEAM-DET1
 10
7.112793
 20
-311.72261
 30
0.0
  0
VERTEX
  5
228
  8
TEAM-DET1
 10
6.579101
 20
-311.703079
 30
0.0
  0
VERTEX
  5
229
  8
TEAM-DET1
 10
6.104492
 20
-311.689407
 30
0.0
  0
VERTEX
  5
22A
  8
TEAM-DET1
 10
5.680175
 20
-311.677689
 30
0.0
  0
VERTEX
  5
22B
  8
TEAM-DET1
 10
5.297363
 20
-311.667923
 30
0.0
  0
VERTEX
  5
22C
  8
TEAM-DET1
 10
4.950195
 20
-311.658157
 30
0.0
  0
VERTEX
  5
22D
  8
TEAM-DET1
 10
4.6333
 20
-311.652298
 30
0.0
  0
VERTEX
  5
22E
  8
TEAM-DET1
 10
4.342773
 20
-311.644485
 30
0.0
  0
VERTEX
  5
22F
  8
TEAM-DET1
 10
4.074218
 20
-311.640579
 30
0.0
  0
VERTEX
  5
230
  8
TEAM-DET1
 10
3.826172
 20
-311.63472
 30
0.0
  0
VERTEX
  5
231
  8
TEAM-DET1
 10
3.594726
 20
-311.630814
 30
0.0
  0
VERTEX
  5
232
  8
TEAM-DET1
 10
2.804687
 20
-311.619095
 30
0.0
  0
VERTEX
  5
233
  8
TEAM-DET1
 10
2.166992
 20
-311.611282
 30
0.0
  0
VERTEX
  5
234
  8
TEAM-DET1
 10
1.382812
 20
-311.605423
 30
0.0
  0
VERTEX
  5
235
  8
TEAM-DET1
 10
0.404297
 20
-311.601517
 30
0.0
  0
VERTEX
  5
236
  8
TEAM-DET1
 10
-0.610352
 20
-311.601517
 30
0.0
  0
VERTEX
  5
237
  8
TEAM-DET1
 10
-1.754883
 20
-311.607376
 30
0.0
  0
VERTEX
  5
238
  8
TEAM-DET1
 10
-2.633789
 20
-311.617142
 30
0.0
  0
VERTEX
  5
239
  8
TEAM-DET1
 10
-3.378907
 20
-311.626907
 30
0.0
  0
VERTEX
  5
23A
  8
TEAM-DET1
 10
-4.342774
 20
-311.644485
 30
0.0
  0
VERTEX
  5
23B
  8
TEAM-DET1
 10
-4.633301
 20
-311.652298
 30
0.0
  0
VERTEX
  5
23C
  8
TEAM-DET1
 10
-4.950196
 20
-311.658157
 30
0.0
  0
VERTEX
  5
23D
  8
TEAM-DET1
 10
-5.297364
 20
-311.667923
 30
0.0
  0
VERTEX
  5
23E
  8
TEAM-DET1
 10
-5.680176
 20
-311.677689
 30
0.0
  0
VERTEX
  5
23F
  8
TEAM-DET1
 10
-6.104981
 20
-311.689407
 30
0.0
  0
VERTEX
  5
240
  8
TEAM-DET1
 10
-6.579102
 20
-311.703079
 30
0.0
  0
VERTEX
  5
241
  8
TEAM-DET1
 10
-7.112793
 20
-311.72261
 30
0.0
  0
VERTEX
  5
242
  8
TEAM-DET1
 10
-7.717774
 20
-311.744095
 30
0.0
  0
VERTEX
  5
243
  8
TEAM-DET1
 10
-8.410645
 20
-311.771439
 30
0.0
  0
VERTEX
  5
244
  8
TEAM-DET1
 10
-9.209961
 20
-311.808548
 30
0.0
  0
VERTEX
  5
245
  8
TEAM-DET1
 10
-10.14209
 20
-311.85347
 30
0.0
  0
VERTEX
  5
246
  8
TEAM-DET1
 10
-11.23877
 20
-311.914017
 30
0.0
  0
VERTEX
  5
247
  8
TEAM-DET1
 10
-12.541016
 20
-311.996048
 30
0.0
  0
VERTEX
  5
248
  8
TEAM-DET1
 10
-14.095703
 20
-312.111282
 30
0.0
  0
VERTEX
  5
249
  8
TEAM-DET1
 10
-15.953614
 20
-312.273392
 30
0.0
  0
SEQEND
  5
24A
  8
TEAM-DET1
  0
ARC
  5
BA
  8
TEAM-DET1
 10
-1214.030218
 20
198.348904
 30
0.0
 40
2052.980092
 50
0.339122
 51
3.09136
  0
ARC
  5
BB
  8
TEAM-DET1
 10
679.106872
 20
-112.488266
 30
0.0
 40
499.999969
 50
79.389755
 51
89.546608
  0
ARC
  5
BC
  8
TEAM-DET1
 10
756.440368
 20
300.330093
 30
0.0
 40
79.999992
 50
6.266623
 51
79.389977
  0
ARC
  5
BD
  8
TEAM-DET1
 10
-1214.038167
 20
-138.344665
 30
0.0
 40
2052.98804
 50
356.908533
 51
359.660755
  0
ARC
  5
BE
  8
TEAM-DET1
 10
679.106872
 20
172.49025
 30
0.0
 40
499.999969
 50
270.453369
 51
280.610199
  0
ARC
  5
BF
  8
TEAM-DET1
 10
-14159.999695
 20
29.998062
 30
0.0
 40
14999.999023
 50
359.310547
 51
0.689483
  0
ARC
  5
C0
  8
TEAM-DET1
 10
756.440368
 20
-240.330063
 30
0.0
 40
79.999992
 50
280.610016
 51
353.733368
  0
ENDSEC
  0
EOF
