  0
SECTION
  2
HEADER
  9
$ACADVER
  1
AC1009
  9
$INSBASE
 10
0.0
 20
0.0
 30
0.0
  9
$EXTMIN
 10
-901.33656
 20
-7.119966
 30
-0.001526
  9
$EXTMAX
 10
1009.459764
 20
647.208354
 30
0.0
  9
$LIMMIN
 10
-900.841048
 20
-0.001771
  9
$LIMMAX
 10
1009.459764
 20
647.208354
  9
$ORTHOMODE
 70
     1
  9
$REGENMODE
 70
     1
  9
$FILLMODE
 70
     1
  9
$QTEXTMODE
 70
     0
  9
$MIRRTEXT
 70
     0
  9
$DRAGMODE
 70
     2
  9
$LTSCALE
 40
50.0
  9
$OSMODE
 70
     7
  9
$ATTMODE
 70
     1
  9
$TEXTSIZE
 40
200.0
  9
$TRACEWID
 40
1.0
  9
$TEXTSTYLE
  7
STANDARD
  9
$CLAYER
  8
TEAM-MAS
  9
$CELTYPE
  6
BYLAYER
  9
$CECOLOR
 62
   256
  9
$DIMSCALE
 40
0.0
  9
$DIMASZ
 40
20.0
  9
$DIMEXO
 40
10.0
  9
$DIMDLI
 40
1.0
  9
$DIMRND
 40
0.0
  9
$DIMDLE
 40
0.0
  9
$DIMEXE
 40
1.0
  9
$DIMTP
 40
0.0
  9
$DIMTM
 40
0.0
  9
$DIMTXT
 40
35.0
  9
$DIMCEN
 40
1.0
  9
$DIMTSZ
 40
0.0
  9
$DIMTOL
 70
     0
  9
$DIMLIM
 70
     0
  9
$DIMTIH
 70
     0
  9
$DIMTOH
 70
     0
  9
$DIMSE1
 70
     0
  9
$DIMSE2
 70
     0
  9
$DIMTAD
 70
     0
  9
$DIMZIN
 70
     0
  9
$DIMBLK
  1

  9
$DIMASO
 70
     1
  9
$DIMSHO
 70
     0
  9
$DIMPOST
  1

  9
$DIMAPOST
  1

  9
$DIMALT
 70
     0
  9
$DIMALTD
 70
     2
  9
$DIMALTF
 40
25.4
  9
$DIMLFAC
 40
1.0
  9
$DIMTOFL
 70
     0
  9
$DIMTVP
 40
0.0
  9
$DIMTIX
 70
     0
  9
$DIMSOXD
 70
     0
  9
$DIMSAH
 70
     0
  9
$DIMBLK1
  1

  9
$DIMBLK2
  1

  9
$DIMSTYLE
  2
TEAM
  9
$DIMCLRD
 70
     9
  9
$DIMCLRE
 70
     9
  9
$DIMCLRT
 70
    11
  9
$DIMTFAC
 40
1.0
  9
$DIMGAP
 40
7.0
  9
$LUNITS
 70
     2
  9
$LUPREC
 70
     1
  9
$SKETCHINC
 40
1.0
  9
$FILLETRAD
 40
5.0
  9
$AUNITS
 70
     0
  9
$AUPREC
 70
     0
  9
$MENU
  1
ROPLANS
  9
$ELEVATION
 40
0.0
  9
$PELEVATION
 40
0.0
  9
$THICKNESS
 40
0.0
  9
$LIMCHECK
 70
     0
  9
$BLIPMODE
 70
     1
  9
$CHAMFERA
 40
0.0
  9
$CHAMFERB
 40
0.0
  9
$SKPOLY
 70
     0
  9
$TDCREATE
 40
2450392.957851
  9
$TDUPDATE
 40
2455944.698999
  9
$TDINDWG
 40
3.037655
  9
$TDUSRTIMER
 40
3.037655
  9
$USRTIMER
 70
     1
  9
$ANGBASE
 50
0.0
  9
$ANGDIR
 70
     0
  9
$PDMODE
 70
     0
  9
$PDSIZE
 40
0.0
  9
$PLINEWID
 40
0.0
  9
$COORDS
 70
     2
  9
$SPLFRAME
 70
     0
  9
$SPLINETYPE
 70
     6
  9
$SPLINESEGS
 70
     8
  9
$ATTDIA
 70
     0
  9
$ATTREQ
 70
     0
  9
$HANDLING
 70
     1
  9
$HANDSEED
  5
147
  9
$SURFTAB1
 70
    24
  9
$SURFTAB2
 70
    24
  9
$SURFTYPE
 70
     6
  9
$SURFU
 70
     6
  9
$SURFV
 70
     6
  9
$UCSNAME
  2

  9
$UCSORG
 10
0.0
 20
0.0
 30
0.0
  9
$UCSXDIR
 10
1.0
 20
0.0
 30
0.0
  9
$UCSYDIR
 10
0.0
 20
1.0
 30
0.0
  9
$PUCSNAME
  2

  9
$PUCSORG
 10
0.0
 20
0.0
 30
0.0
  9
$PUCSXDIR
 10
1.0
 20
0.0
 30
0.0
  9
$PUCSYDIR
 10
0.0
 20
1.0
 30
0.0
  9
$USERI1
 70
     0
  9
$USERI2
 70
     0
  9
$USERI3
 70
     0
  9
$USERI4
 70
     0
  9
$USERI5
 70
     0
  9
$USERR1
 40
0.0
  9
$USERR2
 40
0.0
  9
$USERR3
 40
0.0
  9
$USERR4
 40
0.0
  9
$USERR5
 40
0.0
  9
$WORLDVIEW
 70
     1
  9
$SHADEDGE
 70
     0
  9
$SHADEDIF
 70
    70
  9
$TILEMODE
 70
     1
  9
$MAXACTVP
 70
    16
  9
$PLIMCHECK
 70
     0
  9
$PEXTMIN
 10
-0.805942
 20
0.005011
 30
0.0
  9
$PEXTMAX
 10
20.250094
 20
11.356329
 30
0.0
  9
$PLIMMIN
 10
0.0
 20
0.0
  9
$PLIMMAX
 10
12.0
 20
9.0
  9
$UNITMODE
 70
     0
  9
$VISRETAIN
 70
     0
  9
$PLINEGEN
 70
     0
  9
$PSLTSCALE
 70
     0
  0
ENDSEC
  0
SECTION
  2
TABLES
  0
TABLE
  2
VPORT
 70
     2
  0
VPORT
  2
*ACTIVE
 70
     0
 10
0.0
 20
0.0
 11
1.0
 21
1.0
 12
54.061602
 22
320.044194
 13
0.0
 23
0.0
 14
1.0
 24
1.0
 15
20.0
 25
20.0
 16
0.0
 26
0.0
 36
1.0
 17
0.0
 27
0.0
 37
0.0
 40
1006.998434
 41
1.903766
 42
50.0
 43
0.0
 44
0.0
 50
0.0
 51
0.0
 71
     0
 72
   100
 73
     1
 74
     1
 75
     0
 76
     0
 77
     0
 78
     0
  0
ENDTAB
  0
TABLE
  2
LTYPE
 70
     3
  0
LTYPE
  2
CONTINUOUS
 70
     0
  3
Solid Line
 72
    65
 73
     0
 40
0.0
  0
LTYPE
  2
31
 70
     0
  3

 72
    65
 73
     4
 40
2.1
 49
1.5
 49
-0.3
 49
0.0
 49
-0.3
  0
LTYPE
  2
22
 70
     0
  3

 72
    65
 73
     2
 40
1.4
 49
1.2
 49
-0.2
  0
ENDTAB
  0
TABLE
  2
LAYER
 70
    11
  0
LAYER
  2
0
 70
     0
 62
     7
  6
CONTINUOUS
  0
LAYER
  2
DEFPOINTS
 70
     0
 62
     7
  6
CONTINUOUS
  0
LAYER
  2
TEAM-BODY
 70
     0
 62
     2
  6
CONTINUOUS
  0
LAYER
  2
TEAM-AXE
 70
     0
 62
    10
  6
31
  0
LAYER
  2
TEAM-MAS
 70
     0
 62
     9
  6
CONTINUOUS
  0
LAYER
  2
TEAM-TXT
 70
     0
 62
    11
  6
CONTINUOUS
  0
LAYER
  2
TEAM-DET1
 70
     0
 62
     4
  6
CONTINUOUS
  0
LAYER
  2
TEAM-HIDE
 70
     0
 62
     8
  6
22
  0
LAYER
  2
TEAM-KAN
 70
     0
 62
     6
  6
CONTINUOUS
  0
LAYER
  2
TEAM-DET3
 70
     0
 62
    14
  6
CONTINUOUS
  0
LAYER
  2
TEAM-INSP
 70
     0
 62
     5
  6
CONTINUOUS
  0
ENDTAB
  0
TABLE
  2
STYLE
 70
     2
  0
STYLE
  2
STANDARD
 70
     0
 40
0.0
 41
1.0
 50
0.0
 71
     0
 42
200.0
  3
txt
  4

  0
STYLE
  2
TEAM
 70
     0
 40
0.0
 41
0.8
 50
15.0
 71
     0
 42
7.0
  3
ROMANS.shx
  4

  0
ENDTAB
  0
TABLE
  2
VIEW
 70
     0
  0
ENDTAB
  0
TABLE
  2
UCS
 70
     0
  0
ENDTAB
  0
TABLE
  2
APPID
 70
     1
  0
APPID
  2
ACAD
 70
     0
  0
ENDTAB
  0
TABLE
  2
DIMSTYLE
 70
     1
  0
DIMSTYLE
  2
TEAM
 70
     0
  3

  4

  5

  6

  7

 40
0.0
 41
20.0
 42
10.0
 43
1.0
 44
1.0
 45
0.0
 46
0.0
 47
0.0
 48
0.0
140
35.0
141
1.0
142
0.0
143
25.4
144
1.0
145
0.0
146
1.0
147
7.0
 71
     0
 72
     0
 73
     0
 74
     0
 75
     0
 76
     0
 77
     0
 78
     0
170
     0
171
     2
172
     0
173
     0
174
     0
175
     0
176
     9
177
     9
178
    11
  0
ENDTAB
  0
ENDSEC
  0
SECTION
  2
BLOCKS
  0
BLOCK
  8
0
  2
$MODEL_SPACE
 70
     0
 10
0.0
 20
0.0
 30
0.0
  3
$MODEL_SPACE
  1

  0
ENDBLK
  5
140
  8
0
  0
BLOCK
 67
     1
  8
0
  2
$PAPER_SPACE
 70
     0
 10
0.0
 20
0.0
 30
0.0
  3
$PAPER_SPACE
  1

  0
ENDBLK
  5
13E
 67
     1
  8
0
  0
BLOCK
  8
0
  2
*D0
 70
     1
 10
0.0
 20
0.0
 30
0.0
  3
*D0
  1

  0
LINE
  5
31
  8
0
  6
BYBLOCK
 62
     9
 10
11100.000049
 20
368594.0
 30
0.0
 11
11100.000049
 21
368630.688386
 31
0.0
  0
LINE
  5
32
  8
0
  6
BYBLOCK
 62
     9
 10
12899.999939
 20
368594.0
 30
0.0
 11
12899.999939
 21
368630.688386
 31
0.0
  0
LINE
  5
33
  8
0
  6
BYBLOCK
 62
     9
 10
11120.000049
 20
368629.688386
 30
0.0
 11
11940.499994
 21
368629.688386
 31
0.0
  0
LINE
  5
34
  8
0
  6
BYBLOCK
 62
     9
 10
12879.999939
 20
368629.688386
 30
0.0
 11
12059.499994
 21
368629.688386
 31
0.0
  0
SOLID
  5
35
  8
0
  6
BYBLOCK
 62
     9
 10
11120.000049
 20
368633.021719
 30
0.0
 11
11120.000049
 21
368626.355052
 31
0.0
 12
11100.000049
 22
368629.688386
 32
0.0
 13
11100.000049
 23
368629.688386
 33
0.0
  0
SOLID
  5
36
  8
0
  6
BYBLOCK
 62
     9
 10
12879.999939
 20
368633.021719
 30
0.0
 11
12879.999939
 21
368626.355052
 31
0.0
 12
12899.999939
 22
368629.688386
 32
0.0
 13
12899.999939
 23
368629.688386
 33
0.0
  0
TEXT
  5
37
  8
0
  6
BYBLOCK
 62
    11
 10
11947.499994
 20
368612.188386
 30
0.0
 40
35.0
  1
1800
  0
POINT
  5
38
  8
DEFPOINTS
  6
BYBLOCK
 62
     0
 10
11100.000049
 20
368584.0
 30
0.0
  0
POINT
  5
39
  8
DEFPOINTS
  6
BYBLOCK
 62
     0
 10
12899.999939
 20
368584.0
 30
0.0
  0
POINT
  5
3A
  8
DEFPOINTS
  6
BYBLOCK
 62
     0
 10
12899.999939
 20
368629.688386
 30
0.0
  0
ENDBLK
  5
3C
  8
0
  0
BLOCK
  8
0
  2
*D1
 70
     1
 10
0.0
 20
0.0
 30
0.0
  3
*D1
  1

  0
LINE
  5
22
  8
0
  6
BYBLOCK
 62
     9
 10
12903.999939
 20
368600.0
 30
0.0
 11
12944.763975
 21
368600.0
 31
0.0
  0
LINE
  5
23
  8
0
  6
BYBLOCK
 62
     9
 10
12039.169922
 20
368175.001797
 30
0.0
 11
12944.763975
 21
368175.001797
 31
0.0
  0
LINE
  5
24
  8
0
  6
BYBLOCK
 62
     9
 10
12943.763975
 20
368580.0
 30
0.0
 11
12943.763975
 21
368441.167565
 31
0.0
  0
LINE
  5
25
  8
0
  6
BYBLOCK
 62
     9
 10
12943.763975
 20
368195.001797
 30
0.0
 11
12943.763975
 21
368333.834232
 31
0.0
  0
SOLID
  5
26
  8
0
  6
BYBLOCK
 62
     9
 10
12940.430641
 20
368580.0
 30
0.0
 11
12947.097308
 21
368580.0
 31
0.0
 12
12943.763975
 22
368600.0
 32
0.0
 13
12943.763975
 23
368600.0
 33
0.0
  0
SOLID
  5
27
  8
0
  6
BYBLOCK
 62
     9
 10
12940.430641
 20
368195.001797
 30
0.0
 11
12947.097308
 21
368195.001797
 31
0.0
 12
12943.763975
 22
368175.001797
 32
0.0
 13
12943.763975
 23
368175.001797
 33
0.0
  0
TEXT
  5
28
  8
0
  6
BYBLOCK
 62
    11
 10
12961.263975
 20
368340.834232
 30
0.0
 40
35.0
  1
425
 50
90.0
  0
POINT
  5
29
  8
DEFPOINTS
  6
BYBLOCK
 62
     0
 10
12893.999939
 20
368600.0
 30
0.0
  0
POINT
  5
2B
  8
DEFPOINTS
  6
BYBLOCK
 62
     0
 10
12029.169922
 20
368175.001797
 30
0.0
  0
POINT
  5
2C
  8
DEFPOINTS
  6
BYBLOCK
 62
     0
 10
12943.763975
 20
368175.001797
 30
0.0
  0
ENDBLK
  5
2E
  8
0
  0
BLOCK
  8
0
  2
*D2
 70
     1
 10
0.0
 20
0.0
 30
0.0
  3
*D2
  1

  0
LINE
  5
4F
  8
0
  6
BYBLOCK
 62
     9
 10
12025.999997
 20
368165.00181
 30
0.0
 11
12025.999997
 21
368122.092761
 31
0.0
  0
LINE
  5
50
  8
0
  6
BYBLOCK
 62
     9
 10
11973.999997
 20
368165.002028
 30
0.0
 11
11973.999997
 21
368122.092761
 31
0.0
  0
LINE
  5
51
  8
0
  6
BYBLOCK
 62
     9
 10
12045.999997
 20
368123.092761
 30
0.0
 11
12065.999997
 21
368123.092761
 31
0.0
  0
LINE
  5
52
  8
0
  6
BYBLOCK
 62
     9
 10
11953.999997
 20
368123.092761
 30
0.0
 11
11933.999997
 21
368123.092761
 31
0.0
  0
TEXT
  5
53
  8
0
  6
BYBLOCK
 62
    11
 10
12092.652956
 20
368105.592761
 30
0.0
 40
35.0
  1
52
  0
LINE
  5
54
  8
0
  6
BYBLOCK
 62
     9
 10
12025.999997
 20
368123.092761
 30
0.0
 11
11973.999997
 21
368123.092761
 31
0.0
  0
SOLID
  5
55
  8
0
  6
BYBLOCK
 62
     9
 10
12045.999997
 20
368126.426094
 30
0.0
 11
12045.999997
 21
368119.759428
 31
0.0
 12
12025.999997
 22
368123.092761
 32
0.0
 13
12025.999997
 23
368123.092761
 33
0.0
  0
SOLID
  5
56
  8
0
  6
BYBLOCK
 62
     9
 10
11953.999997
 20
368126.426094
 30
0.0
 11
11953.999997
 21
368119.759428
 31
0.0
 12
11973.999997
 22
368123.092761
 32
0.0
 13
11973.999997
 23
368123.092761
 33
0.0
  0
POINT
  5
57
  8
DEFPOINTS
  6
BYBLOCK
 62
     0
 10
12025.999997
 20
368175.00181
 30
0.0
  0
POINT
  5
58
  8
DEFPOINTS
  6
BYBLOCK
 62
     0
 10
11973.999997
 20
368175.002028
 30
0.0
  0
POINT
  5
59
  8
DEFPOINTS
  6
BYBLOCK
 62
     0
 10
11973.999997
 20
368123.092761
 30
0.0
  0
ENDBLK
  5
5B
  8
0
  0
BLOCK
  8
0
  2
*D3
 70
     1
 10
0.0
 20
0.0
 30
0.0
  3
*D3
  1

  0
LINE
  5
E1
  8
0
  6
BYBLOCK
 62
     9
 10
12903.999939
 20
368600.0
 30
0.0
 11
12992.901463
 21
368600.0
 31
0.0
  0
LINE
  5
E2
  8
0
  6
BYBLOCK
 62
     9
 10
12907.611871
 20
368000.0
 30
0.0
 11
12992.901463
 21
368000.0
 31
0.0
  0
LINE
  5
E3
  8
0
  6
BYBLOCK
 62
     9
 10
12991.901463
 20
368580.0
 30
0.0
 11
12991.901463
 21
368417.833333
 31
0.0
  0
LINE
  5
E4
  8
0
  6
BYBLOCK
 62
     9
 10
12991.901463
 20
368020.0
 30
0.0
 11
12991.901463
 21
368182.166667
 31
0.0
  0
SOLID
  5
E5
  8
0
  6
BYBLOCK
 62
     9
 10
12988.56813
 20
368580.0
 30
0.0
 11
12995.234797
 21
368580.0
 31
0.0
 12
12991.901463
 22
368600.0
 32
0.0
 13
12991.901463
 23
368600.0
 33
0.0
  0
SOLID
  5
E6
  8
0
  6
BYBLOCK
 62
     9
 10
12988.56813
 20
368020.0
 30
0.0
 11
12995.234797
 21
368020.0
 31
0.0
 12
12991.901463
 22
368000.0
 32
0.0
 13
12991.901463
 23
368000.0
 33
0.0
  0
TEXT
  5
E7
  8
0
  6
BYBLOCK
 62
    11
 10
13009.401463
 20
368189.166667
 30
0.0
 40
35.0
  1
540-560
 50
90.0
  0
POINT
  5
E8
  8
DEFPOINTS
  6
BYBLOCK
 62
     0
 10
12893.999939
 20
368600.0
 30
0.0
  0
POINT
  5
E9
  8
DEFPOINTS
  6
BYBLOCK
 62
     0
 10
12897.611871
 20
368000.0
 30
0.0
  0
POINT
  5
EA
  8
DEFPOINTS
  6
BYBLOCK
 62
     0
 10
12991.901463
 20
368000.0
 30
0.0
  0
ENDBLK
  5
EC
  8
0
  0
ENDSEC
  0
SECTION
  2
ENTITIES
  0
DIMENSION
  5
20
  8
TEAM-MAS
  2
*D1
 10
943.763975
 20
175.001797
 30
0.0
 11
943.763975
 21
387.500898
 31
0.0
 12
-12000.0
 22
-368000.0
 32
0.0
 13
893.999939
 23
600.0
 33
0.0
 14
29.169922
 24
175.001797
 34
0.0
 50
90.0
1001
ACAD
1000
DSTYLE
1002
{
1070
    40
1040
1.0
1002
}
  0
DIMENSION
  5
2F
  8
TEAM-MAS
  2
*D0
 10
899.999939
 20
629.688386
 30
0.0
 11
-0.000006
 21
629.688386
 31
0.0
 12
-12000.0
 22
-368000.0
 32
0.0
 13
-899.999951
 23
584.0
 33
0.0
 14
899.999939
 24
584.0
 34
0.0
1001
ACAD
1000
DSTYLE
1002
{
1070
    40
1040
1.0
1002
}
  0
LINE
  5
3D
  8
TEAM-BODY
 10
85.430175
 20
198.507813
 30
0.0
 11
475.449157
 21
207.41211
 31
0.0
  0
LINE
  5
3F
  8
TEAM-DET3
 10
392.177381
 20
10.80124
 30
0.0
 11
422.876841
 21
10.80124
 31
0.0
  0
LINE
  5
41
  8
TEAM-DET3
 10
392.177381
 20
0.00046
 30
0.0
 11
422.876841
 21
0.00046
 31
0.0
  0
LINE
  5
42
  8
TEAM-DET3
 10
394.276981
 20
39.01414
 30
0.0
 11
420.776001
 21
39.01414
 31
0.0
  0
LINE
  5
43
  8
TEAM-AXE
 10
396.946661
 20
195.481458
 30
0.0
 11
418.106341
 21
195.481458
 31
0.0
  0
ARC
  5
46
  8
TEAM-DET3
 10
407.526501
 20
195.481458
 30
0.0
 40
8.0
 50
11.818751
 51
171.18338
  0
LINE
  5
47
  8
TEAM-DET3
 10
399.526001
 20
171.798578
 30
0.0
 11
415.526981
 21
171.798578
 31
0.0
  0
LINE
  5
48
  8
TEAM-DET3
 10
441.526741
 20
241.270018
 30
0.0
 11
373.526261
 21
241.270018
 31
0.0
  0
LINE
  5
49
  8
TEAM-DET3
 10
441.526741
 20
238.889658
 30
0.0
 11
373.526261
 21
238.889658
 31
0.0
  0
LINE
  5
4A
  8
TEAM-DET1
 10
-893.999947
 20
568.0
 30
0.0
 11
893.999939
 21
568.0
 31
0.0
  0
LINE
  5
4C
  8
TEAM-BODY
 10
-893.999947
 20
600.0
 30
0.0
 11
893.999939
 21
600.0
 31
0.0
  0
DIMENSION
  5
4D
  8
TEAM-MAS
  2
*D2
 10
-26.000003
 20
123.092761
 30
0.0
 11
121.819623
 21
123.092761
 31
0.0
 12
-12000.0
 22
-368000.0
 32
0.0
 70
   128
 13
25.999997
 23
175.00181
 33
0.0
 14
-26.000003
 24
175.002028
 34
0.0
1001
ACAD
1000
DSTYLE
1002
{
1070
    40
1040
1.0
1002
}
  0
CIRCLE
  5
5C
  8
TEAM-INSP
 10
0.0
 20
0.0
 30
0.0
 40
7.1
  0
LINE
  5
5E
  8
TEAM-BODY
 10
-85.430176
 20
198.507813
 30
0.0
 11
85.430175
 21
198.507813
 31
0.0
  0
LINE
  5
5F
  8
TEAM-DET1
 10
-82.228333
 20
195.496094
 30
0.0
 11
-82.032715
 21
193.259766
 31
0.0
  0
LINE
  5
60
  8
TEAM-DET1
 10
82.228515
 20
195.496094
 30
0.0
 11
82.032715
 21
193.259766
 31
0.0
  0
ARC
  5
61
  8
TEAM-DET1
 10
-85.516114
 20
195.208985
 30
0.0
 40
3.300317
 50
4.990761
 51
88.507889
  0
ARC
  5
62
  8
TEAM-DET1
 10
85.516113
 20
195.208985
 30
0.0
 40
3.300317
 50
91.492104
 51
175.009232
  0
LINE
  5
63
  8
TEAM-AXE
 10
-34.384766
 20
530.0
 30
0.0
 11
34.384765
 21
530.0
 31
0.0
  0
LINE
  5
64
  8
TEAM-BODY
 10
-85.430176
 20
198.507813
 30
0.0
 11
-475.449189
 21
207.411988
 31
0.0
  0
ARC
  5
65
  8
TEAM-BODY
 10
-468.833954
 20
460.025391
 30
0.0
 40
252.699982
 50
215.149948
 51
268.499908
  0
CIRCLE
  5
66
  8
TEAM-DET1
 10
0.0
 20
530.0
 30
0.0
 40
25.999998
  0
LINE
  5
67
  8
TEAM-BODY
 10
-899.999951
 20
594.0
 30
0.0
 11
-899.999951
 21
574.0
 31
0.0
  0
ARC
  5
68
  8
TEAM-BODY
 10
-893.999947
 20
594.0
 30
0.0
 40
6.0
 50
90.0
 51
180.0
  0
ARC
  5
69
  8
TEAM-BODY
 10
-893.999947
 20
574.0
 30
0.0
 40
6.0
 50
180.0
 51
270.0
  0
ARC
  5
6A
  8
TEAM-BODY
 10
962.052185
 20
1467.529297
 30
0.0
 40
2002.699829
 50
206.689682
 51
215.149841
  0
ARC
  5
6B
  8
TEAM-DET1
 10
73.93662
 20
194.148519
 30
0.0
 40
8.143812
 50
266.517207
 51
354.024929
  0
ARC
  5
6C
  8
TEAM-DET1
 10
48.500976
 20
170.75961
 30
0.0
 40
15.042444
 50
90.500298
 51
148.379608
  0
ARC
  5
6D
  8
TEAM-DET1
 10
29.169922
 20
182.66
 30
0.0
 40
7.657971
 50
270.0
 51
328.390015
  0
ARC
  5
6E
  8
TEAM-DET1
 10
-29.169922
 20
182.66
 30
0.0
 40
7.657971
 50
211.609955
 51
270.0
  0
ARC
  5
6F
  8
TEAM-DET1
 10
-48.500977
 20
170.75961
 30
0.0
 40
15.042444
 50
31.620388
 51
89.499695
  0
ARC
  5
70
  8
TEAM-DET1
 10
-73.93662
 20
194.148519
 30
0.0
 40
8.143812
 50
185.975086
 51
273.482764
  0
LINE
  5
71
  8
TEAM-DET1
 10
-48.369629
 20
185.800625
 30
0.0
 11
48.369629
 21
185.80148
 31
0.0
  0
LINE
  5
72
  8
TEAM-DET1
 10
48.369629
 20
185.80148
 30
0.0
 11
73.441894
 21
186.021328
 31
0.0
  0
LINE
  5
73
  8
TEAM-KAN
 10
-29.169922
 20
175.002041
 30
0.0
 11
29.169922
 21
175.001797
 31
0.0
  0
LINE
  5
75
  8
TEAM-DET1
 10
-48.369629
 20
185.800625
 30
0.0
 11
-73.441895
 21
186.021328
 31
0.0
  0
LINE
  5
76
  8
TEAM-DET3
 10
412.526501
 20
14.0007
 30
0.0
 11
402.526501
 21
14.0007
 31
0.0
  0
LINE
  5
77
  8
TEAM-DET3
 10
407.193241
 20
10.80124
 30
0.0
 11
412.526501
 21
14.0007
 31
0.0
  0
LINE
  5
78
  8
TEAM-AXE
 10
407.526501
 20
199.2363
 30
0.0
 11
407.526501
 21
-5.35018
 31
0.0
  0
LINE
  5
79
  8
TEAM-DET3
 10
392.177381
 20
10.80124
 30
0.0
 11
392.177381
 21
0.00046
 31
0.0
  0
LINE
  5
7A
  8
TEAM-DET3
 10
402.526501
 20
39.01414
 30
0.0
 11
402.526501
 21
10.80124
 31
0.0
  0
LINE
  5
7B
  8
TEAM-DET3
 10
389.526001
 20
43.76512
 30
0.0
 11
389.526001
 21
71.9426
 31
0.0
  0
ARC
  5
7C
  8
TEAM-DET3
 10
394.276981
 20
43.76512
 30
0.0
 40
4.75
 50
180.0
 51
270.0
  0
LINE
  5
7D
  8
TEAM-DET3
 10
402.526501
 20
14.0007
 30
0.0
 11
407.859741
 21
10.80124
 31
0.0
  0
LINE
  5
7E
  8
TEAM-DET3
 10
403.467041
 20
19.01352
 30
0.0
 11
402.526501
 21
14.0007
 31
0.0
  0
LINE
  5
7F
  8
TEAM-DET3
 10
403.467041
 20
39.01414
 30
0.0
 11
403.467041
 21
19.01352
 31
0.0
  0
LINE
  5
80
  8
TEAM-DET3
 10
412.526501
 20
10.80124
 30
0.0
 11
412.526501
 21
39.01414
 31
0.0
  0
LINE
  5
81
  8
TEAM-DET3
 10
411.587161
 20
19.01352
 30
0.0
 11
412.526501
 21
14.0007
 31
0.0
  0
LINE
  5
82
  8
TEAM-DET3
 10
411.587161
 20
19.01352
 30
0.0
 11
411.587161
 21
39.01414
 31
0.0
  0
LINE
  5
83
  8
TEAM-DET3
 10
373.526261
 20
218.276858
 30
0.0
 11
373.526261
 21
237.344238
 31
0.0
  0
LINE
  5
84
  8
TEAM-DET3
 10
368.526261
 20
220.657238
 30
0.0
 11
368.526261
 21
239.724618
 31
0.0
  0
LINE
  5
85
  8
TEAM-DET3
 10
352.526501
 20
224.111818
 30
0.0
 11
352.526501
 21
238.650398
 31
0.0
  0
ARC
  5
86
  8
TEAM-DET3
 10
368.526261
 20
216.111338
 30
0.0
 40
3.0
 50
49.472038
 51
90.0
  0
ARC
  5
87
  8
TEAM-DET3
 10
373.526261
 20
219.730718
 30
0.0
 40
3.0
 50
229.480255
 51
270.0
  0
ARC
  5
88
  8
TEAM-DET3
 10
357.526501
 20
224.111818
 30
0.0
 40
5.0
 50
180.0
 51
270.0
  0
LINE
  5
89
  8
TEAM-DET3
 10
373.526261
 20
196.024358
 30
0.0
 11
373.526261
 21
216.730838
 31
0.0
  0
LINE
  5
8A
  8
TEAM-DET3
 10
357.526501
 20
219.111818
 30
0.0
 11
368.526261
 21
219.111818
 31
0.0
  0
ARC
  5
8B
  8
TEAM-DET3
 10
407.526501
 20
195.481458
 30
0.0
 40
8.0
 50
171.18338
 51
180.0
  0
LINE
  5
8C
  8
TEAM-DET3
 10
373.526261
 20
185.917238
 30
0.0
 11
373.526261
 21
196.024358
 31
0.0
  0
LINE
  5
8D
  8
TEAM-DET3
 10
399.526001
 20
171.798578
 30
0.0
 11
399.526001
 21
195.481458
 31
0.0
  0
ARC
  5
8E
  8
TEAM-DET3
 10
368.526261
 20
238.270758
 30
0.0
 40
3.0
 50
49.472038
 51
90.0
  0
ARC
  5
8F
  8
TEAM-DET3
 10
373.526261
 20
241.890138
 30
0.0
 40
3.0
 50
229.501129
 51
270.0
  0
ARC
  5
90
  8
TEAM-DET3
 10
373.526261
 20
244.270518
 30
0.0
 40
3.0
 50
229.501129
 51
270.0
  0
ARC
  5
91
  8
TEAM-DET3
 10
368.526261
 20
240.649898
 30
0.0
 40
3.0
 50
49.501122
 51
90.0
  0
ARC
  5
92
  8
TEAM-DET3
 10
357.526501
 20
238.650398
 30
0.0
 40
5.0
 50
90.0
 51
180.0
  0
ARC
  5
93
  8
TEAM-DET3
 10
357.526501
 20
236.270018
 30
0.0
 40
5.0
 50
90.0
 51
180.0
  0
LINE
  5
94
  8
TEAM-DET3
 10
357.526501
 20
241.270018
 30
0.0
 11
368.526261
 21
241.270018
 31
0.0
  0
LINE
  5
95
  8
TEAM-DET3
 10
357.526501
 20
243.650398
 30
0.0
 11
368.526261
 21
243.650398
 31
0.0
  0
LINE
  5
96
  8
TEAM-DET3
 10
373.526261
 20
185.917238
 30
0.0
 11
389.526001
 21
71.9426
 31
0.0
  0
LINE
  5
97
  8
TEAM-DET3
 10
-444.780889
 20
240.529571
 30
0.0
 11
-433.781129
 21
240.529571
 31
0.0
  0
LINE
  5
98
  8
TEAM-DET3
 10
-444.780889
 20
242.909931
 30
0.0
 11
-433.781129
 21
242.909931
 31
0.0
  0
LINE
  5
99
  8
TEAM-DET3
 10
-444.780889
 20
218.371371
 30
0.0
 11
-433.781129
 21
218.371371
 31
0.0
  0
ARC
  5
9A
  8
TEAM-DET3
 10
-444.780889
 20
223.371371
 30
0.0
 40
5.0
 50
180.0
 51
270.0
  0
ARC
  5
9B
  8
TEAM-DET3
 10
-444.780889
 20
237.909931
 30
0.0
 40
5.0
 50
90.0
 51
180.0
  0
ARC
  5
9C
  8
TEAM-DET3
 10
-444.780889
 20
235.529571
 30
0.0
 40
5.0
 50
90.0
 51
180.0
  0
LINE
  5
9D
  8
TEAM-DET3
 10
-449.780889
 20
223.371371
 30
0.0
 11
-449.780889
 21
237.909931
 31
0.0
  0
ARC
  5
9E
  8
TEAM-DET3
 10
-355.780649
 20
215.370871
 30
0.0
 40
3.0
 50
90.0
 51
130.527954
  0
ARC
  5
9F
  8
TEAM-DET3
 10
-360.780649
 20
218.990251
 30
0.0
 40
3.0
 50
270.0
 51
310.511505
  0
ARC
  5
A0
  8
TEAM-DET3
 10
-355.780649
 20
237.530291
 30
0.0
 40
3.0
 50
90.0
 51
130.527954
  0
ARC
  5
A1
  8
TEAM-DET3
 10
-360.780649
 20
241.149691
 30
0.0
 40
3.0
 50
270.0
 51
310.495087
  0
ARC
  5
A2
  8
TEAM-DET3
 10
-360.780649
 20
243.530051
 30
0.0
 40
3.0
 50
270.0
 51
310.495087
  0
ARC
  5
A3
  8
TEAM-DET3
 10
-355.780649
 20
239.909451
 30
0.0
 40
3.0
 50
90.0
 51
130.515305
  0
ARC
  5
A4
  8
TEAM-DET3
 10
-344.780889
 20
223.371371
 30
0.0
 40
5.0
 50
270.0
 51
0.0
  0
ARC
  5
A5
  8
TEAM-DET3
 10
-344.780889
 20
237.909931
 30
0.0
 40
5.0
 50
0.0
 51
90.0
  0
ARC
  5
A6
  8
TEAM-DET3
 10
-344.780889
 20
235.529571
 30
0.0
 40
5.0
 50
0.0
 51
90.0
  0
ARC
  5
A7
  8
TEAM-DET3
 10
-433.781129
 20
215.370871
 30
0.0
 40
3.0
 50
49.472038
 51
90.0
  0
ARC
  5
A8
  8
TEAM-DET3
 10
-428.781129
 20
218.990251
 30
0.0
 40
3.0
 50
229.48848
 51
270.0
  0
ARC
  5
A9
  8
TEAM-DET3
 10
-433.781129
 20
237.530291
 30
0.0
 40
3.0
 50
49.472038
 51
90.0
  0
ARC
  5
AA
  8
TEAM-DET3
 10
-428.781129
 20
241.149691
 30
0.0
 40
3.0
 50
229.504883
 51
270.0
  0
ARC
  5
AB
  8
TEAM-DET3
 10
-428.781129
 20
243.530051
 30
0.0
 40
3.0
 50
229.504883
 51
270.0
  0
ARC
  5
AC
  8
TEAM-DET3
 10
-433.781129
 20
239.909451
 30
0.0
 40
3.0
 50
49.484684
 51
90.0
  0
LINE
  5
AD
  8
TEAM-DET3
 10
-433.781129
 20
219.916771
 30
0.0
 11
-433.781129
 21
238.984151
 31
0.0
  0
LINE
  5
AE
  8
TEAM-DET3
 10
-428.781129
 20
217.536391
 30
0.0
 11
-428.781129
 21
236.603791
 31
0.0
  0
LINE
  5
AF
  8
TEAM-DET3
 10
-360.780649
 20
217.536391
 30
0.0
 11
-360.780649
 21
236.603791
 31
0.0
  0
LINE
  5
B0
  8
TEAM-DET3
 10
-355.780649
 20
219.916771
 30
0.0
 11
-355.780649
 21
238.984151
 31
0.0
  0
LINE
  5
B1
  8
TEAM-DET3
 10
-344.780889
 20
240.529571
 30
0.0
 11
-355.780649
 21
240.529571
 31
0.0
  0
LINE
  5
B2
  8
TEAM-DET3
 10
-344.780889
 20
242.909931
 30
0.0
 11
-355.780649
 21
242.909931
 31
0.0
  0
LINE
  5
B3
  8
TEAM-DET3
 10
-344.780889
 20
218.371371
 30
0.0
 11
-355.780649
 21
218.371371
 31
0.0
  0
LINE
  5
B4
  8
TEAM-DET3
 10
-339.780889
 20
223.371371
 30
0.0
 11
-339.780889
 21
237.909931
 31
0.0
  0
LINE
  5
B5
  8
TEAM-DET3
 10
-428.781129
 20
240.529571
 30
0.0
 11
-360.780649
 21
240.529571
 31
0.0
  0
LINE
  5
B6
  8
TEAM-DET3
 10
-428.781129
 20
238.149191
 30
0.0
 11
-360.780649
 21
238.149191
 31
0.0
  0
LINE
  5
B7
  8
TEAM-AXE
 10
-394.780889
 20
206.82878
 30
0.0
 11
-394.780889
 21
-5.3514
 31
0.0
  0
LINE
  5
B8
  8
TEAM-AXE
 10
-384.201049
 20
194.740991
 30
0.0
 11
-405.360729
 21
194.740991
 31
0.0
  0
ARC
  5
B9
  8
TEAM-DET3
 10
-394.780889
 20
194.740991
 30
0.0
 40
8.0
 50
22.401295
 51
155.597656
  0
ARC
  5
BA
  8
TEAM-DET3
 10
-394.780889
 20
194.740991
 30
0.0
 40
8.0
 50
0.0
 51
22.401295
  0
ARC
  5
BB
  8
TEAM-DET3
 10
-394.780889
 20
194.740991
 30
0.0
 40
8.0
 50
155.597656
 51
180.0
  0
LINE
  5
BC
  8
TEAM-DET3
 10
-428.781129
 20
185.176791
 30
0.0
 11
-428.781129
 21
198.512351
 31
0.0
  0
LINE
  5
BD
  8
TEAM-DET3
 10
-360.780649
 20
185.176791
 30
0.0
 11
-360.780649
 21
197.325531
 31
0.0
  0
LINE
  5
BE
  8
TEAM-DET3
 10
-386.780409
 20
171.058131
 30
0.0
 11
-386.780409
 21
194.740991
 31
0.0
  0
LINE
  5
BF
  8
TEAM-DET3
 10
-402.781389
 20
171.058131
 30
0.0
 11
-402.781389
 21
194.740991
 31
0.0
  0
LINE
  5
C0
  8
TEAM-DET3
 10
-386.780409
 20
171.058131
 30
0.0
 11
-402.781389
 21
171.058131
 31
0.0
  0
LINE
  5
C1
  8
TEAM-DET3
 10
-360.780649
 20
185.176791
 30
0.0
 11
-376.780409
 21
79.53508
 31
0.0
  0
LINE
  5
C2
  8
TEAM-DET3
 10
-428.781129
 20
185.176791
 30
0.0
 11
-412.781389
 21
79.53508
 31
0.0
  0
LINE
  5
C3
  8
TEAM-DET3
 10
-360.780649
 20
197.325531
 30
0.0
 11
-360.780649
 21
215.990071
 31
0.0
  0
LINE
  5
C4
  8
TEAM-DET3
 10
-428.781129
 20
198.512351
 30
0.0
 11
-428.781129
 21
215.990991
 31
0.0
  0
LINE
  5
C5
  8
TEAM-DET3
 10
-390.780949
 20
46.6066
 30
0.0
 11
-390.780949
 21
19.32816
 31
0.0
  0
LINE
  5
C6
  8
TEAM-DET3
 10
-398.780829
 20
19.3367
 30
0.0
 11
-398.780829
 21
46.6066
 31
0.0
  0
LINE
  5
C7
  8
TEAM-DET3
 10
-398.780829
 20
19.3367
 30
0.0
 11
-399.780889
 21
13.9998
 31
0.0
  0
LINE
  5
C8
  8
TEAM-DET3
 10
-390.780949
 20
19.32816
 30
0.0
 11
-389.780889
 21
13.9998
 31
0.0
  0
LINE
  5
C9
  8
TEAM-DET3
 10
-394.447649
 20
10.80034
 30
0.0
 11
-399.780889
 21
13.9998
 31
0.0
  0
LINE
  5
CA
  8
TEAM-DET3
 10
-389.780889
 20
13.9998
 30
0.0
 11
-395.114149
 21
10.80034
 31
0.0
  0
ARC
  5
CB
  8
TEAM-DET3
 10
-408.030409
 20
51.35758
 30
0.0
 40
4.75
 50
180.0
 51
270.0
  0
ARC
  5
CC
  8
TEAM-DET3
 10
-381.531389
 20
51.35758
 30
0.0
 40
4.75
 50
270.0
 51
0.0
  0
LINE
  5
CD
  8
TEAM-DET3
 10
-412.781389
 20
51.35758
 30
0.0
 11
-412.781389
 21
79.53508
 31
0.0
  0
LINE
  5
CE
  8
TEAM-DET3
 10
-376.780409
 20
51.35758
 30
0.0
 11
-376.780409
 21
79.53508
 31
0.0
  0
LINE
  5
CF
  8
TEAM-DET3
 10
-389.780889
 20
46.6066
 30
0.0
 11
-389.780889
 21
10.80034
 31
0.0
  0
LINE
  5
D0
  8
TEAM-DET3
 10
-381.531389
 20
46.6066
 30
0.0
 11
-408.030409
 21
46.6066
 31
0.0
  0
LINE
  5
D1
  8
TEAM-DET3
 10
-399.780889
 20
10.80034
 30
0.0
 11
-399.780889
 21
46.6066
 31
0.0
  0
LINE
  5
D2
  8
TEAM-DET3
 10
-379.431769
 20
-0.00046
 30
0.0
 11
-410.131229
 21
-0.00046
 31
0.0
  0
LINE
  5
D3
  8
TEAM-DET3
 10
-379.431769
 20
10.80034
 30
0.0
 11
-410.131229
 21
10.80034
 31
0.0
  0
LINE
  5
D4
  8
TEAM-DET3
 10
-399.780889
 20
13.9998
 30
0.0
 11
-389.780889
 21
13.9998
 31
0.0
  0
LINE
  5
D5
  8
TEAM-DET3
 10
-379.431769
 20
10.80034
 30
0.0
 11
-379.431769
 21
-0.00046
 31
0.0
  0
LINE
  5
D6
  8
TEAM-DET3
 10
-410.131229
 20
10.80034
 30
0.0
 11
-410.131229
 21
-0.00046
 31
0.0
  0
LINE
  5
D7
  8
TEAM-HIDE
 10
-379.431769
 20
-0.00046
 30
0.0
 11
392.177381
 21
0.00046
 31
0.0
  0
LINE
  5
DA
  8
TEAM-HIDE
 10
-410.131229
 20
-0.00046
 30
0.0
 11
-900.841048
 21
-0.001771
 31
0.0
  0
LINE
  5
DB
  8
TEAM-AXE
 10
0.0
 20
600.0
 30
0.0
 11
0.0
 21
175.001919
 31
0.0
  0
TEXT
  5
DC
  8
TEAM-TXT
 10
-773.835054
 20
481.912962
 30
0.0
 40
30.0
  1
team 111441
 41
0.8
 51
15.0
  7
TEAM
  0
DIMENSION
  5
DF
  8
TEAM-MAS
  2
*D3
 10
991.901463
 20
0.0
 30
0.0
 11
991.901463
 21
300.0
 31
0.0
 12
-12000.0
 22
-368000.0
 32
0.0
  1
540-560
 13
893.999939
 23
600.0
 33
0.0
 14
897.611871
 24
0.0
 34
0.0
 50
90.0
1001
ACAD
1000
DSTYLE
1002
{
1070
    40
1040
1.0
1002
}
  0
LINE
  5
ED
  8
TEAM-BODY
 10
899.999939
 20
594.0
 30
0.0
 11
899.999939
 21
574.0
 31
0.0
  0
ARC
  5
EE
  8
TEAM-BODY
 10
893.999939
 20
594.0
 30
0.0
 40
6.0
 50
0.0
 51
90.0
  0
ARC
  5
EF
  8
TEAM-BODY
 10
893.999939
 20
574.0
 30
0.0
 40
6.0
 50
270.0
 51
0.0
  0
ARC
  5
F0
  8
TEAM-BODY
 10
-962.051941
 20
1467.529297
 30
0.0
 40
2002.699829
 50
324.850159
 51
333.310303
  0
LINE
  5
F1
  8
TEAM-DET3
 10
422.876841
 20
10.80124
 30
0.0
 11
422.876841
 21
0.00046
 31
0.0
  0
LINE
  5
F2
  8
TEAM-DET3
 10
425.526981
 20
43.76512
 30
0.0
 11
425.526981
 21
71.9426
 31
0.0
  0
ARC
  5
F3
  8
TEAM-DET3
 10
420.776001
 20
43.76512
 30
0.0
 40
4.75
 50
270.0
 51
0.0
  0
LINE
  5
F4
  8
TEAM-DET3
 10
462.526501
 20
224.111818
 30
0.0
 11
462.526501
 21
238.650398
 31
0.0
  0
LINE
  5
F5
  8
TEAM-DET3
 10
446.526741
 20
220.657238
 30
0.0
 11
446.526741
 21
239.724618
 31
0.0
  0
LINE
  5
F6
  8
TEAM-DET3
 10
441.526741
 20
218.276858
 30
0.0
 11
441.526741
 21
237.344238
 31
0.0
  0
ARC
  5
F7
  8
TEAM-DET3
 10
446.526741
 20
216.111338
 30
0.0
 40
3.0
 50
90.0
 51
130.527954
  0
ARC
  5
F8
  8
TEAM-DET3
 10
441.526741
 20
219.730718
 30
0.0
 40
3.0
 50
270.0
 51
310.498871
  0
LINE
  5
F9
  8
TEAM-DET3
 10
441.526741
 20
197.804758
 30
0.0
 11
441.526741
 21
216.731458
 31
0.0
  0
LINE
  5
FA
  8
TEAM-DET3
 10
457.526501
 20
219.111818
 30
0.0
 11
446.526741
 21
219.111818
 31
0.0
  0
ARC
  5
FB
  8
TEAM-DET3
 10
407.526501
 20
195.481458
 30
0.0
 40
8.0
 50
0.0
 51
11.818751
  0
LINE
  5
FC
  8
TEAM-DET3
 10
441.526741
 20
185.917238
 30
0.0
 11
441.526741
 21
197.804758
 31
0.0
  0
LINE
  5
FD
  8
TEAM-DET3
 10
415.526981
 20
171.798578
 30
0.0
 11
415.526981
 21
195.481458
 31
0.0
  0
ARC
  5
FE
  8
TEAM-DET3
 10
446.526741
 20
238.270758
 30
0.0
 40
3.0
 50
90.0
 51
130.527954
  0
ARC
  5
FF
  8
TEAM-DET3
 10
441.526741
 20
241.890138
 30
0.0
 40
3.0
 50
270.0
 51
310.498871
  0
ARC
  5
100
  8
TEAM-DET3
 10
441.526741
 20
244.270518
 30
0.0
 40
3.0
 50
270.0
 51
310.498871
  0
ARC
  5
101
  8
TEAM-DET3
 10
446.526741
 20
240.649898
 30
0.0
 40
3.0
 50
90.0
 51
130.51973
  0
LINE
  5
102
  8
TEAM-DET3
 10
457.526501
 20
241.270018
 30
0.0
 11
446.526741
 21
241.270018
 31
0.0
  0
LINE
  5
103
  8
TEAM-DET3
 10
457.526501
 20
243.650398
 30
0.0
 11
446.526741
 21
243.650398
 31
0.0
  0
ARC
  5
104
  8
TEAM-DET3
 10
457.526501
 20
224.111818
 30
0.0
 40
5.0
 50
270.0
 51
0.0
  0
ARC
  5
105
  8
TEAM-DET3
 10
457.526501
 20
238.650398
 30
0.0
 40
5.0
 50
0.0
 51
90.0
  0
ARC
  5
106
  8
TEAM-DET3
 10
457.526501
 20
236.270018
 30
0.0
 40
5.0
 50
0.0
 51
90.0
  0
LINE
  5
107
  8
TEAM-DET3
 10
441.526741
 20
185.917238
 30
0.0
 11
425.526981
 21
71.9426
 31
0.0
  0
ARC
  5
108
  8
TEAM-BODY
 10
468.833923
 20
460.025391
 30
0.0
 40
252.699982
 50
271.500061
 51
324.850037
  0
LINE
  5
109
  8
TEAM-HIDE
 10
422.876841
 20
0.00046
 30
0.0
 11
897.611871
 21
0.0
 31
0.0
  0
ENDSEC
  0
EOF
