  0
SECTION
  2
HEADER
  9
$ACADVER
  1
AC1009
  9
$INSBASE
 10
0.0
 20
0.0
 30
0.0
  9
$EXTMIN
 10
-801.35305
 20
-7.119982
 30
-0.001526
  9
$EXTMAX
 10
905.438125
 20
647.743229
 30
0.0
  9
$LIMMIN
 10
-799.999903
 20
-0.001771
  9
$LIMMAX
 10
905.438125
 20
647.743229
  9
$ORTHOMODE
 70
     1
  9
$REGENMODE
 70
     1
  9
$FILLMODE
 70
     1
  9
$QTEXTMODE
 70
     0
  9
$MIRRTEXT
 70
     0
  9
$DRAGMODE
 70
     2
  9
$LTSCALE
 40
50.0
  9
$OSMODE
 70
     7
  9
$ATTMODE
 70
     1
  9
$TEXTSIZE
 40
200.0
  9
$TRACEWID
 40
1.0
  9
$TEXTSTYLE
  7
STANDARD
  9
$CLAYER
  8
TEAM-MAS
  9
$CELTYPE
  6
BYLAYER
  9
$CECOLOR
 62
   256
  9
$DIMSCALE
 40
0.0
  9
$DIMASZ
 40
20.0
  9
$DIMEXO
 40
10.0
  9
$DIMDLI
 40
1.0
  9
$DIMRND
 40
0.0
  9
$DIMDLE
 40
0.0
  9
$DIMEXE
 40
1.0
  9
$DIMTP
 40
0.0
  9
$DIMTM
 40
0.0
  9
$DIMTXT
 40
35.0
  9
$DIMCEN
 40
1.0
  9
$DIMTSZ
 40
0.0
  9
$DIMTOL
 70
     0
  9
$DIMLIM
 70
     0
  9
$DIMTIH
 70
     0
  9
$DIMTOH
 70
     0
  9
$DIMSE1
 70
     0
  9
$DIMSE2
 70
     0
  9
$DIMTAD
 70
     0
  9
$DIMZIN
 70
     0
  9
$DIMBLK
  1

  9
$DIMASO
 70
     1
  9
$DIMSHO
 70
     0
  9
$DIMPOST
  1

  9
$DIMAPOST
  1

  9
$DIMALT
 70
     0
  9
$DIMALTD
 70
     2
  9
$DIMALTF
 40
25.4
  9
$DIMLFAC
 40
1.0
  9
$DIMTOFL
 70
     0
  9
$DIMTVP
 40
0.0
  9
$DIMTIX
 70
     0
  9
$DIMSOXD
 70
     0
  9
$DIMSAH
 70
     0
  9
$DIMBLK1
  1

  9
$DIMBLK2
  1

  9
$DIMSTYLE
  2
TEAM
  9
$DIMCLRD
 70
     9
  9
$DIMCLRE
 70
     9
  9
$DIMCLRT
 70
    11
  9
$DIMTFAC
 40
1.0
  9
$DIMGAP
 40
7.0
  9
$LUNITS
 70
     2
  9
$LUPREC
 70
     1
  9
$SKETCHINC
 40
1.0
  9
$FILLETRAD
 40
5.0
  9
$AUNITS
 70
     0
  9
$AUPREC
 70
     0
  9
$MENU
  1
ROPLANS
  9
$ELEVATION
 40
0.0
  9
$PELEVATION
 40
0.0
  9
$THICKNESS
 40
0.0
  9
$LIMCHECK
 70
     0
  9
$BLIPMODE
 70
     1
  9
$CHAMFERA
 40
0.0
  9
$CHAMFERB
 40
0.0
  9
$SKPOLY
 70
     0
  9
$TDCREATE
 40
2450392.957851
  9
$TDUPDATE
 40
2455944.698999
  9
$TDINDWG
 40
3.037655
  9
$TDUSRTIMER
 40
3.037655
  9
$USRTIMER
 70
     1
  9
$ANGBASE
 50
0.0
  9
$ANGDIR
 70
     0
  9
$PDMODE
 70
     0
  9
$PDSIZE
 40
0.0
  9
$PLINEWID
 40
0.0
  9
$COORDS
 70
     2
  9
$SPLFRAME
 70
     0
  9
$SPLINETYPE
 70
     6
  9
$SPLINESEGS
 70
     8
  9
$ATTDIA
 70
     0
  9
$ATTREQ
 70
     0
  9
$HANDLING
 70
     1
  9
$HANDSEED
  5
154
  9
$SURFTAB1
 70
    24
  9
$SURFTAB2
 70
    24
  9
$SURFTYPE
 70
     6
  9
$SURFU
 70
     6
  9
$SURFV
 70
     6
  9
$UCSNAME
  2

  9
$UCSORG
 10
0.0
 20
0.0
 30
0.0
  9
$UCSXDIR
 10
1.0
 20
0.0
 30
0.0
  9
$UCSYDIR
 10
0.0
 20
1.0
 30
0.0
  9
$PUCSNAME
  2

  9
$PUCSORG
 10
0.0
 20
0.0
 30
0.0
  9
$PUCSXDIR
 10
1.0
 20
0.0
 30
0.0
  9
$PUCSYDIR
 10
0.0
 20
1.0
 30
0.0
  9
$USERI1
 70
     0
  9
$USERI2
 70
     0
  9
$USERI3
 70
     0
  9
$USERI4
 70
     0
  9
$USERI5
 70
     0
  9
$USERR1
 40
0.0
  9
$USERR2
 40
0.0
  9
$USERR3
 40
0.0
  9
$USERR4
 40
0.0
  9
$USERR5
 40
0.0
  9
$WORLDVIEW
 70
     1
  9
$SHADEDGE
 70
     0
  9
$SHADEDIF
 70
    70
  9
$TILEMODE
 70
     1
  9
$MAXACTVP
 70
    16
  9
$PLIMCHECK
 70
     0
  9
$PEXTMIN
 10
-0.805942
 20
0.005011
 30
0.0
  9
$PEXTMAX
 10
20.250094
 20
11.356329
 30
0.0
  9
$PLIMMIN
 10
0.0
 20
0.0
  9
$PLIMMAX
 10
12.0
 20
9.0
  9
$UNITMODE
 70
     0
  9
$VISRETAIN
 70
     0
  9
$PLINEGEN
 70
     0
  9
$PSLTSCALE
 70
     0
  0
ENDSEC
  0
SECTION
  2
TABLES
  0
TABLE
  2
VPORT
 70
     2
  0
VPORT
  2
*ACTIVE
 70
     0
 10
0.0
 20
0.0
 11
1.0
 21
1.0
 12
52.042537
 22
320.311623
 13
0.0
 23
0.0
 14
1.0
 24
1.0
 15
20.0
 25
20.0
 16
0.0
 26
0.0
 36
1.0
 17
0.0
 27
0.0
 37
0.0
 40
899.486784
 41
1.903766
 42
50.0
 43
0.0
 44
0.0
 50
0.0
 51
0.0
 71
     0
 72
   100
 73
     1
 74
     1
 75
     0
 76
     0
 77
     0
 78
     0
  0
ENDTAB
  0
TABLE
  2
LTYPE
 70
     3
  0
LTYPE
  2
CONTINUOUS
 70
     0
  3
Solid Line
 72
    65
 73
     0
 40
0.0
  0
LTYPE
  2
31
 70
     0
  3

 72
    65
 73
     4
 40
2.1
 49
1.5
 49
-0.3
 49
0.0
 49
-0.3
  0
LTYPE
  2
22
 70
     0
  3

 72
    65
 73
     2
 40
1.4
 49
1.2
 49
-0.2
  0
ENDTAB
  0
TABLE
  2
LAYER
 70
    10
  0
LAYER
  2
0
 70
     0
 62
     7
  6
CONTINUOUS
  0
LAYER
  2
DEFPOINTS
 70
     0
 62
     7
  6
CONTINUOUS
  0
LAYER
  2
TEAM-BODY
 70
     0
 62
     2
  6
CONTINUOUS
  0
LAYER
  2
TEAM-AXE
 70
     0
 62
    10
  6
31
  0
LAYER
  2
TEAM-MAS
 70
     0
 62
     9
  6
CONTINUOUS
  0
LAYER
  2
TEAM-TXT
 70
     0
 62
    11
  6
CONTINUOUS
  0
LAYER
  2
TEAM-DET1
 70
     0
 62
     4
  6
CONTINUOUS
  0
LAYER
  2
TEAM-HIDE
 70
     0
 62
     8
  6
22
  0
LAYER
  2
TEAM-DET3
 70
     0
 62
    14
  6
CONTINUOUS
  0
LAYER
  2
TEAM-INSP
 70
     0
 62
     5
  6
CONTINUOUS
  0
ENDTAB
  0
TABLE
  2
STYLE
 70
     2
  0
STYLE
  2
STANDARD
 70
     0
 40
0.0
 41
1.0
 50
0.0
 71
     0
 42
200.0
  3
txt
  4

  0
STYLE
  2
TEAM
 70
     0
 40
0.0
 41
0.8
 50
15.0
 71
     0
 42
7.0
  3
ROMANS.shx
  4

  0
ENDTAB
  0
TABLE
  2
VIEW
 70
     0
  0
ENDTAB
  0
TABLE
  2
UCS
 70
     0
  0
ENDTAB
  0
TABLE
  2
APPID
 70
     1
  0
APPID
  2
ACAD
 70
     0
  0
ENDTAB
  0
TABLE
  2
DIMSTYLE
 70
     1
  0
DIMSTYLE
  2
TEAM
 70
     0
  3

  4

  5

  6

  7

 40
0.0
 41
20.0
 42
10.0
 43
1.0
 44
1.0
 45
0.0
 46
0.0
 47
0.0
 48
0.0
140
35.0
141
1.0
142
0.0
143
25.4
144
1.0
145
0.0
146
1.0
147
7.0
 71
     0
 72
     0
 73
     0
 74
     0
 75
     0
 76
     0
 77
     0
 78
     0
170
     0
171
     2
172
     0
173
     0
174
     0
175
     0
176
     9
177
     9
178
    11
  0
ENDTAB
  0
ENDSEC
  0
SECTION
  2
BLOCKS
  0
BLOCK
  8
0
  2
$MODEL_SPACE
 70
     0
 10
0.0
 20
0.0
 30
0.0
  3
$MODEL_SPACE
  1

  0
ENDBLK
  5
147
  8
0
  0
BLOCK
 67
     1
  8
0
  2
$PAPER_SPACE
 70
     0
 10
0.0
 20
0.0
 30
0.0
  3
$PAPER_SPACE
  1

  0
ENDBLK
  5
145
 67
     1
  8
0
  0
BLOCK
  8
0
  2
*D0
 70
     1
 10
0.0
 20
0.0
 30
0.0
  3
*D0
  1

  0
LINE
  5
22
  8
0
  6
BYBLOCK
 62
     9
 10
11200.000097
 20
372594.0
 30
0.0
 11
11200.000097
 21
372631.223244
 31
0.0
  0
LINE
  5
23
  8
0
  6
BYBLOCK
 62
     9
 10
12800.000391
 20
372594.0
 30
0.0
 11
12800.000391
 21
372631.223244
 31
0.0
  0
LINE
  5
24
  8
0
  6
BYBLOCK
 62
     9
 10
11220.000097
 20
372630.223244
 30
0.0
 11
11940.500244
 21
372630.223244
 31
0.0
  0
LINE
  5
25
  8
0
  6
BYBLOCK
 62
     9
 10
12780.000391
 20
372630.223244
 30
0.0
 11
12059.500244
 21
372630.223244
 31
0.0
  0
SOLID
  5
26
  8
0
  6
BYBLOCK
 62
     9
 10
11220.000097
 20
372633.556577
 30
0.0
 11
11220.000097
 21
372626.88991
 31
0.0
 12
11200.000097
 22
372630.223244
 32
0.0
 13
11200.000097
 23
372630.223244
 33
0.0
  0
SOLID
  5
27
  8
0
  6
BYBLOCK
 62
     9
 10
12780.000391
 20
372633.556577
 30
0.0
 11
12780.000391
 21
372626.88991
 31
0.0
 12
12800.000391
 22
372630.223244
 32
0.0
 13
12800.000391
 23
372630.223244
 33
0.0
  0
TEXT
  5
28
  8
0
  6
BYBLOCK
 62
    11
 10
11947.500244
 20
372612.723244
 30
0.0
 40
35.0
  1
1600
  0
POINT
  5
29
  8
DEFPOINTS
  6
BYBLOCK
 62
     0
 10
11200.000097
 20
372584.0
 30
0.0
  0
POINT
  5
2B
  8
DEFPOINTS
  6
BYBLOCK
 62
     0
 10
12800.000391
 20
372584.0
 30
0.0
  0
POINT
  5
2C
  8
DEFPOINTS
  6
BYBLOCK
 62
     0
 10
12800.000391
 20
372630.223244
 30
0.0
  0
ENDBLK
  5
2E
  8
0
  0
BLOCK
  8
0
  2
*D1
 70
     1
 10
0.0
 20
0.0
 30
0.0
  3
*D1
  1

  0
LINE
  5
E7
  8
0
  6
BYBLOCK
 62
     9
 10
12804.000391
 20
372600.0
 30
0.0
 11
12888.886076
 21
372600.0
 31
0.0
  0
LINE
  5
E8
  8
0
  6
BYBLOCK
 62
     9
 10
12804.000391
 20
372000.0
 30
0.0
 11
12888.886076
 21
372000.0
 31
0.0
  0
LINE
  5
E9
  8
0
  6
BYBLOCK
 62
     9
 10
12887.886076
 20
372580.0
 30
0.0
 11
12887.886076
 21
372423.666667
 31
0.0
  0
LINE
  5
EA
  8
0
  6
BYBLOCK
 62
     9
 10
12887.886076
 20
372020.0
 30
0.0
 11
12887.886076
 21
372176.333333
 31
0.0
  0
SOLID
  5
EB
  8
0
  6
BYBLOCK
 62
     9
 10
12884.552743
 20
372580.0
 30
0.0
 11
12891.21941
 21
372580.0
 31
0.0
 12
12887.886076
 22
372600.0
 32
0.0
 13
12887.886076
 23
372600.0
 33
0.0
  0
SOLID
  5
EC
  8
0
  6
BYBLOCK
 62
     9
 10
12884.552743
 20
372020.0
 30
0.0
 11
12891.21941
 21
372020.0
 31
0.0
 12
12887.886076
 22
372000.0
 32
0.0
 13
12887.886076
 23
372000.0
 33
0.0
  0
TEXT
  5
ED
  8
0
  6
BYBLOCK
 62
    11
 10
12905.386076
 20
372183.333333
 30
0.0
 40
35.0
  1
552-572
 50
90.0
  0
POINT
  5
EE
  8
DEFPOINTS
  6
BYBLOCK
 62
     0
 10
12794.000391
 20
372600.0
 30
0.0
  0
POINT
  5
EF
  8
DEFPOINTS
  6
BYBLOCK
 62
     0
 10
12794.000391
 20
372000.0
 30
0.0
  0
POINT
  5
F0
  8
DEFPOINTS
  6
BYBLOCK
 62
     0
 10
12887.886076
 20
372000.0
 30
0.0
  0
ENDBLK
  5
F2
  8
0
  0
BLOCK
  8
0
  2
*D2
 70
     1
 10
0.0
 20
0.0
 30
0.0
  3
*D2
  1

  0
LINE
  5
D9
  8
0
  6
BYBLOCK
 62
     9
 10
12804.000391
 20
372600.0
 30
0.0
 11
12841.152495
 21
372600.0
 31
0.0
  0
LINE
  5
DA
  8
0
  6
BYBLOCK
 62
     9
 10
12526.000391
 20
372179.998878
 30
0.0
 11
12841.152495
 21
372179.998878
 31
0.0
  0
LINE
  5
DB
  8
0
  6
BYBLOCK
 62
     9
 10
12840.152495
 20
372580.0
 30
0.0
 11
12840.152495
 21
372440.749439
 31
0.0
  0
LINE
  5
DC
  8
0
  6
BYBLOCK
 62
     9
 10
12840.152495
 20
372199.998878
 30
0.0
 11
12840.152495
 21
372339.249439
 31
0.0
  0
SOLID
  5
DD
  8
0
  6
BYBLOCK
 62
     9
 10
12836.819162
 20
372580.0
 30
0.0
 11
12843.485828
 21
372580.0
 31
0.0
 12
12840.152495
 22
372600.0
 32
0.0
 13
12840.152495
 23
372600.0
 33
0.0
  0
SOLID
  5
DE
  8
0
  6
BYBLOCK
 62
     9
 10
12836.819162
 20
372199.998878
 30
0.0
 11
12843.485828
 21
372199.998878
 31
0.0
 12
12840.152495
 22
372179.998878
 32
0.0
 13
12840.152495
 23
372179.998878
 33
0.0
  0
TEXT
  5
DF
  8
0
  6
BYBLOCK
 62
    11
 10
12857.652495
 20
372346.249439
 30
0.0
 40
35.0
  1
420
 50
90.0
  0
POINT
  5
E0
  8
DEFPOINTS
  6
BYBLOCK
 62
     0
 10
12794.000391
 20
372600.0
 30
0.0
  0
POINT
  5
E1
  8
DEFPOINTS
  6
BYBLOCK
 62
     0
 10
12516.000391
 20
372179.998878
 30
0.0
  0
POINT
  5
E2
  8
DEFPOINTS
  6
BYBLOCK
 62
     0
 10
12840.152495
 20
372179.998878
 30
0.0
  0
ENDBLK
  5
E4
  8
0
  0
BLOCK
  8
0
  2
*D3
 70
     1
 10
0.0
 20
0.0
 30
0.0
  3
*D3
  1

  0
LINE
  5
CA
  8
0
  6
BYBLOCK
 62
     9
 10
12516.000391
 20
372169.998878
 30
0.0
 11
12516.000391
 21
372127.092761
 31
0.0
  0
LINE
  5
CB
  8
0
  6
BYBLOCK
 62
     9
 10
12464.000391
 20
372169.99961
 30
0.0
 11
12464.000391
 21
372127.092761
 31
0.0
  0
LINE
  5
CC
  8
0
  6
BYBLOCK
 62
     9
 10
12536.000391
 20
372128.092761
 30
0.0
 11
12556.000391
 21
372128.092761
 31
0.0
  0
LINE
  5
CD
  8
0
  6
BYBLOCK
 62
     9
 10
12444.000391
 20
372128.092761
 30
0.0
 11
12424.000391
 21
372128.092761
 31
0.0
  0
TEXT
  5
CE
  8
0
  6
BYBLOCK
 62
    11
 10
12570.610386
 20
372110.592761
 30
0.0
 40
35.0
  1
52
  0
LINE
  5
CF
  8
0
  6
BYBLOCK
 62
     9
 10
12516.000391
 20
372128.092761
 30
0.0
 11
12464.000391
 21
372128.092761
 31
0.0
  0
SOLID
  5
D0
  8
0
  6
BYBLOCK
 62
     9
 10
12536.000391
 20
372131.426094
 30
0.0
 11
12536.000391
 21
372124.759428
 31
0.0
 12
12516.000391
 22
372128.092761
 32
0.0
 13
12516.000391
 23
372128.092761
 33
0.0
  0
SOLID
  5
D1
  8
0
  6
BYBLOCK
 62
     9
 10
12444.000391
 20
372131.426094
 30
0.0
 11
12444.000391
 21
372124.759428
 31
0.0
 12
12464.000391
 22
372128.092761
 32
0.0
 13
12464.000391
 23
372128.092761
 33
0.0
  0
POINT
  5
D2
  8
DEFPOINTS
  6
BYBLOCK
 62
     0
 10
12516.000391
 20
372179.998878
 30
0.0
  0
POINT
  5
D3
  8
DEFPOINTS
  6
BYBLOCK
 62
     0
 10
12464.000391
 20
372179.99961
 30
0.0
  0
POINT
  5
D4
  8
DEFPOINTS
  6
BYBLOCK
 62
     0
 10
12464.000391
 20
372128.092761
 30
0.0
  0
ENDBLK
  5
D6
  8
0
  0
ENDSEC
  0
SECTION
  2
ENTITIES
  0
DIMENSION
  5
20
  8
TEAM-MAS
  2
*D0
 10
800.000391
 20
630.223244
 30
0.0
 11
0.000244
 21
630.223244
 31
0.0
 12
-12000.0
 22
-372000.0
 32
0.0
 13
-799.999903
 23
584.0
 33
0.0
 14
800.000391
 24
584.0
 34
0.0
1001
ACAD
1000
DSTYLE
1002
{
1070
    40
1040
1.0
1002
}
  0
LINE
  5
2F
  8
TEAM-HIDE
 10
387.85034
 20
0.00046
 30
0.0
 11
794.000391
 21
0.0
 31
0.0
  0
ARC
  5
32
  8
TEAM-BODY
 10
489.989893
 20
3191.029175
 30
0.0
 40
3002.999512
 50
268.5
 51
271.499908
  0
LINE
  5
34
  8
TEAM-DET3
 10
422.5
 20
206.511157
 30
0.0
 11
411.50024
 21
206.511157
 31
0.0
  0
LINE
  5
36
  8
TEAM-DET3
 10
422.5
 20
231.049737
 30
0.0
 11
411.50024
 21
231.049737
 31
0.0
  0
LINE
  5
37
  8
TEAM-DET3
 10
422.5
 20
228.669357
 30
0.0
 11
411.50024
 21
228.669357
 31
0.0
  0
POLYLINE
  5
38
  8
TEAM-HIDE
 66
     1
 10
0.0
 20
0.0
 30
0.0
  0
VERTEX
  5
14D
  8
TEAM-HIDE
 10
646.149805
 20
576.316407
 30
0.0
  0
VERTEX
  5
14E
  8
TEAM-HIDE
 10
303.342676
 20
576.316407
 30
0.0
  0
VERTEX
  5
14F
  8
TEAM-HIDE
 10
-39.390295
 20
576.316407
 30
0.0
  0
VERTEX
  5
150
  8
TEAM-HIDE
 10
-382.021887
 20
576.316407
 30
0.0
  0
VERTEX
  5
151
  8
TEAM-HIDE
 10
-591.68447
 20
576.316407
 30
0.0
  0
SEQEND
  5
152
  8
TEAM-HIDE
  0
LINE
  5
39
  8
TEAM-BODY
 10
-794.000391
 20
600.0
 30
0.0
 11
794.000391
 21
600.0
 31
0.0
  0
LINE
  5
3A
  8
TEAM-DET1
 10
-793.999903
 20
568.0
 30
0.0
 11
794.000391
 21
568.0
 31
0.0
  0
LINE
  5
3C
  8
TEAM-HIDE
 10
-207.108458
 20
-0.00046
 30
0.0
 11
357.15088
 21
0.00046
 31
0.0
  0
LINE
  5
3D
  8
TEAM-DET3
 10
-337.807918
 20
10.80034
 30
0.0
 11
-337.807918
 21
-0.00046
 31
0.0
  0
LINE
  5
3E
  8
TEAM-DET3
 10
-307.108458
 20
10.80034
 30
0.0
 11
-307.108458
 21
-0.00046
 31
0.0
  0
LINE
  5
3F
  8
TEAM-DET3
 10
-327.457578
 20
13.9998
 30
0.0
 11
-317.457578
 21
13.9998
 31
0.0
  0
LINE
  5
40
  8
TEAM-DET3
 10
-307.108458
 20
10.80034
 30
0.0
 11
-337.807918
 21
10.80034
 31
0.0
  0
LINE
  5
41
  8
TEAM-DET3
 10
-307.108458
 20
-0.00046
 30
0.0
 11
-337.807918
 21
-0.00046
 31
0.0
  0
LINE
  5
42
  8
TEAM-DET3
 10
-327.457578
 20
10.80034
 30
0.0
 11
-327.457578
 21
46.6066
 31
0.0
  0
LINE
  5
43
  8
TEAM-DET3
 10
-309.208078
 20
46.6066
 30
0.0
 11
-335.707098
 21
46.6066
 31
0.0
  0
LINE
  5
44
  8
TEAM-DET3
 10
-317.457578
 20
46.6066
 30
0.0
 11
-317.457578
 21
10.80034
 31
0.0
  0
LINE
  5
45
  8
TEAM-DET3
 10
-304.457098
 20
51.35758
 30
0.0
 11
-304.457098
 21
79.53508
 31
0.0
  0
LINE
  5
46
  8
TEAM-DET3
 10
-340.458078
 20
51.35758
 30
0.0
 11
-340.458078
 21
79.53508
 31
0.0
  0
LINE
  5
47
  8
TEAM-DET3
 10
-314.457098
 20
176.058131
 30
0.0
 11
-330.458078
 21
176.058131
 31
0.0
  0
LINE
  5
48
  8
TEAM-DET3
 10
-330.458078
 20
176.058131
 30
0.0
 11
-330.458078
 21
199.740991
 31
0.0
  0
LINE
  5
49
  8
TEAM-DET3
 10
-314.457098
 20
176.058131
 30
0.0
 11
-314.457098
 21
199.740991
 31
0.0
  0
LINE
  5
4A
  8
TEAM-DET3
 10
-288.457338
 20
190.176791
 30
0.0
 11
-288.457338
 21
202.325531
 31
0.0
  0
LINE
  5
4B
  8
TEAM-DET3
 10
-288.457338
 20
190.176791
 30
0.0
 11
-304.457098
 21
79.53508
 31
0.0
  0
LINE
  5
4C
  8
TEAM-DET3
 10
-356.457818
 20
190.176791
 30
0.0
 11
-340.458078
 21
79.53508
 31
0.0
  0
LINE
  5
4D
  8
TEAM-DET3
 10
-356.457818
 20
190.176791
 30
0.0
 11
-356.457818
 21
203.512351
 31
0.0
  0
ARC
  5
4E
  8
TEAM-DET3
 10
-322.457578
 20
199.740991
 30
0.0
 40
8.0
 50
155.597656
 51
180.0
  0
ARC
  5
4F
  8
TEAM-DET3
 10
-309.208078
 20
51.35758
 30
0.0
 40
4.75
 50
270.0
 51
0.0
  0
ARC
  5
50
  8
TEAM-DET3
 10
-335.707098
 20
51.35758
 30
0.0
 40
4.75
 50
180.0
 51
270.0
  0
ARC
  5
51
  8
TEAM-DET3
 10
-322.457578
 20
199.740991
 30
0.0
 40
8.0
 50
0.0
 51
22.401295
  0
LINE
  5
52
  8
TEAM-DET3
 10
-356.457818
 20
243.149191
 30
0.0
 11
-288.457338
 21
243.149191
 31
0.0
  0
LINE
  5
53
  8
TEAM-DET3
 10
-356.457818
 20
245.529571
 30
0.0
 11
-288.457338
 21
245.529571
 31
0.0
  0
LINE
  5
54
  8
TEAM-DET3
 10
-356.457818
 20
203.512351
 30
0.0
 11
-356.457818
 21
220.990991
 31
0.0
  0
LINE
  5
55
  8
TEAM-DET3
 10
-267.457578
 20
228.371371
 30
0.0
 11
-267.457578
 21
242.909931
 31
0.0
  0
LINE
  5
56
  8
TEAM-DET3
 10
-272.457578
 20
223.371371
 30
0.0
 11
-283.457338
 21
223.371371
 31
0.0
  0
LINE
  5
57
  8
TEAM-DET3
 10
-272.457578
 20
247.909931
 30
0.0
 11
-283.457338
 21
247.909931
 31
0.0
  0
LINE
  5
58
  8
TEAM-DET3
 10
-272.457578
 20
245.529571
 30
0.0
 11
-283.457338
 21
245.529571
 31
0.0
  0
LINE
  5
59
  8
TEAM-DET3
 10
-288.457338
 20
202.325531
 30
0.0
 11
-288.457338
 21
220.990071
 31
0.0
  0
LINE
  5
5A
  8
TEAM-DET3
 10
-283.457338
 20
224.916771
 30
0.0
 11
-283.457338
 21
243.984151
 31
0.0
  0
LINE
  5
5B
  8
TEAM-DET3
 10
-288.457338
 20
222.536391
 30
0.0
 11
-288.457338
 21
241.603791
 31
0.0
  0
LINE
  5
5C
  8
TEAM-DET3
 10
-356.457818
 20
222.536391
 30
0.0
 11
-356.457818
 21
241.603791
 31
0.0
  0
LINE
  5
5D
  8
TEAM-DET3
 10
-361.457818
 20
224.916771
 30
0.0
 11
-361.457818
 21
243.984151
 31
0.0
  0
ARC
  5
5E
  8
TEAM-DET3
 10
-361.457818
 20
244.909451
 30
0.0
 40
3.0
 50
49.484684
 51
90.0
  0
ARC
  5
5F
  8
TEAM-DET3
 10
-356.457818
 20
248.530051
 30
0.0
 40
3.0
 50
229.504883
 51
270.0
  0
ARC
  5
60
  8
TEAM-DET3
 10
-356.457818
 20
246.149691
 30
0.0
 40
3.0
 50
229.504883
 51
270.0
  0
ARC
  5
61
  8
TEAM-DET3
 10
-361.457818
 20
242.530291
 30
0.0
 40
3.0
 50
49.472038
 51
90.0
  0
ARC
  5
62
  8
TEAM-DET3
 10
-356.457818
 20
223.990251
 30
0.0
 40
3.0
 50
229.48848
 51
270.0
  0
ARC
  5
63
  8
TEAM-DET3
 10
-361.457818
 20
220.370871
 30
0.0
 40
3.0
 50
49.472038
 51
90.0
  0
ARC
  5
64
  8
TEAM-DET3
 10
-272.457578
 20
240.529571
 30
0.0
 40
5.0
 50
0.0
 51
90.0
  0
ARC
  5
65
  8
TEAM-DET3
 10
-272.457578
 20
242.909931
 30
0.0
 40
5.0
 50
0.0
 51
90.0
  0
ARC
  5
66
  8
TEAM-DET3
 10
-272.457578
 20
228.371371
 30
0.0
 40
5.0
 50
270.0
 51
0.0
  0
ARC
  5
67
  8
TEAM-DET3
 10
-283.457338
 20
244.909451
 30
0.0
 40
3.0
 50
90.0
 51
130.515305
  0
ARC
  5
68
  8
TEAM-DET3
 10
-288.457338
 20
248.530051
 30
0.0
 40
3.0
 50
270.0
 51
310.495087
  0
ARC
  5
69
  8
TEAM-DET3
 10
-288.457338
 20
246.149691
 30
0.0
 40
3.0
 50
270.0
 51
310.495087
  0
ARC
  5
6A
  8
TEAM-DET3
 10
-283.457338
 20
242.530291
 30
0.0
 40
3.0
 50
90.0
 51
130.527954
  0
ARC
  5
6B
  8
TEAM-DET3
 10
-288.457338
 20
223.990251
 30
0.0
 40
3.0
 50
270.0
 51
310.511505
  0
ARC
  5
6C
  8
TEAM-DET3
 10
-283.457338
 20
220.370871
 30
0.0
 40
3.0
 50
90.0
 51
130.527954
  0
ARC
  5
6D
  8
TEAM-DET3
 10
-322.457578
 20
199.740991
 30
0.0
 40
8.0
 50
22.401295
 51
155.597656
  0
LINE
  5
6E
  8
TEAM-DET3
 10
-317.457578
 20
13.9998
 30
0.0
 11
-322.790838
 21
10.80034
 31
0.0
  0
LINE
  5
6F
  8
TEAM-DET3
 10
-322.124338
 20
10.80034
 30
0.0
 11
-327.457578
 21
13.9998
 31
0.0
  0
LINE
  5
70
  8
TEAM-DET3
 10
-318.457638
 20
19.32816
 30
0.0
 11
-317.457578
 21
13.9998
 31
0.0
  0
LINE
  5
71
  8
TEAM-DET3
 10
-326.457518
 20
19.3367
 30
0.0
 11
-327.457578
 21
13.9998
 31
0.0
  0
LINE
  5
72
  8
TEAM-DET3
 10
-326.457518
 20
19.3367
 30
0.0
 11
-326.457518
 21
46.6066
 31
0.0
  0
LINE
  5
73
  8
TEAM-DET3
 10
-318.457638
 20
46.6066
 30
0.0
 11
-318.457638
 21
19.32816
 31
0.0
  0
LINE
  5
74
  8
TEAM-AXE
 10
-322.457578
 20
211.82878
 30
0.0
 11
-322.457578
 21
-5.3514
 31
0.0
  0
LINE
  5
77
  8
TEAM-AXE
 10
-311.877738
 20
199.740991
 30
0.0
 11
-333.037418
 21
199.740991
 31
0.0
  0
LINE
  5
78
  8
TEAM-DET3
 10
-377.457578
 20
228.371371
 30
0.0
 11
-377.457578
 21
242.909931
 31
0.0
  0
ARC
  5
79
  8
TEAM-DET3
 10
-372.457578
 20
240.529571
 30
0.0
 40
5.0
 50
90.0
 51
180.0
  0
ARC
  5
7A
  8
TEAM-DET3
 10
-372.457578
 20
242.909931
 30
0.0
 40
5.0
 50
90.0
 51
180.0
  0
ARC
  5
7B
  8
TEAM-DET3
 10
-372.457578
 20
228.371371
 30
0.0
 40
5.0
 50
180.0
 51
270.0
  0
LINE
  5
7C
  8
TEAM-DET3
 10
-372.457578
 20
223.371371
 30
0.0
 11
-361.457818
 21
223.371371
 31
0.0
  0
LINE
  5
7D
  8
TEAM-DET3
 10
-372.457578
 20
247.909931
 30
0.0
 11
-361.457818
 21
247.909931
 31
0.0
  0
LINE
  5
7E
  8
TEAM-DET3
 10
-372.457578
 20
245.529571
 30
0.0
 11
-361.457818
 21
245.529571
 31
0.0
  0
LINE
  5
7F
  8
TEAM-DET3
 10
387.85034
 20
10.80124
 30
0.0
 11
387.85034
 21
0.00046
 31
0.0
  0
LINE
  5
80
  8
TEAM-DET3
 10
357.15088
 20
10.80124
 30
0.0
 11
357.15088
 21
0.00046
 31
0.0
  0
LINE
  5
81
  8
TEAM-DET3
 10
377.5
 20
14.0007
 30
0.0
 11
367.5
 21
14.0007
 31
0.0
  0
LINE
  5
82
  8
TEAM-DET3
 10
357.15088
 20
10.80124
 30
0.0
 11
387.85034
 21
10.80124
 31
0.0
  0
LINE
  5
83
  8
TEAM-DET3
 10
357.15088
 20
0.00046
 30
0.0
 11
387.85034
 21
0.00046
 31
0.0
  0
LINE
  5
84
  8
TEAM-DET3
 10
377.5
 20
10.80124
 30
0.0
 11
377.5
 21
39.01414
 31
0.0
  0
LINE
  5
85
  8
TEAM-DET3
 10
359.25048
 20
39.01414
 30
0.0
 11
385.7495
 21
39.01414
 31
0.0
  0
LINE
  5
86
  8
TEAM-DET3
 10
367.5
 20
39.01414
 30
0.0
 11
367.5
 21
10.80124
 31
0.0
  0
LINE
  5
87
  8
TEAM-DET3
 10
354.4995
 20
43.76512
 30
0.0
 11
354.4995
 21
71.9426
 31
0.0
  0
LINE
  5
88
  8
TEAM-DET3
 10
390.50048
 20
43.76512
 30
0.0
 11
390.50048
 21
71.9426
 31
0.0
  0
LINE
  5
89
  8
TEAM-DET3
 10
364.4995
 20
159.197917
 30
0.0
 11
380.50048
 21
159.197917
 31
0.0
  0
LINE
  5
8A
  8
TEAM-DET3
 10
380.50048
 20
159.197917
 30
0.0
 11
380.50048
 21
182.880797
 31
0.0
  0
LINE
  5
8B
  8
TEAM-DET3
 10
364.4995
 20
159.197917
 30
0.0
 11
364.4995
 21
182.880797
 31
0.0
  0
LINE
  5
8C
  8
TEAM-DET3
 10
338.49976
 20
173.316577
 30
0.0
 11
338.49976
 21
183.423697
 31
0.0
  0
LINE
  5
8D
  8
TEAM-DET3
 10
338.49976
 20
173.316577
 30
0.0
 11
354.4995
 21
71.9426
 31
0.0
  0
LINE
  5
8E
  8
TEAM-DET3
 10
406.50024
 20
173.316577
 30
0.0
 11
390.50048
 21
71.9426
 31
0.0
  0
LINE
  5
8F
  8
TEAM-DET3
 10
406.50024
 20
173.316577
 30
0.0
 11
406.50024
 21
185.204097
 31
0.0
  0
ARC
  5
90
  8
TEAM-DET3
 10
372.5
 20
182.880797
 30
0.0
 40
8.0
 50
0.0
 51
11.818751
  0
ARC
  5
91
  8
TEAM-DET3
 10
359.25048
 20
43.76512
 30
0.0
 40
4.75
 50
180.0
 51
270.0
  0
ARC
  5
92
  8
TEAM-DET3
 10
385.7495
 20
43.76512
 30
0.0
 40
4.75
 50
270.0
 51
0.0
  0
ARC
  5
93
  8
TEAM-DET3
 10
372.5
 20
182.880797
 30
0.0
 40
8.0
 50
171.18338
 51
180.0
  0
LINE
  5
94
  8
TEAM-DET3
 10
406.50024
 20
226.288997
 30
0.0
 11
338.49976
 21
226.288997
 31
0.0
  0
LINE
  5
95
  8
TEAM-DET3
 10
406.50024
 20
228.669357
 30
0.0
 11
338.49976
 21
228.669357
 31
0.0
  0
LINE
  5
96
  8
TEAM-DET3
 10
406.50024
 20
185.204097
 30
0.0
 11
406.50024
 21
204.130797
 31
0.0
  0
LINE
  5
97
  8
TEAM-DET3
 10
317.5
 20
211.511157
 30
0.0
 11
317.5
 21
226.049737
 31
0.0
  0
LINE
  5
98
  8
TEAM-DET3
 10
322.5
 20
206.511157
 30
0.0
 11
333.49976
 21
206.511157
 31
0.0
  0
LINE
  5
99
  8
TEAM-DET3
 10
322.5
 20
231.049737
 30
0.0
 11
333.49976
 21
231.049737
 31
0.0
  0
LINE
  5
9A
  8
TEAM-DET3
 10
322.5
 20
228.669357
 30
0.0
 11
333.49976
 21
228.669357
 31
0.0
  0
LINE
  5
9B
  8
TEAM-DET3
 10
338.49976
 20
183.423697
 30
0.0
 11
338.49976
 21
204.130177
 31
0.0
  0
LINE
  5
9C
  8
TEAM-DET3
 10
333.49976
 20
208.056577
 30
0.0
 11
333.49976
 21
227.123957
 31
0.0
  0
LINE
  5
9D
  8
TEAM-DET3
 10
338.49976
 20
205.676197
 30
0.0
 11
338.49976
 21
224.743577
 31
0.0
  0
LINE
  5
9E
  8
TEAM-DET3
 10
406.50024
 20
205.676197
 30
0.0
 11
406.50024
 21
224.743577
 31
0.0
  0
LINE
  5
9F
  8
TEAM-DET3
 10
411.50024
 20
208.056577
 30
0.0
 11
411.50024
 21
227.123957
 31
0.0
  0
ARC
  5
A0
  8
TEAM-DET3
 10
411.50024
 20
228.049237
 30
0.0
 40
3.0
 50
90.0
 51
130.51973
  0
ARC
  5
A1
  8
TEAM-DET3
 10
406.50024
 20
231.669857
 30
0.0
 40
3.0
 50
270.0
 51
310.498871
  0
ARC
  5
A2
  8
TEAM-DET3
 10
406.50024
 20
229.289477
 30
0.0
 40
3.0
 50
270.0
 51
310.498871
  0
ARC
  5
A3
  8
TEAM-DET3
 10
411.50024
 20
225.670097
 30
0.0
 40
3.0
 50
90.0
 51
130.527954
  0
ARC
  5
A4
  8
TEAM-DET3
 10
406.50024
 20
207.130057
 30
0.0
 40
3.0
 50
270.0
 51
310.498871
  0
ARC
  5
A5
  8
TEAM-DET3
 10
411.50024
 20
203.510677
 30
0.0
 40
3.0
 50
90.0
 51
130.527954
  0
ARC
  5
A6
  8
TEAM-DET3
 10
322.5
 20
223.669357
 30
0.0
 40
5.0
 50
90.0
 51
180.0
  0
ARC
  5
A7
  8
TEAM-DET3
 10
322.5
 20
226.049737
 30
0.0
 40
5.0
 50
90.0
 51
180.0
  0
ARC
  5
A8
  8
TEAM-DET3
 10
322.5
 20
211.511157
 30
0.0
 40
5.0
 50
180.0
 51
270.0
  0
ARC
  5
A9
  8
TEAM-DET3
 10
333.49976
 20
228.049237
 30
0.0
 40
3.0
 50
49.501122
 51
90.0
  0
ARC
  5
AA
  8
TEAM-DET3
 10
338.49976
 20
231.669857
 30
0.0
 40
3.0
 50
229.501129
 51
270.0
  0
ARC
  5
AB
  8
TEAM-DET3
 10
338.49976
 20
229.289477
 30
0.0
 40
3.0
 50
229.501129
 51
270.0
  0
ARC
  5
AC
  8
TEAM-DET3
 10
333.49976
 20
225.670097
 30
0.0
 40
3.0
 50
49.472038
 51
90.0
  0
ARC
  5
AD
  8
TEAM-DET3
 10
338.49976
 20
207.130057
 30
0.0
 40
3.0
 50
229.480255
 51
270.0
  0
ARC
  5
AE
  8
TEAM-DET3
 10
333.49976
 20
203.510677
 30
0.0
 40
3.0
 50
49.472038
 51
90.0
  0
ARC
  5
AF
  8
TEAM-DET3
 10
372.5
 20
182.880797
 30
0.0
 40
8.0
 50
11.818751
 51
171.18338
  0
LINE
  5
B0
  8
TEAM-DET3
 10
367.5
 20
14.0007
 30
0.0
 11
372.83324
 21
10.80124
 31
0.0
  0
LINE
  5
B1
  8
TEAM-DET3
 10
372.16674
 20
10.80124
 30
0.0
 11
377.5
 21
14.0007
 31
0.0
  0
LINE
  5
B2
  8
TEAM-DET3
 10
368.44054
 20
19.01352
 30
0.0
 11
367.5
 21
14.0007
 31
0.0
  0
LINE
  5
B3
  8
TEAM-DET3
 10
376.56066
 20
19.01352
 30
0.0
 11
377.5
 21
14.0007
 31
0.0
  0
LINE
  5
B4
  8
TEAM-DET3
 10
368.44054
 20
39.01414
 30
0.0
 11
368.44054
 21
19.01352
 31
0.0
  0
LINE
  5
B5
  8
TEAM-DET3
 10
376.56066
 20
19.01352
 30
0.0
 11
376.56066
 21
39.01414
 31
0.0
  0
LINE
  5
B6
  8
TEAM-AXE
 10
372.5
 20
204.2363
 30
0.0
 11
372.5
 21
-5.35018
 31
0.0
  0
LINE
  5
B7
  8
TEAM-AXE
 10
361.92016
 20
182.880797
 30
0.0
 11
383.07984
 21
182.880797
 31
0.0
  0
CIRCLE
  5
B8
  8
TEAM-INSP
 10
0.0
 20
0.0
 30
0.0
 40
7.1
  0
LINE
  5
BA
  8
TEAM-AXE
 10
0.000085
 20
199.830591
 30
0.0
 11
0.000085
 21
600.0
 31
0.0
  0
LINE
  5
BB
  8
TEAM-BODY
 10
-387.472571
 20
209.976563
 30
0.0
 11
411.380518
 21
189.058594
 31
0.0
  0
ARC
  5
BC
  8
TEAM-BODY
 10
-400.193518
 20
347.408203
 30
0.0
 40
137.999878
 50
210.998505
 51
223.88649
  0
ARC
  5
BD
  8
TEAM-BODY
 10
-436.229407
 20
312.746094
 30
0.0
 40
88.00013
 50
223.886093
 51
232.305222
  0
LINE
  5
BE
  8
TEAM-BODY
 10
-799.999903
 20
594.0
 30
0.0
 11
-799.999903
 21
574.0
 31
0.0
  0
ARC
  5
BF
  8
TEAM-BODY
 10
-794.000391
 20
574.0
 30
0.0
 40
5.999504
 50
180.0
 51
270.004669
  0
ARC
  5
C0
  8
TEAM-BODY
 10
-793.999531
 20
593.999636
 30
0.0
 40
6.000364
 50
90.008215
 51
179.996521
  0
ARC
  5
C1
  8
TEAM-BODY
 10
-758.624655
 20
498.841797
 30
0.0
 40
96.999878
 50
28.903021
 51
45.477135
  0
ARC
  5
C2
  8
TEAM-BODY
 10
6770.152734
 20
4655.462769
 30
0.0
 40
8503.0
 50
208.902985
 51
210.998093
  0
LINE
  5
C3
  8
TEAM-HIDE
 10
-237.807918
 20
-0.00046
 30
0.0
 11
-799.999903
 21
-0.001771
 31
0.0
  0
TEXT
  5
C4
  8
TEAM-TXT
 10
-573.835054
 20
481.912962
 30
0.0
 40
30.0
  1
team 111449
 41
0.8
 51
15.0
  7
TEAM
  0
ARC
  5
C7
  8
TEAM-BODY
 10
-383.019093
 20
399.056636
 30
0.0
 40
189.132842
 50
235.539541
 51
268.650738
  0
DIMENSION
  5
C8
  8
TEAM-MAS
  2
*D3
 10
464.000391
 20
128.092761
 30
0.0
 11
599.777053
 21
128.092761
 31
0.0
 12
-12000.0
 22
-372000.0
 32
0.0
 70
   128
 13
516.000391
 23
179.998878
 33
0.0
 14
464.000391
 24
179.99961
 34
0.0
1001
ACAD
1000
DSTYLE
1002
{
1070
    40
1040
1.0
1002
}
  0
DIMENSION
  5
D7
  8
TEAM-MAS
  2
*D2
 10
840.152495
 20
179.998878
 30
0.0
 11
840.152495
 21
389.999439
 31
0.0
 12
-12000.0
 22
-372000.0
 32
0.0
 13
794.000391
 23
600.0
 33
0.0
 14
516.000391
 24
179.998878
 34
0.0
 50
90.0
1001
ACAD
1000
DSTYLE
1002
{
1070
    40
1040
1.0
1002
}
  0
DIMENSION
  5
E5
  8
TEAM-MAS
  2
*D1
 10
887.886076
 20
0.0
 30
0.0
 11
887.886076
 21
300.0
 31
0.0
 12
-12000.0
 22
-372000.0
 32
0.0
  1
552-572
 13
794.000391
 23
600.0
 33
0.0
 14
794.000391
 24
0.0
 34
0.0
 50
90.0
1001
ACAD
1000
DSTYLE
1002
{
1070
    40
1040
1.0
1002
}
  0
ARC
  5
F3
  8
TEAM-DET1
 10
530.882959
 20
179.38086
 30
0.0
 40
9.000057
 50
95.579437
 51
151.085632
  0
LINE
  5
F4
  8
TEAM-DET3
 10
427.5
 20
211.511157
 30
0.0
 11
427.5
 21
226.049737
 31
0.0
  0
ARC
  5
F5
  8
TEAM-DET3
 10
422.5
 20
223.669357
 30
0.0
 40
5.0
 50
0.0
 51
90.0
  0
ARC
  5
F6
  8
TEAM-DET3
 10
422.5
 20
226.049737
 30
0.0
 40
5.0
 50
0.0
 51
90.0
  0
ARC
  5
F7
  8
TEAM-DET3
 10
422.5
 20
211.511157
 30
0.0
 40
5.0
 50
270.0
 51
0.0
  0
LINE
  5
F8
  8
TEAM-AXE
 10
490.000391
 20
202.460923
 30
0.0
 11
490.000391
 21
167.860967
 31
0.0
  0
LINE
  5
F9
  8
TEAM-DET1
 10
516.000391
 20
179.99961
 30
0.0
 11
464.000391
 21
179.99961
 31
0.0
  0
ARC
  5
FA
  8
TEAM-DET1
 10
449.117823
 20
179.38086
 30
0.0
 40
8.999938
 50
28.915113
 51
84.442215
  0
ARC
  5
FB
  8
TEAM-DET1
 10
463.572916
 20
187.633421
 30
0.0
 40
7.646615
 50
210.674567
 51
273.204716
  0
ARC
  5
FC
  8
TEAM-DET1
 10
516.427869
 20
187.633421
 30
0.0
 40
7.646501
 50
266.795204
 51
329.324484
  0
LINE
  5
FD
  8
TEAM-BODY
 10
800.000391
 20
574.0
 30
0.0
 11
800.000391
 21
594.0
 31
0.0
  0
LINE
  5
FE
  8
TEAM-BODY
 10
568.594385
 20
189.058594
 30
0.0
 11
591.568018
 21
189.658203
 31
0.0
  0
ARC
  5
FF
  8
TEAM-BODY
 10
794.000879
 20
594.0
 30
0.0
 40
5.999504
 50
0.0
 51
90.004662
  0
ARC
  5
100
  8
TEAM-BODY
 10
794.000879
 20
574.0
 30
0.0
 40
5.999504
 50
269.995331
 51
0.0
  0
ARC
  5
101
  8
TEAM-BODY
 10
13663.883716
 20
-4451.011173
 30
0.0
 40
13816.10789
 50
160.112543
 51
160.201469
  0
ARC
  5
102
  8
TEAM-BODY
 10
477.026269
 20
306.298828
 30
0.0
 40
203.000412
 50
343.565216
 51
352.530792
  0
ARC
  5
103
  8
TEAM-BODY
 10
-6463.580176
 20
1216.236206
 30
0.0
 40
7203.0
 50
352.530914
 51
354.836663
  0
ARC
  5
104
  8
TEAM-BODY
 10
614.321381
 20
248.114034
 30
0.0
 40
53.761715
 50
289.612219
 51
338.826044
  0
ARC
  5
105
  8
TEAM-BODY
 10
588.217432
 20
317.615235
 30
0.0
 40
127.999977
 50
271.499969
 51
290.177032
  0
ENDSEC
  0
EOF
