  0
SECTION
  2
HEADER
  9
$ACADVER
  1
AC1009
  9
$INSBASE
 10
0.0
 20
0.0
 30
0.0
  9
$EXTMIN
 10
-927.317471
 20
-452.993466
 30
0.0
  9
$EXTMAX
 10
927.304406
 20
460.949302
 30
0.0
  9
$LIMMIN
 10
-927.317471
 20
-452.993466
  9
$LIMMAX
 10
927.304406
 20
460.949302
  9
$ORTHOMODE
 70
     1
  9
$REGENMODE
 70
     1
  9
$FILLMODE
 70
     1
  9
$QTEXTMODE
 70
     0
  9
$MIRRTEXT
 70
     0
  9
$DRAGMODE
 70
     2
  9
$LTSCALE
 40
50.0
  9
$OSMODE
 70
     7
  9
$ATTMODE
 70
     1
  9
$TEXTSIZE
 40
200.0
  9
$TRACEWID
 40
1.0
  9
$TEXTSTYLE
  7
STANDARD
  9
$CLAYER
  8
TEAM-MAS
  9
$CELTYPE
  6
BYLAYER
  9
$CECOLOR
 62
   256
  9
$DIMSCALE
 40
0.0
  9
$DIMASZ
 40
20.0
  9
$DIMEXO
 40
10.0
  9
$DIMDLI
 40
1.0
  9
$DIMRND
 40
0.0
  9
$DIMDLE
 40
0.0
  9
$DIMEXE
 40
1.0
  9
$DIMTP
 40
0.0
  9
$DIMTM
 40
0.0
  9
$DIMTXT
 40
35.0
  9
$DIMCEN
 40
1.0
  9
$DIMTSZ
 40
0.0
  9
$DIMTOL
 70
     0
  9
$DIMLIM
 70
     0
  9
$DIMTIH
 70
     0
  9
$DIMTOH
 70
     0
  9
$DIMSE1
 70
     0
  9
$DIMSE2
 70
     0
  9
$DIMTAD
 70
     0
  9
$DIMZIN
 70
     0
  9
$DIMBLK
  1

  9
$DIMASO
 70
     1
  9
$DIMSHO
 70
     0
  9
$DIMPOST
  1

  9
$DIMAPOST
  1

  9
$DIMALT
 70
     0
  9
$DIMALTD
 70
     2
  9
$DIMALTF
 40
25.4
  9
$DIMLFAC
 40
1.0
  9
$DIMTOFL
 70
     0
  9
$DIMTVP
 40
0.0
  9
$DIMTIX
 70
     0
  9
$DIMSOXD
 70
     0
  9
$DIMSAH
 70
     0
  9
$DIMBLK1
  1

  9
$DIMBLK2
  1

  9
$DIMSTYLE
  2
TEAM
  9
$DIMCLRD
 70
     9
  9
$DIMCLRE
 70
     9
  9
$DIMCLRT
 70
    11
  9
$DIMTFAC
 40
1.0
  9
$DIMGAP
 40
7.0
  9
$LUNITS
 70
     2
  9
$LUPREC
 70
     1
  9
$SKETCHINC
 40
1.0
  9
$FILLETRAD
 40
10.0
  9
$AUNITS
 70
     0
  9
$AUPREC
 70
     0
  9
$MENU
  1
ROPLANS
  9
$ELEVATION
 40
0.0
  9
$PELEVATION
 40
0.0
  9
$THICKNESS
 40
0.0
  9
$LIMCHECK
 70
     0
  9
$BLIPMODE
 70
     1
  9
$CHAMFERA
 40
0.0
  9
$CHAMFERB
 40
0.0
  9
$SKPOLY
 70
     0
  9
$TDCREATE
 40
2450392.957851
  9
$TDUPDATE
 40
2455955.923321
  9
$TDINDWG
 40
2.217917
  9
$TDUSRTIMER
 40
2.217917
  9
$USRTIMER
 70
     1
  9
$ANGBASE
 50
0.0
  9
$ANGDIR
 70
     0
  9
$PDMODE
 70
     0
  9
$PDSIZE
 40
0.0
  9
$PLINEWID
 40
0.0
  9
$COORDS
 70
     2
  9
$SPLFRAME
 70
     0
  9
$SPLINETYPE
 70
     6
  9
$SPLINESEGS
 70
     8
  9
$ATTDIA
 70
     0
  9
$ATTREQ
 70
     0
  9
$HANDLING
 70
     1
  9
$HANDSEED
  5
4BC
  9
$SURFTAB1
 70
    24
  9
$SURFTAB2
 70
    24
  9
$SURFTYPE
 70
     6
  9
$SURFU
 70
     6
  9
$SURFV
 70
     6
  9
$UCSNAME
  2

  9
$UCSORG
 10
0.0
 20
0.0
 30
0.0
  9
$UCSXDIR
 10
1.0
 20
0.0
 30
0.0
  9
$UCSYDIR
 10
0.0
 20
1.0
 30
0.0
  9
$PUCSNAME
  2

  9
$PUCSORG
 10
0.0
 20
0.0
 30
0.0
  9
$PUCSXDIR
 10
1.0
 20
0.0
 30
0.0
  9
$PUCSYDIR
 10
0.0
 20
1.0
 30
0.0
  9
$USERI1
 70
     0
  9
$USERI2
 70
     0
  9
$USERI3
 70
     0
  9
$USERI4
 70
     0
  9
$USERI5
 70
     0
  9
$USERR1
 40
0.0
  9
$USERR2
 40
0.0
  9
$USERR3
 40
0.0
  9
$USERR4
 40
0.0
  9
$USERR5
 40
0.0
  9
$WORLDVIEW
 70
     1
  9
$SHADEDGE
 70
     0
  9
$SHADEDIF
 70
    70
  9
$TILEMODE
 70
     1
  9
$MAXACTVP
 70
    16
  9
$PLIMCHECK
 70
     0
  9
$PEXTMIN
 10
-0.805942
 20
0.005011
 30
0.0
  9
$PEXTMAX
 10
20.250094
 20
11.356329
 30
0.0
  9
$PLIMMIN
 10
0.0
 20
0.0
  9
$PLIMMAX
 10
12.0
 20
9.0
  9
$UNITMODE
 70
     0
  9
$VISRETAIN
 70
     0
  9
$PLINEGEN
 70
     0
  9
$PSLTSCALE
 70
     0
  0
ENDSEC
  0
SECTION
  2
TABLES
  0
TABLE
  2
VPORT
 70
     2
  0
VPORT
  2
*ACTIVE
 70
     0
 10
0.0
 20
0.0
 11
1.0
 21
1.0
 12
-0.006533
 22
3.977918
 13
0.0
 23
0.0
 14
1.0
 24
1.0
 15
50.0
 25
50.0
 16
0.0
 26
0.0
 36
1.0
 17
0.0
 27
0.0
 37
0.0
 40
977.394243
 41
1.903766
 42
50.0
 43
0.0
 44
0.0
 50
0.0
 51
0.0
 71
     0
 72
   100
 73
     1
 74
     1
 75
     0
 76
     0
 77
     0
 78
     0
  0
ENDTAB
  0
TABLE
  2
LTYPE
 70
     2
  0
LTYPE
  2
CONTINUOUS
 70
     0
  3
Solid Line
 72
    65
 73
     0
 40
0.0
  0
LTYPE
  2
31
 70
     0
  3

 72
    65
 73
     4
 40
2.1
 49
1.5
 49
-0.3
 49
0.0
 49
-0.3
  0
ENDTAB
  0
TABLE
  2
LAYER
 70
     9
  0
LAYER
  2
0
 70
     0
 62
     7
  6
CONTINUOUS
  0
LAYER
  2
DEFPOINTS
 70
     0
 62
     7
  6
CONTINUOUS
  0
LAYER
  2
TEAM-BODY
 70
     0
 62
     2
  6
CONTINUOUS
  0
LAYER
  2
TEAM-AXE
 70
     0
 62
    10
  6
31
  0
LAYER
  2
TEAM-MAS
 70
     0
 62
     9
  6
CONTINUOUS
  0
LAYER
  2
TEAM-TXT
 70
     0
 62
    11
  6
CONTINUOUS
  0
LAYER
  2
TEAM-DET1
 70
     0
 62
     4
  6
CONTINUOUS
  0
LAYER
  2
TEAM-KAN
 70
     0
 62
     6
  6
CONTINUOUS
  0
LAYER
  2
TEAM-INSP
 70
     0
 62
     5
  6
CONTINUOUS
  0
ENDTAB
  0
TABLE
  2
STYLE
 70
     2
  0
STYLE
  2
STANDARD
 70
     0
 40
0.0
 41
1.0
 50
0.0
 71
     0
 42
200.0
  3
txt
  4

  0
STYLE
  2
TEAM
 70
     0
 40
0.0
 41
0.8
 50
15.0
 71
     0
 42
7.0
  3
ROMANS.shx
  4

  0
ENDTAB
  0
TABLE
  2
VIEW
 70
     0
  0
ENDTAB
  0
TABLE
  2
UCS
 70
     0
  0
ENDTAB
  0
TABLE
  2
APPID
 70
     1
  0
APPID
  2
ACAD
 70
     0
  0
ENDTAB
  0
TABLE
  2
DIMSTYLE
 70
     1
  0
DIMSTYLE
  2
TEAM
 70
     0
  3

  4

  5

  6

  7

 40
0.0
 41
20.0
 42
10.0
 43
1.0
 44
1.0
 45
0.0
 46
0.0
 47
0.0
 48
0.0
140
35.0
141
1.0
142
0.0
143
25.4
144
1.0
145
0.0
146
1.0
147
7.0
 71
     0
 72
     0
 73
     0
 74
     0
 75
     0
 76
     0
 77
     0
 78
     0
170
     0
171
     2
172
     0
173
     0
174
     0
175
     0
176
     9
177
     9
178
    11
  0
ENDTAB
  0
ENDSEC
  0
SECTION
  2
BLOCKS
  0
BLOCK
  8
0
  2
$MODEL_SPACE
 70
     0
 10
0.0
 20
0.0
 30
0.0
  3
$MODEL_SPACE
  1

  0
ENDBLK
  5
42D
  8
0
  0
BLOCK
 67
     1
  8
0
  2
$PAPER_SPACE
 70
     0
 10
0.0
 20
0.0
 30
0.0
  3
$PAPER_SPACE
  1

  0
ENDBLK
  5
42B
 67
     1
  8
0
  0
BLOCK
  8
0
  2
*D0
 70
     1
 10
0.0
 20
0.0
 30
0.0
  3
*D0
  1

  0
LINE
  5
24
  8
0
  6
BYBLOCK
 62
     9
 10
4850.000013
 20
24010.0
 30
0.0
 11
4850.000013
 21
24444.4144
 31
0.0
  0
LINE
  5
25
  8
0
  6
BYBLOCK
 62
     9
 10
3149.999987
 20
24010.0
 30
0.0
 11
3149.999987
 21
24444.4144
 31
0.0
  0
LINE
  5
26
  8
0
  6
BYBLOCK
 62
     9
 10
4830.000013
 20
24443.4144
 30
0.0
 11
4059.5
 21
24443.4144
 31
0.0
  0
LINE
  5
27
  8
0
  6
BYBLOCK
 62
     9
 10
3169.999987
 20
24443.4144
 30
0.0
 11
3940.5
 21
24443.4144
 31
0.0
  0
SOLID
  5
28
  8
0
  6
BYBLOCK
 62
     9
 10
4830.000013
 20
24446.747734
 30
0.0
 11
4830.000013
 21
24440.081067
 31
0.0
 12
4850.000013
 22
24443.4144
 32
0.0
 13
4850.000013
 23
24443.4144
 33
0.0
  0
SOLID
  5
29
  8
0
  6
BYBLOCK
 62
     9
 10
3169.999987
 20
24446.747734
 30
0.0
 11
3169.999987
 21
24440.081067
 31
0.0
 12
3149.999987
 22
24443.4144
 32
0.0
 13
3149.999987
 23
24443.4144
 33
0.0
  0
TEXT
  5
2A
  8
0
  6
BYBLOCK
 62
    11
 10
3947.5
 20
24425.9144
 30
0.0
 40
35.0
  1
1700
  0
POINT
  5
2B
  8
DEFPOINTS
  6
BYBLOCK
 62
     0
 10
4850.000013
 20
24000.0
 30
0.0
  0
POINT
  5
2D
  8
DEFPOINTS
  6
BYBLOCK
 62
     0
 10
3149.999987
 20
24000.0
 30
0.0
  0
POINT
  5
2E
  8
DEFPOINTS
  6
BYBLOCK
 62
     0
 10
3149.999987
 20
24443.4144
 30
0.0
  0
ENDBLK
  5
30
  8
0
  0
BLOCK
  8
0
  2
*D1
 70
     1
 10
0.0
 20
0.0
 30
0.0
  3
*D1
  1

  0
LINE
  5
4A
  8
0
  6
BYBLOCK
 62
     9
 10
4850.000013
 20
24010.0
 30
0.0
 11
4850.000013
 21
24404.436439
 31
0.0
  0
LINE
  5
4B
  8
0
  6
BYBLOCK
 62
     9
 10
4000.0
 20
24010.0
 30
0.0
 11
4000.0
 21
24404.436439
 31
0.0
  0
LINE
  5
4C
  8
0
  6
BYBLOCK
 62
     9
 10
4830.000013
 20
24403.436439
 30
0.0
 11
4475.750006
 21
24403.436439
 31
0.0
  0
LINE
  5
4D
  8
0
  6
BYBLOCK
 62
     9
 10
4020.0
 20
24403.436439
 30
0.0
 11
4374.250006
 21
24403.436439
 31
0.0
  0
SOLID
  5
4E
  8
0
  6
BYBLOCK
 62
     9
 10
4830.000013
 20
24406.769772
 30
0.0
 11
4830.000013
 21
24400.103106
 31
0.0
 12
4850.000013
 22
24403.436439
 32
0.0
 13
4850.000013
 23
24403.436439
 33
0.0
  0
SOLID
  5
4F
  8
0
  6
BYBLOCK
 62
     9
 10
4020.0
 20
24406.769772
 30
0.0
 11
4020.0
 21
24400.103106
 31
0.0
 12
4000.0
 22
24403.436439
 32
0.0
 13
4000.0
 23
24403.436439
 33
0.0
  0
TEXT
  5
50
  8
0
  6
BYBLOCK
 62
    11
 10
4381.250006
 20
24385.936439
 30
0.0
 40
35.0
  1
850
  0
POINT
  5
51
  8
DEFPOINTS
  6
BYBLOCK
 62
     0
 10
4850.000013
 20
24000.0
 30
0.0
  0
POINT
  5
52
  8
DEFPOINTS
  6
BYBLOCK
 62
     0
 10
4000.0
 20
24000.0
 30
0.0
  0
POINT
  5
53
  8
DEFPOINTS
  6
BYBLOCK
 62
     0
 10
4000.0
 20
24403.436439
 30
0.0
  0
ENDBLK
  5
55
  8
0
  0
BLOCK
  8
0
  2
*D2
 70
     1
 10
0.0
 20
0.0
 30
0.0
  3
*D2
  1

  0
LINE
  5
3C
  8
0
  6
BYBLOCK
 62
     9
 10
4482.222229
 20
24374.777783
 30
0.0
 11
4885.182689
 21
24374.777783
 31
0.0
  0
LINE
  5
3D
  8
0
  6
BYBLOCK
 62
     9
 10
4482.222181
 20
23624.777783
 30
0.0
 11
4885.182689
 21
23624.777783
 31
0.0
  0
LINE
  5
3E
  8
0
  6
BYBLOCK
 62
     9
 10
4884.182689
 20
24354.777783
 30
0.0
 11
4884.182689
 21
24050.527783
 31
0.0
  0
LINE
  5
3F
  8
0
  6
BYBLOCK
 62
     9
 10
4884.182689
 20
23644.777783
 30
0.0
 11
4884.182689
 21
23949.027783
 31
0.0
  0
SOLID
  5
40
  8
0
  6
BYBLOCK
 62
     9
 10
4880.849356
 20
24354.777783
 30
0.0
 11
4887.516023
 21
24354.777783
 31
0.0
 12
4884.182689
 22
24374.777783
 32
0.0
 13
4884.182689
 23
24374.777783
 33
0.0
  0
SOLID
  5
41
  8
0
  6
BYBLOCK
 62
     9
 10
4880.849356
 20
23644.777783
 30
0.0
 11
4887.516023
 21
23644.777783
 31
0.0
 12
4884.182689
 22
23624.777783
 32
0.0
 13
4884.182689
 23
23624.777783
 33
0.0
  0
TEXT
  5
42
  8
0
  6
BYBLOCK
 62
    11
 10
4901.682689
 20
23956.027783
 30
0.0
 40
35.0
  1
750
 50
90.0
  0
POINT
  5
43
  8
DEFPOINTS
  6
BYBLOCK
 62
     0
 10
4472.222229
 20
24374.777783
 30
0.0
  0
POINT
  5
44
  8
DEFPOINTS
  6
BYBLOCK
 62
     0
 10
4472.222181
 20
23624.777783
 30
0.0
  0
POINT
  5
45
  8
DEFPOINTS
  6
BYBLOCK
 62
     0
 10
4884.182689
 20
23624.777783
 30
0.0
  0
ENDBLK
  5
47
  8
0
  0
ENDSEC
  0
SECTION
  2
ENTITIES
  0
POLYLINE
  5
20
  8
TEAM-BODY
 66
     1
 10
0.0
 20
0.0
 30
0.0
  0
VERTEX
  5
433
  8
TEAM-BODY
 10
850.000013
 20
0.0
 30
0.0
 42
-0.411625
  0
VERTEX
  5
434
  8
TEAM-BODY
 10
472.222181
 20
-375.222217
 30
0.0
  0
VERTEX
  5
435
  8
TEAM-BODY
 10
-472.222278
 20
-375.222217
 30
0.0
 42
-0.411625
  0
VERTEX
  5
436
  8
TEAM-BODY
 10
-850.000013
 20
0.0
 30
0.0
  0
SEQEND
  5
437
  8
TEAM-BODY
  0
DIMENSION
  5
22
  8
TEAM-MAS
  2
*D0
 10
-850.000013
 20
443.4144
 30
0.0
 11
0.0
 21
443.4144
 31
0.0
 12
-4000.0
 22
-24000.0
 32
0.0
 13
850.000013
 23
0.0
 33
0.0
 14
-850.000013
 24
0.0
 34
0.0
1001
ACAD
1000
DSTYLE
1002
{
1070
    40
1040
1.0
1002
}
  0
POLYLINE
  5
31
  8
TEAM-BODY
 66
     1
 10
0.0
 20
0.0
 30
0.0
  0
VERTEX
  5
438
  8
TEAM-BODY
 10
850.000013
 20
0.0
 30
0.0
 42
0.411867
  0
VERTEX
  5
439
  8
TEAM-BODY
 10
472.222229
 20
374.777783
 30
0.0
  0
VERTEX
  5
43A
  8
TEAM-BODY
 10
-472.222229
 20
374.777783
 30
0.0
 42
0.411867
  0
VERTEX
  5
43B
  8
TEAM-BODY
 10
-850.000013
 20
0.0
 30
0.0
  0
SEQEND
  5
43C
  8
TEAM-BODY
  0
POLYLINE
  5
32
  8
TEAM-DET1
 66
     1
 10
0.0
 20
0.0
 30
0.0
  0
VERTEX
  5
43D
  8
TEAM-DET1
 10
-793.333345
 20
0.0
 30
0.0
 42
-0.411449
  0
VERTEX
  5
43E
  8
TEAM-DET1
 10
-472.222229
 20
318.111116
 30
0.0
  0
VERTEX
  5
43F
  8
TEAM-DET1
 10
472.222229
 20
318.111116
 30
0.0
 42
-0.411449
  0
VERTEX
  5
440
  8
TEAM-DET1
 10
793.333345
 20
0.0
 30
0.0
  0
SEQEND
  5
441
  8
TEAM-DET1
  0
POLYLINE
  5
34
  8
TEAM-DET1
 66
     1
 10
0.0
 20
0.0
 30
0.0
  0
VERTEX
  5
442
  8
TEAM-DET1
 10
-793.333345
 20
0.0
 30
0.0
 42
0.411449
  0
VERTEX
  5
443
  8
TEAM-DET1
 10
-472.222229
 20
-318.111116
 30
0.0
  0
VERTEX
  5
444
  8
TEAM-DET1
 10
472.222229
 20
-318.111116
 30
0.0
 42
0.411449
  0
VERTEX
  5
445
  8
TEAM-DET1
 10
793.333345
 20
0.0
 30
0.0
  0
SEQEND
  5
446
  8
TEAM-DET1
  0
POLYLINE
  5
35
  8
TEAM-BODY
 66
     1
 10
0.0
 20
0.0
 30
0.0
  0
VERTEX
  5
447
  8
TEAM-BODY
 10
-565.0
 20
0.0
 30
0.0
 42
-0.414214
  0
VERTEX
  5
448
  8
TEAM-BODY
 10
-310.0
 20
255.0
 30
0.0
  0
VERTEX
  5
449
  8
TEAM-BODY
 10
310.0
 20
255.0
 30
0.0
 42
-0.414214
  0
VERTEX
  5
44A
  8
TEAM-BODY
 10
565.0
 20
0.0
 30
0.0
  0
SEQEND
  5
44B
  8
TEAM-BODY
  0
POLYLINE
  5
36
  8
TEAM-BODY
 66
     1
 10
0.0
 20
0.0
 30
0.0
  0
VERTEX
  5
44C
  8
TEAM-BODY
 10
-565.0
 20
0.0
 30
0.0
 42
0.414214
  0
VERTEX
  5
44D
  8
TEAM-BODY
 10
-310.0
 20
-255.0
 30
0.0
  0
VERTEX
  5
44E
  8
TEAM-BODY
 10
310.0
 20
-255.0
 30
0.0
 42
0.414214
  0
VERTEX
  5
44F
  8
TEAM-BODY
 10
565.0
 20
0.0
 30
0.0
  0
SEQEND
  5
450
  8
TEAM-BODY
  0
TEXT
  5
37
  8
TEAM-TXT
 10
-372.321782
 20
184.397512
 30
0.0
 40
30.0
  1
team 111506
 41
0.8
 51
15.0
  7
TEAM
  0
DIMENSION
  5
3A
  8
TEAM-MAS
  2
*D2
 10
884.182689
 20
-375.222217
 30
0.0
 11
884.182689
 21
-0.222217
 31
0.0
 12
-4000.0
 22
-24000.0
 32
0.0
 13
472.222229
 23
374.777783
 33
0.0
 14
472.222181
 24
-375.222217
 34
0.0
 50
90.0
1001
ACAD
1000
DSTYLE
1002
{
1070
    40
1040
1.0
1002
}
  0
DIMENSION
  5
48
  8
TEAM-MAS
  2
*D1
 10
0.0
 20
403.436439
 30
0.0
 11
425.000006
 21
403.436439
 31
0.0
 12
-4000.0
 22
-24000.0
 32
0.0
 13
850.000013
 23
0.0
 33
0.0
 14
0.0
 24
0.0
 34
0.0
1001
ACAD
1000
DSTYLE
1002
{
1070
    40
1040
1.0
1002
}
  0
CIRCLE
  5
56
  8
TEAM-INSP
 10
0.0
 20
0.0
 30
0.0
 40
10.0
  0
CIRCLE
  5
58
  8
TEAM-DET1
 10
0.0
 20
0.0
 30
0.0
 40
35.0
  0
CIRCLE
  5
59
  8
TEAM-KAN
 10
0.0
 20
0.0
 30
0.0
 40
26.0
  0
LINE
  5
5B
  8
TEAM-AXE
 10
-32.47
 20
310.55556
 30
0.0
 11
32.479445
 21
310.55556
 31
0.0
  0
POLYLINE
  5
5E
  8
TEAM-DET1
 66
     1
 10
0.0
 20
0.0
 30
0.0
  0
VERTEX
  5
451
  8
TEAM-DET1
 10
22.836667
 20
308.817782
 30
0.0
  0
VERTEX
  5
452
  8
TEAM-DET1
 10
23.356111
 20
309.091671
 30
0.0
  0
VERTEX
  5
453
  8
TEAM-DET1
 10
23.790556
 20
309.384449
 30
0.0
  0
VERTEX
  5
454
  8
TEAM-DET1
 10
24.121111
 20
309.667782
 30
0.0
  0
VERTEX
  5
455
  8
TEAM-DET1
 10
24.366667
 20
309.96056
 30
0.0
  0
VERTEX
  5
456
  8
TEAM-DET1
 10
24.508334
 20
310.262782
 30
0.0
  0
VERTEX
  5
457
  8
TEAM-DET1
 10
24.555556
 20
310.55556
 30
0.0
  0
SEQEND
  5
458
  8
TEAM-DET1
  0
POLYLINE
  5
5F
  8
TEAM-DET1
 66
     1
 10
0.0
 20
0.0
 30
0.0
  0
VERTEX
  5
459
  8
TEAM-DET1
 10
-24.121111
 20
311.443338
 30
0.0
  0
VERTEX
  5
45A
  8
TEAM-DET1
 10
-24.357223
 20
311.15056
 30
0.0
  0
VERTEX
  5
45B
  8
TEAM-DET1
 10
-24.498889
 20
310.848338
 30
0.0
  0
VERTEX
  5
45C
  8
TEAM-DET1
 10
-24.555556
 20
310.55556
 30
0.0
  0
VERTEX
  5
45D
  8
TEAM-DET1
 10
-24.498889
 20
310.262782
 30
0.0
  0
VERTEX
  5
45E
  8
TEAM-DET1
 10
-24.357223
 20
309.96056
 30
0.0
  0
VERTEX
  5
45F
  8
TEAM-DET1
 10
-24.121111
 20
309.667782
 30
0.0
  0
VERTEX
  5
460
  8
TEAM-DET1
 10
-23.781111
 20
309.384449
 30
0.0
  0
VERTEX
  5
461
  8
TEAM-DET1
 10
-23.356111
 20
309.091671
 30
0.0
  0
VERTEX
  5
462
  8
TEAM-DET1
 10
-22.827223
 20
308.817782
 30
0.0
  0
VERTEX
  5
463
  8
TEAM-DET1
 10
-22.213334
 20
308.543894
 30
0.0
  0
VERTEX
  5
464
  8
TEAM-DET1
 10
-21.514445
 20
308.279449
 30
0.0
  0
VERTEX
  5
465
  8
TEAM-DET1
 10
-20.730556
 20
308.024449
 30
0.0
  0
VERTEX
  5
466
  8
TEAM-DET1
 10
-19.861667
 20
307.778894
 30
0.0
  0
VERTEX
  5
467
  8
TEAM-DET1
 10
-18.917223
 20
307.542782
 30
0.0
  0
VERTEX
  5
468
  8
TEAM-DET1
 10
-17.897222
 20
307.32556
 30
0.0
  0
VERTEX
  5
469
  8
TEAM-DET1
 10
-16.811111
 20
307.108338
 30
0.0
  0
VERTEX
  5
46A
  8
TEAM-DET1
 10
-15.649445
 20
306.919449
 30
0.0
  0
VERTEX
  5
46B
  8
TEAM-DET1
 10
-14.431111
 20
306.73056
 30
0.0
  0
VERTEX
  5
46C
  8
TEAM-DET1
 10
-13.156111
 20
306.570005
 30
0.0
  0
VERTEX
  5
46D
  8
TEAM-DET1
 10
-11.824445
 20
306.418894
 30
0.0
  0
VERTEX
  5
46E
  8
TEAM-DET1
 10
-10.455
 20
306.286671
 30
0.0
  0
VERTEX
  5
46F
  8
TEAM-DET1
 10
-9.038333
 20
306.163894
 30
0.0
  0
VERTEX
  5
470
  8
TEAM-DET1
 10
-7.583889
 20
306.069449
 30
0.0
  0
VERTEX
  5
471
  8
TEAM-DET1
 10
-6.101111
 20
305.984449
 30
0.0
  0
VERTEX
  5
472
  8
TEAM-DET1
 10
-4.599445
 20
305.918338
 30
0.0
  0
VERTEX
  5
473
  8
TEAM-DET1
 10
-3.078889
 20
305.871116
 30
0.0
  0
VERTEX
  5
474
  8
TEAM-DET1
 10
-1.539444
 20
305.842782
 30
0.0
  0
VERTEX
  5
475
  8
TEAM-DET1
 10
0.0
 20
305.833338
 30
0.0
  0
VERTEX
  5
476
  8
TEAM-DET1
 10
1.539444
 20
305.842782
 30
0.0
  0
VERTEX
  5
477
  8
TEAM-DET1
 10
3.078889
 20
305.871116
 30
0.0
  0
VERTEX
  5
478
  8
TEAM-DET1
 10
4.608889
 20
305.918338
 30
0.0
  0
VERTEX
  5
479
  8
TEAM-DET1
 10
6.110556
 20
305.984449
 30
0.0
  0
VERTEX
  5
47A
  8
TEAM-DET1
 10
7.593333
 20
306.069449
 30
0.0
  0
VERTEX
  5
47B
  8
TEAM-DET1
 10
9.047778
 20
306.163894
 30
0.0
  0
VERTEX
  5
47C
  8
TEAM-DET1
 10
10.455
 20
306.286671
 30
0.0
  0
VERTEX
  5
47D
  8
TEAM-DET1
 10
11.833889
 20
306.418894
 30
0.0
  0
VERTEX
  5
47E
  8
TEAM-DET1
 10
13.156111
 20
306.570005
 30
0.0
  0
VERTEX
  5
47F
  8
TEAM-DET1
 10
14.440556
 20
306.73056
 30
0.0
  0
VERTEX
  5
480
  8
TEAM-DET1
 10
15.658889
 20
306.919449
 30
0.0
  0
VERTEX
  5
481
  8
TEAM-DET1
 10
16.811111
 20
307.108338
 30
0.0
  0
VERTEX
  5
482
  8
TEAM-DET1
 10
17.897222
 20
307.32556
 30
0.0
  0
VERTEX
  5
483
  8
TEAM-DET1
 10
18.926667
 20
307.542782
 30
0.0
  0
VERTEX
  5
484
  8
TEAM-DET1
 10
19.871111
 20
307.778894
 30
0.0
  0
VERTEX
  5
485
  8
TEAM-DET1
 10
20.730556
 20
308.024449
 30
0.0
  0
VERTEX
  5
486
  8
TEAM-DET1
 10
21.523889
 20
308.279449
 30
0.0
  0
VERTEX
  5
487
  8
TEAM-DET1
 10
22.222778
 20
308.543894
 30
0.0
  0
VERTEX
  5
488
  8
TEAM-DET1
 10
22.836667
 20
308.817782
 30
0.0
  0
SEQEND
  5
489
  8
TEAM-DET1
  0
POLYLINE
  5
60
  8
TEAM-DET1
 66
     1
 10
0.0
 20
0.0
 30
0.0
  0
VERTEX
  5
48A
  8
TEAM-DET1
 10
24.555556
 20
310.55556
 30
0.0
  0
VERTEX
  5
48B
  8
TEAM-DET1
 10
24.508334
 20
310.848338
 30
0.0
  0
VERTEX
  5
48C
  8
TEAM-DET1
 10
24.366667
 20
311.15056
 30
0.0
  0
VERTEX
  5
48D
  8
TEAM-DET1
 10
24.121111
 20
311.443338
 30
0.0
  0
VERTEX
  5
48E
  8
TEAM-DET1
 10
23.790556
 20
311.726671
 30
0.0
  0
VERTEX
  5
48F
  8
TEAM-DET1
 10
23.356111
 20
312.010005
 30
0.0
  0
VERTEX
  5
490
  8
TEAM-DET1
 10
22.836667
 20
312.293338
 30
0.0
  0
VERTEX
  5
491
  8
TEAM-DET1
 10
22.222778
 20
312.567227
 30
0.0
  0
VERTEX
  5
492
  8
TEAM-DET1
 10
21.523889
 20
312.831671
 30
0.0
  0
VERTEX
  5
493
  8
TEAM-DET1
 10
20.730556
 20
313.086671
 30
0.0
  0
VERTEX
  5
494
  8
TEAM-DET1
 10
19.871111
 20
313.332227
 30
0.0
  0
VERTEX
  5
495
  8
TEAM-DET1
 10
18.926667
 20
313.568338
 30
0.0
  0
VERTEX
  5
496
  8
TEAM-DET1
 10
17.897222
 20
313.78556
 30
0.0
  0
VERTEX
  5
497
  8
TEAM-DET1
 10
16.811111
 20
314.002783
 30
0.0
  0
VERTEX
  5
498
  8
TEAM-DET1
 10
15.658889
 20
314.191671
 30
0.0
  0
VERTEX
  5
499
  8
TEAM-DET1
 10
14.440556
 20
314.371116
 30
0.0
  0
VERTEX
  5
49A
  8
TEAM-DET1
 10
13.156111
 20
314.541116
 30
0.0
  0
VERTEX
  5
49B
  8
TEAM-DET1
 10
11.833889
 20
314.692227
 30
0.0
  0
VERTEX
  5
49C
  8
TEAM-DET1
 10
10.455
 20
314.824449
 30
0.0
  0
VERTEX
  5
49D
  8
TEAM-DET1
 10
9.047778
 20
314.947227
 30
0.0
  0
VERTEX
  5
49E
  8
TEAM-DET1
 10
7.593333
 20
315.051116
 30
0.0
  0
VERTEX
  5
49F
  8
TEAM-DET1
 10
6.110556
 20
315.126671
 30
0.0
  0
VERTEX
  5
4A0
  8
TEAM-DET1
 10
4.608889
 20
315.192783
 30
0.0
  0
VERTEX
  5
4A1
  8
TEAM-DET1
 10
3.078889
 20
315.240005
 30
0.0
  0
VERTEX
  5
4A2
  8
TEAM-DET1
 10
1.539444
 20
315.268338
 30
0.0
  0
VERTEX
  5
4A3
  8
TEAM-DET1
 10
0.0
 20
315.277783
 30
0.0
  0
VERTEX
  5
4A4
  8
TEAM-DET1
 10
-1.539444
 20
315.268338
 30
0.0
  0
VERTEX
  5
4A5
  8
TEAM-DET1
 10
-3.078889
 20
315.240005
 30
0.0
  0
VERTEX
  5
4A6
  8
TEAM-DET1
 10
-4.599445
 20
315.192783
 30
0.0
  0
VERTEX
  5
4A7
  8
TEAM-DET1
 10
-6.101111
 20
315.126671
 30
0.0
  0
VERTEX
  5
4A8
  8
TEAM-DET1
 10
-7.583889
 20
315.051116
 30
0.0
  0
VERTEX
  5
4A9
  8
TEAM-DET1
 10
-9.038333
 20
314.947227
 30
0.0
  0
VERTEX
  5
4AA
  8
TEAM-DET1
 10
-10.455
 20
314.824449
 30
0.0
  0
VERTEX
  5
4AB
  8
TEAM-DET1
 10
-11.824445
 20
314.692227
 30
0.0
  0
VERTEX
  5
4AC
  8
TEAM-DET1
 10
-13.156111
 20
314.541116
 30
0.0
  0
VERTEX
  5
4AD
  8
TEAM-DET1
 10
-14.431111
 20
314.371116
 30
0.0
  0
VERTEX
  5
4AE
  8
TEAM-DET1
 10
-15.649445
 20
314.191671
 30
0.0
  0
VERTEX
  5
4AF
  8
TEAM-DET1
 10
-16.811111
 20
314.002783
 30
0.0
  0
VERTEX
  5
4B0
  8
TEAM-DET1
 10
-17.897222
 20
313.78556
 30
0.0
  0
VERTEX
  5
4B1
  8
TEAM-DET1
 10
-18.917223
 20
313.568338
 30
0.0
  0
VERTEX
  5
4B2
  8
TEAM-DET1
 10
-19.861667
 20
313.332227
 30
0.0
  0
VERTEX
  5
4B3
  8
TEAM-DET1
 10
-20.730556
 20
313.086671
 30
0.0
  0
VERTEX
  5
4B4
  8
TEAM-DET1
 10
-21.514445
 20
312.831671
 30
0.0
  0
VERTEX
  5
4B5
  8
TEAM-DET1
 10
-22.213334
 20
312.567227
 30
0.0
  0
VERTEX
  5
4B6
  8
TEAM-DET1
 10
-22.827223
 20
312.293338
 30
0.0
  0
VERTEX
  5
4B7
  8
TEAM-DET1
 10
-23.356111
 20
312.010005
 30
0.0
  0
VERTEX
  5
4B8
  8
TEAM-DET1
 10
-23.781111
 20
311.726671
 30
0.0
  0
VERTEX
  5
4B9
  8
TEAM-DET1
 10
-24.121111
 20
311.443338
 30
0.0
  0
SEQEND
  5
4BA
  8
TEAM-DET1
  0
LINE
  5
61
  8
TEAM-AXE
 10
-35.0
 20
0.0
 30
0.0
 11
35.0
 21
0.0
 31
0.0
  0
LINE
  5
62
  8
TEAM-AXE
 10
0.0
 20
-35.0
 30
0.0
 11
0.0
 21
35.0
 31
0.0
  0
ENDSEC
  0
EOF
