  0
SECTION
  2
HEADER
  9
$ACADVER
  1
AC1009
  9
$INSBASE
 10
0.0
 20
0.0
 30
0.0
  9
$EXTMIN
 10
-1001.847908
 20
-588.12484
 30
0.0
  9
$EXTMAX
 10
1046.443029
 20
500.824586
 30
0.0
  9
$LIMMIN
 10
-1001.847908
 20
-588.12484
  9
$LIMMAX
 10
1046.443029
 20
500.824586
  9
$ORTHOMODE
 70
     1
  9
$REGENMODE
 70
     1
  9
$FILLMODE
 70
     1
  9
$QTEXTMODE
 70
     0
  9
$MIRRTEXT
 70
     0
  9
$DRAGMODE
 70
     2
  9
$LTSCALE
 40
50.0
  9
$OSMODE
 70
     7
  9
$ATTMODE
 70
     1
  9
$TEXTSIZE
 40
200.0
  9
$TRACEWID
 40
1.0
  9
$TEXTSTYLE
  7
STANDARD
  9
$CLAYER
  8
TEAM-MAS
  9
$CELTYPE
  6
BYLAYER
  9
$CECOLOR
 62
   256
  9
$DIMSCALE
 40
0.0
  9
$DIMASZ
 40
20.0
  9
$DIMEXO
 40
10.0
  9
$DIMDLI
 40
1.0
  9
$DIMRND
 40
0.0
  9
$DIMDLE
 40
0.0
  9
$DIMEXE
 40
1.0
  9
$DIMTP
 40
0.0
  9
$DIMTM
 40
0.0
  9
$DIMTXT
 40
35.0
  9
$DIMCEN
 40
1.0
  9
$DIMTSZ
 40
0.0
  9
$DIMTOL
 70
     0
  9
$DIMLIM
 70
     0
  9
$DIMTIH
 70
     0
  9
$DIMTOH
 70
     0
  9
$DIMSE1
 70
     0
  9
$DIMSE2
 70
     0
  9
$DIMTAD
 70
     0
  9
$DIMZIN
 70
     0
  9
$DIMBLK
  1

  9
$DIMASO
 70
     1
  9
$DIMSHO
 70
     0
  9
$DIMPOST
  1

  9
$DIMAPOST
  1

  9
$DIMALT
 70
     0
  9
$DIMALTD
 70
     2
  9
$DIMALTF
 40
25.4
  9
$DIMLFAC
 40
1.0
  9
$DIMTOFL
 70
     0
  9
$DIMTVP
 40
0.0
  9
$DIMTIX
 70
     0
  9
$DIMSOXD
 70
     0
  9
$DIMSAH
 70
     0
  9
$DIMBLK1
  1

  9
$DIMBLK2
  1

  9
$DIMSTYLE
  2
TEAM
  9
$DIMCLRD
 70
     9
  9
$DIMCLRE
 70
     9
  9
$DIMCLRT
 70
    11
  9
$DIMTFAC
 40
1.0
  9
$DIMGAP
 40
7.0
  9
$LUNITS
 70
     2
  9
$LUPREC
 70
     1
  9
$SKETCHINC
 40
1.0
  9
$FILLETRAD
 40
10.0
  9
$AUNITS
 70
     0
  9
$AUPREC
 70
     0
  9
$MENU
  1
ROPLANS
  9
$ELEVATION
 40
0.0
  9
$PELEVATION
 40
0.0
  9
$THICKNESS
 40
0.0
  9
$LIMCHECK
 70
     0
  9
$BLIPMODE
 70
     1
  9
$CHAMFERA
 40
0.0
  9
$CHAMFERB
 40
0.0
  9
$SKPOLY
 70
     0
  9
$TDCREATE
 40
2450392.957851
  9
$TDUPDATE
 40
2455955.923321
  9
$TDINDWG
 40
2.217917
  9
$TDUSRTIMER
 40
2.217917
  9
$USRTIMER
 70
     1
  9
$ANGBASE
 50
0.0
  9
$ANGDIR
 70
     0
  9
$PDMODE
 70
     0
  9
$PDSIZE
 40
0.0
  9
$PLINEWID
 40
0.0
  9
$COORDS
 70
     2
  9
$SPLFRAME
 70
     0
  9
$SPLINETYPE
 70
     6
  9
$SPLINESEGS
 70
     8
  9
$ATTDIA
 70
     0
  9
$ATTREQ
 70
     0
  9
$HANDLING
 70
     1
  9
$HANDSEED
  5
3B2
  9
$SURFTAB1
 70
    24
  9
$SURFTAB2
 70
    24
  9
$SURFTYPE
 70
     6
  9
$SURFU
 70
     6
  9
$SURFV
 70
     6
  9
$UCSNAME
  2

  9
$UCSORG
 10
0.0
 20
0.0
 30
0.0
  9
$UCSXDIR
 10
1.0
 20
0.0
 30
0.0
  9
$UCSYDIR
 10
0.0
 20
1.0
 30
0.0
  9
$PUCSNAME
  2

  9
$PUCSORG
 10
0.0
 20
0.0
 30
0.0
  9
$PUCSXDIR
 10
1.0
 20
0.0
 30
0.0
  9
$PUCSYDIR
 10
0.0
 20
1.0
 30
0.0
  9
$USERI1
 70
     0
  9
$USERI2
 70
     0
  9
$USERI3
 70
     0
  9
$USERI4
 70
     0
  9
$USERI5
 70
     0
  9
$USERR1
 40
0.0
  9
$USERR2
 40
0.0
  9
$USERR3
 40
0.0
  9
$USERR4
 40
0.0
  9
$USERR5
 40
0.0
  9
$WORLDVIEW
 70
     1
  9
$SHADEDGE
 70
     0
  9
$SHADEDIF
 70
    70
  9
$TILEMODE
 70
     1
  9
$MAXACTVP
 70
    16
  9
$PLIMCHECK
 70
     0
  9
$PEXTMIN
 10
-0.805942
 20
0.005011
 30
0.0
  9
$PEXTMAX
 10
20.250094
 20
11.356329
 30
0.0
  9
$PLIMMIN
 10
0.0
 20
0.0
  9
$PLIMMAX
 10
12.0
 20
9.0
  9
$UNITMODE
 70
     0
  9
$VISRETAIN
 70
     0
  9
$PLINEGEN
 70
     0
  9
$PSLTSCALE
 70
     0
  0
ENDSEC
  0
SECTION
  2
TABLES
  0
TABLE
  2
VPORT
 70
     2
  0
VPORT
  2
*ACTIVE
 70
     0
 10
0.0
 20
0.0
 11
1.0
 21
1.0
 12
22.29756
 22
-43.650127
 13
0.0
 23
0.0
 14
1.0
 24
1.0
 15
50.0
 25
50.0
 16
0.0
 26
0.0
 36
1.0
 17
0.0
 27
0.0
 37
0.0
 40
1095.776695
 41
1.903766
 42
50.0
 43
0.0
 44
0.0
 50
0.0
 51
0.0
 71
     0
 72
   100
 73
     1
 74
     1
 75
     0
 76
     0
 77
     0
 78
     0
  0
ENDTAB
  0
TABLE
  2
LTYPE
 70
     2
  0
LTYPE
  2
CONTINUOUS
 70
     0
  3
Solid Line
 72
    65
 73
     0
 40
0.0
  0
LTYPE
  2
31
 70
     0
  3

 72
    65
 73
     4
 40
2.1
 49
1.5
 49
-0.3
 49
0.0
 49
-0.3
  0
ENDTAB
  0
TABLE
  2
LAYER
 70
     9
  0
LAYER
  2
0
 70
     0
 62
     7
  6
CONTINUOUS
  0
LAYER
  2
DEFPOINTS
 70
     0
 62
     7
  6
CONTINUOUS
  0
LAYER
  2
TEAM-BODY
 70
     0
 62
     2
  6
CONTINUOUS
  0
LAYER
  2
TEAM-AXE
 70
     0
 62
    10
  6
31
  0
LAYER
  2
TEAM-MAS
 70
     0
 62
     9
  6
CONTINUOUS
  0
LAYER
  2
TEAM-TXT
 70
     0
 62
    11
  6
CONTINUOUS
  0
LAYER
  2
TEAM-DET1
 70
     0
 62
     4
  6
CONTINUOUS
  0
LAYER
  2
TEAM-KAN
 70
     0
 62
     6
  6
CONTINUOUS
  0
LAYER
  2
TEAM-INSP
 70
     0
 62
     5
  6
CONTINUOUS
  0
ENDTAB
  0
TABLE
  2
STYLE
 70
     2
  0
STYLE
  2
STANDARD
 70
     0
 40
0.0
 41
1.0
 50
0.0
 71
     0
 42
200.0
  3
txt
  4

  0
STYLE
  2
TEAM
 70
     0
 40
0.0
 41
0.8
 50
15.0
 71
     0
 42
7.0
  3
ROMANS.shx
  4

  0
ENDTAB
  0
TABLE
  2
VIEW
 70
     0
  0
ENDTAB
  0
TABLE
  2
UCS
 70
     0
  0
ENDTAB
  0
TABLE
  2
APPID
 70
     1
  0
APPID
  2
ACAD
 70
     0
  0
ENDTAB
  0
TABLE
  2
DIMSTYLE
 70
     1
  0
DIMSTYLE
  2
TEAM
 70
     0
  3

  4

  5

  6

  7

 40
0.0
 41
20.0
 42
10.0
 43
1.0
 44
1.0
 45
0.0
 46
0.0
 47
0.0
 48
0.0
140
35.0
141
1.0
142
0.0
143
25.4
144
1.0
145
0.0
146
1.0
147
7.0
 71
     0
 72
     0
 73
     0
 74
     0
 75
     0
 76
     0
 77
     0
 78
     0
170
     0
171
     2
172
     0
173
     0
174
     0
175
     0
176
     9
177
     9
178
    11
  0
ENDTAB
  0
ENDSEC
  0
SECTION
  2
BLOCKS
  0
BLOCK
  8
0
  2
$MODEL_SPACE
 70
     0
 10
0.0
 20
0.0
 30
0.0
  3
$MODEL_SPACE
  1

  0
ENDBLK
  5
34B
  8
0
  0
BLOCK
 67
     1
  8
0
  2
$PAPER_SPACE
 70
     0
 10
0.0
 20
0.0
 30
0.0
  3
$PAPER_SPACE
  1

  0
ENDBLK
  5
349
 67
     1
  8
0
  0
BLOCK
  8
0
  2
*D0
 70
     1
 10
0.0
 20
0.0
 30
0.0
  3
*D0
  1

  0
LINE
  5
22
  8
0
  6
BYBLOCK
 62
     9
 10
4950.0
 20
51990.0
 30
0.0
 11
4950.0
 21
51428.375961
 31
0.0
  0
LINE
  5
23
  8
0
  6
BYBLOCK
 62
     9
 10
3050.0
 20
51990.0
 30
0.0
 11
3050.0
 21
51428.375961
 31
0.0
  0
LINE
  5
24
  8
0
  6
BYBLOCK
 62
     9
 10
4930.0
 20
51429.375961
 30
0.0
 11
4059.5
 21
51429.375961
 31
0.0
  0
LINE
  5
25
  8
0
  6
BYBLOCK
 62
     9
 10
3070.0
 20
51429.375961
 30
0.0
 11
3940.5
 21
51429.375961
 31
0.0
  0
SOLID
  5
26
  8
0
  6
BYBLOCK
 62
     9
 10
4930.0
 20
51432.709294
 30
0.0
 11
4930.0
 21
51426.042627
 31
0.0
 12
4950.0
 22
51429.375961
 32
0.0
 13
4950.0
 23
51429.375961
 33
0.0
  0
SOLID
  5
27
  8
0
  6
BYBLOCK
 62
     9
 10
3070.0
 20
51432.709294
 30
0.0
 11
3070.0
 21
51426.042627
 31
0.0
 12
3050.0
 22
51429.375961
 32
0.0
 13
3050.0
 23
51429.375961
 33
0.0
  0
TEXT
  5
28
  8
0
  6
BYBLOCK
 62
    11
 10
3947.5
 20
51411.875961
 30
0.0
 40
35.0
  1
1900
  0
POINT
  5
29
  8
DEFPOINTS
  6
BYBLOCK
 62
     0
 10
4950.0
 20
52000.0
 30
0.0
  0
POINT
  5
2B
  8
DEFPOINTS
  6
BYBLOCK
 62
     0
 10
3050.0
 20
52000.0
 30
0.0
  0
POINT
  5
2C
  8
DEFPOINTS
  6
BYBLOCK
 62
     0
 10
3050.0
 20
51429.375961
 30
0.0
  0
ENDBLK
  5
2E
  8
0
  0
BLOCK
  8
0
  2
*D1
 70
     1
 10
0.0
 20
0.0
 30
0.0
  3
*D1
  1

  0
LINE
  5
5B
  8
0
  6
BYBLOCK
 62
     9
 10
4011.908856
 20
51500.000006
 30
0.0
 11
5029.900363
 21
51500.000006
 31
0.0
  0
LINE
  5
5C
  8
0
  6
BYBLOCK
 62
     9
 10
4011.908856
 20
52499.999994
 30
0.0
 11
5029.900363
 21
52499.999994
 31
0.0
  0
LINE
  5
5D
  8
0
  6
BYBLOCK
 62
     9
 10
5028.900363
 20
51520.000006
 30
0.0
 11
5028.900363
 21
51943.416667
 31
0.0
  0
LINE
  5
5E
  8
0
  6
BYBLOCK
 62
     9
 10
5028.900363
 20
52479.999994
 30
0.0
 11
5028.900363
 21
52056.583333
 31
0.0
  0
TEXT
  5
5F
  8
0
  6
BYBLOCK
 62
    11
 10
5046.400363
 20
51950.416667
 30
0.0
 40
35.0
  1
1000
 50
90.0
  0
SOLID
  5
60
  8
0
  6
BYBLOCK
 62
     9
 10
5025.56703
 20
51520.000006
 30
0.0
 11
5032.233697
 21
51520.000006
 31
0.0
 12
5028.900363
 22
51500.000006
 32
0.0
 13
5028.900363
 23
51500.000006
 33
0.0
  0
SOLID
  5
61
  8
0
  6
BYBLOCK
 62
     9
 10
5025.56703
 20
52479.999994
 30
0.0
 11
5032.233697
 21
52479.999994
 31
0.0
 12
5028.900363
 22
52499.999994
 32
0.0
 13
5028.900363
 23
52499.999994
 33
0.0
  0
POINT
  5
62
  8
DEFPOINTS
  6
BYBLOCK
 62
     0
 10
4001.908856
 20
51500.000006
 30
0.0
  0
POINT
  5
63
  8
DEFPOINTS
  6
BYBLOCK
 62
     0
 10
4001.908856
 20
52499.999994
 30
0.0
  0
POINT
  5
64
  8
DEFPOINTS
  6
BYBLOCK
 62
     0
 10
5028.900363
 20
52499.999994
 30
0.0
  0
ENDBLK
  5
66
  8
0
  0
BLOCK
  8
0
  2
*D2
 70
     1
 10
0.0
 20
0.0
 30
0.0
  3
*D2
  1

  0
LINE
  5
4D
  8
0
  6
BYBLOCK
 62
     9
 10
4950.0
 20
51990.0
 30
0.0
 11
4950.0
 21
51463.057765
 31
0.0
  0
LINE
  5
4E
  8
0
  6
BYBLOCK
 62
     9
 10
4000.0
 20
51883.538344
 30
0.0
 11
4000.0
 21
51463.057765
 31
0.0
  0
LINE
  5
4F
  8
0
  6
BYBLOCK
 62
     9
 10
4930.0
 20
51464.057765
 30
0.0
 11
4525.75
 21
51464.057765
 31
0.0
  0
LINE
  5
50
  8
0
  6
BYBLOCK
 62
     9
 10
4020.0
 20
51464.057765
 30
0.0
 11
4424.25
 21
51464.057765
 31
0.0
  0
SOLID
  5
51
  8
0
  6
BYBLOCK
 62
     9
 10
4930.0
 20
51467.391098
 30
0.0
 11
4930.0
 21
51460.724431
 31
0.0
 12
4950.0
 22
51464.057765
 32
0.0
 13
4950.0
 23
51464.057765
 33
0.0
  0
SOLID
  5
52
  8
0
  6
BYBLOCK
 62
     9
 10
4020.0
 20
51467.391098
 30
0.0
 11
4020.0
 21
51460.724431
 31
0.0
 12
4000.0
 22
51464.057765
 32
0.0
 13
4000.0
 23
51464.057765
 33
0.0
  0
TEXT
  5
53
  8
0
  6
BYBLOCK
 62
    11
 10
4431.25
 20
51446.557765
 30
0.0
 40
35.0
  1
950
  0
POINT
  5
54
  8
DEFPOINTS
  6
BYBLOCK
 62
     0
 10
4950.0
 20
52000.0
 30
0.0
  0
POINT
  5
55
  8
DEFPOINTS
  6
BYBLOCK
 62
     0
 10
4000.0
 20
51893.538344
 30
0.0
  0
POINT
  5
56
  8
DEFPOINTS
  6
BYBLOCK
 62
     0
 10
4000.0
 20
51464.057765
 30
0.0
  0
ENDBLK
  5
58
  8
0
  0
BLOCK
  8
0
  2
*D3
 70
     1
 10
0.0
 20
0.0
 30
0.0
  3
*D3
  1

  0
LINE
  5
3F
  8
0
  6
BYBLOCK
 62
     9
 10
4011.908856
 20
51500.000006
 30
0.0
 11
4991.034693
 21
51500.000006
 31
0.0
  0
LINE
  5
40
  8
0
  6
BYBLOCK
 62
     9
 10
4116.461656
 20
52000.0
 30
0.0
 11
4991.034693
 21
52000.0
 31
0.0
  0
LINE
  5
41
  8
0
  6
BYBLOCK
 62
     9
 10
4990.034693
 20
51520.000006
 30
0.0
 11
4990.034693
 21
51702.16667
 31
0.0
  0
LINE
  5
42
  8
0
  6
BYBLOCK
 62
     9
 10
4990.034693
 20
51980.0
 30
0.0
 11
4990.034693
 21
51797.833337
 31
0.0
  0
SOLID
  5
43
  8
0
  6
BYBLOCK
 62
     9
 10
4986.70136
 20
51520.000006
 30
0.0
 11
4993.368026
 21
51520.000006
 31
0.0
 12
4990.034693
 22
51500.000006
 32
0.0
 13
4990.034693
 23
51500.000006
 33
0.0
  0
SOLID
  5
44
  8
0
  6
BYBLOCK
 62
     9
 10
4986.70136
 20
51980.0
 30
0.0
 11
4993.368026
 21
51980.0
 31
0.0
 12
4990.034693
 22
52000.0
 32
0.0
 13
4990.034693
 23
52000.0
 33
0.0
  0
TEXT
  5
45
  8
0
  6
BYBLOCK
 62
    11
 10
5007.534693
 20
51709.16667
 30
0.0
 40
35.0
  1
500
 50
90.0
  0
POINT
  5
46
  8
DEFPOINTS
  6
BYBLOCK
 62
     0
 10
4001.908856
 20
51500.000006
 30
0.0
  0
POINT
  5
47
  8
DEFPOINTS
  6
BYBLOCK
 62
     0
 10
4106.461656
 20
52000.0
 30
0.0
  0
POINT
  5
48
  8
DEFPOINTS
  6
BYBLOCK
 62
     0
 10
4990.034693
 20
52000.0
 30
0.0
  0
ENDBLK
  5
4A
  8
0
  0
ENDSEC
  0
SECTION
  2
ENTITIES
  0
DIMENSION
  5
20
  8
TEAM-MAS
  2
*D0
 10
-950.0
 20
-570.624039
 30
0.0
 11
0.0
 21
-570.624039
 31
0.0
 12
-4000.0
 22
-52000.0
 32
0.0
 13
950.0
 23
0.0
 33
0.0
 14
-950.0
 24
0.0
 34
0.0
1001
ACAD
1000
DSTYLE
1002
{
1070
    40
1040
1.0
1002
}
  0
POLYLINE
  5
2F
  8
TEAM-BODY
 66
     1
 10
0.0
 20
0.0
 30
0.0
  0
VERTEX
  5
351
  8
TEAM-BODY
 10
950.0
 20
0.0
 30
0.0
 42
0.298914
  0
VERTEX
  5
352
  8
TEAM-BODY
 10
725.555256
 20
341.888683
 30
0.0
 42
0.217412
  0
VERTEX
  5
353
  8
TEAM-BODY
 10
-722.062095
 20
343.381478
 30
0.0
 42
0.301693
  0
VERTEX
  5
354
  8
TEAM-BODY
 10
-950.0
 20
0.0
 30
0.0
  0
SEQEND
  5
355
  8
TEAM-BODY
  0
POLYLINE
  5
31
  8
TEAM-BODY
 66
     1
 10
0.0
 20
0.0
 30
0.0
  0
VERTEX
  5
356
  8
TEAM-BODY
 10
950.0
 20
0.0
 30
0.0
 42
-0.298914
  0
VERTEX
  5
357
  8
TEAM-BODY
 10
725.555256
 20
-341.888683
 30
0.0
 42
-0.217412
  0
VERTEX
  5
358
  8
TEAM-BODY
 10
-722.062095
 20
-343.381478
 30
0.0
 42
-0.301693
  0
VERTEX
  5
359
  8
TEAM-BODY
 10
-950.0
 20
0.0
 30
0.0
  0
SEQEND
  5
35A
  8
TEAM-BODY
  0
POLYLINE
  5
32
  8
TEAM-DET1
 66
     1
 10
0.0
 20
0.0
 30
0.0
  0
VERTEX
  5
35B
  8
TEAM-DET1
 10
896.769172
 20
0.0
 30
0.0
 42
0.253752
  0
VERTEX
  5
35C
  8
TEAM-DET1
 10
715.162487
 20
303.949365
 30
0.0
 42
0.239886
  0
VERTEX
  5
35D
  8
TEAM-DET1
 10
-705.452693
 20
305.31005
 30
0.0
 42
0.269981
  0
VERTEX
  5
35E
  8
TEAM-DET1
 10
-896.769172
 20
0.0
 30
0.0
  0
SEQEND
  5
35F
  8
TEAM-DET1
  0
POLYLINE
  5
34
  8
TEAM-DET1
 66
     1
 10
0.0
 20
0.0
 30
0.0
  0
VERTEX
  5
360
  8
TEAM-DET1
 10
896.769172
 20
0.0
 30
0.0
 42
-0.253752
  0
VERTEX
  5
361
  8
TEAM-DET1
 10
715.162487
 20
-303.949365
 30
0.0
 42
-0.239886
  0
VERTEX
  5
362
  8
TEAM-DET1
 10
-705.452693
 20
-305.31005
 30
0.0
 42
-0.269981
  0
VERTEX
  5
363
  8
TEAM-DET1
 10
-896.769172
 20
0.0
 30
0.0
  0
SEQEND
  5
364
  8
TEAM-DET1
  0
POLYLINE
  5
35
  8
TEAM-BODY
 66
     1
 10
0.0
 20
0.0
 30
0.0
 70
   128
210
0.0
220
0.0
230
-1.0
  0
VERTEX
  5
365
  8
TEAM-BODY
 10
-638.823168
 20
0.0
 30
0.0
  0
VERTEX
  5
366
  8
TEAM-BODY
 10
-636.392456
 20
-27.836234
 30
0.0
  0
VERTEX
  5
367
  8
TEAM-BODY
 10
-629.118817
 20
-55.460618
 30
0.0
  0
VERTEX
  5
368
  8
TEAM-BODY
 10
-617.05761
 20
-82.662913
 30
0.0
  0
VERTEX
  5
369
  8
TEAM-BODY
 10
-600.300627
 20
-109.236093
 30
0.0
  0
VERTEX
  5
36A
  8
TEAM-BODY
 10
-578.975399
 20
-134.97792
 30
0.0
  0
VERTEX
  5
36B
  8
TEAM-BODY
 10
-553.244224
 20
-159.692484
 30
0.0
  0
VERTEX
  5
36C
  8
TEAM-BODY
 10
-523.302931
 20
-183.191692
 30
0.0
  0
VERTEX
  5
36D
  8
TEAM-BODY
 10
-489.379392
 20
-205.296701
 30
0.0
  0
VERTEX
  5
36E
  8
TEAM-BODY
 10
-451.731785
 20
-225.839277
 30
0.0
  0
VERTEX
  5
36F
  8
TEAM-BODY
 10
-410.646632
 20
-244.66308
 30
0.0
  0
VERTEX
  5
370
  8
TEAM-BODY
 10
-366.436615
 20
-261.62485
 30
0.0
  0
VERTEX
  5
371
  8
TEAM-BODY
 10
-319.438199
 20
-276.595496
 30
0.0
  0
VERTEX
  5
372
  8
TEAM-BODY
 10
-270.009071
 20
-289.461084
 30
0.0
  0
VERTEX
  5
373
  8
TEAM-BODY
 10
-218.525416
 20
-300.123698
 30
0.0
  0
VERTEX
  5
374
  8
TEAM-BODY
 10
-165.379056
 20
-308.50219
 30
0.0
  0
VERTEX
  5
375
  8
TEAM-BODY
 10
-110.974466
 20
-314.532793
 30
0.0
  0
VERTEX
  5
376
  8
TEAM-BODY
 10
-55.725699
 20
-318.169612
 30
0.0
  0
VERTEX
  5
377
  8
TEAM-BODY
 10
-0.053231
 20
-319.384969
 30
0.0
  0
VERTEX
  5
378
  8
TEAM-BODY
 10
55.619237
 20
-318.169612
 30
0.0
  0
VERTEX
  5
379
  8
TEAM-BODY
 10
110.868005
 20
-314.532793
 30
0.0
  0
VERTEX
  5
37A
  8
TEAM-BODY
 10
165.272594
 20
-308.50219
 30
0.0
  0
VERTEX
  5
37B
  8
TEAM-BODY
 10
218.418955
 20
-300.123698
 30
0.0
  0
VERTEX
  5
37C
  8
TEAM-BODY
 10
269.90261
 20
-289.461084
 30
0.0
  0
VERTEX
  5
37D
  8
TEAM-BODY
 10
319.331738
 20
-276.595496
 30
0.0
  0
VERTEX
  5
37E
  8
TEAM-BODY
 10
366.330153
 20
-261.62485
 30
0.0
  0
VERTEX
  5
37F
  8
TEAM-BODY
 10
410.54017
 20
-244.66308
 30
0.0
  0
VERTEX
  5
380
  8
TEAM-BODY
 10
451.625323
 20
-225.839277
 30
0.0
  0
VERTEX
  5
381
  8
TEAM-BODY
 10
489.27293
 20
-205.296701
 30
0.0
  0
VERTEX
  5
382
  8
TEAM-BODY
 10
523.196469
 20
-183.191692
 30
0.0
  0
VERTEX
  5
383
  8
TEAM-BODY
 10
553.137762
 20
-159.692484
 30
0.0
  0
VERTEX
  5
384
  8
TEAM-BODY
 10
578.868937
 20
-134.97792
 30
0.0
  0
VERTEX
  5
385
  8
TEAM-BODY
 10
600.194165
 20
-109.236093
 30
0.0
  0
VERTEX
  5
386
  8
TEAM-BODY
 10
616.951149
 20
-82.662913
 30
0.0
  0
VERTEX
  5
387
  8
TEAM-BODY
 10
629.012356
 20
-55.460618
 30
0.0
  0
VERTEX
  5
388
  8
TEAM-BODY
 10
636.285994
 20
-27.836234
 30
0.0
  0
VERTEX
  5
389
  8
TEAM-BODY
 10
638.716706
 20
0.0
 30
0.0
  0
SEQEND
  5
38A
  8
TEAM-BODY
  0
POLYLINE
  5
36
  8
TEAM-BODY
 66
     1
 10
0.0
 20
0.0
 30
0.0
 70
   128
  0
VERTEX
  5
38B
  8
TEAM-BODY
 10
638.823168
 20
0.0
 30
0.0
  0
VERTEX
  5
38C
  8
TEAM-BODY
 10
636.392456
 20
27.836234
 30
0.0
  0
VERTEX
  5
38D
  8
TEAM-BODY
 10
629.118817
 20
55.460618
 30
0.0
  0
VERTEX
  5
38E
  8
TEAM-BODY
 10
617.05761
 20
82.662913
 30
0.0
  0
VERTEX
  5
38F
  8
TEAM-BODY
 10
600.300627
 20
109.236093
 30
0.0
  0
VERTEX
  5
390
  8
TEAM-BODY
 10
578.975399
 20
134.97792
 30
0.0
  0
VERTEX
  5
391
  8
TEAM-BODY
 10
553.244224
 20
159.692484
 30
0.0
  0
VERTEX
  5
392
  8
TEAM-BODY
 10
523.302931
 20
183.191692
 30
0.0
  0
VERTEX
  5
393
  8
TEAM-BODY
 10
489.379392
 20
205.296701
 30
0.0
  0
VERTEX
  5
394
  8
TEAM-BODY
 10
451.731785
 20
225.839277
 30
0.0
  0
VERTEX
  5
395
  8
TEAM-BODY
 10
410.646632
 20
244.66308
 30
0.0
  0
VERTEX
  5
396
  8
TEAM-BODY
 10
366.436615
 20
261.62485
 30
0.0
  0
VERTEX
  5
397
  8
TEAM-BODY
 10
319.438199
 20
276.595496
 30
0.0
  0
VERTEX
  5
398
  8
TEAM-BODY
 10
270.009071
 20
289.461084
 30
0.0
  0
VERTEX
  5
399
  8
TEAM-BODY
 10
218.525416
 20
300.123698
 30
0.0
  0
VERTEX
  5
39A
  8
TEAM-BODY
 10
165.379056
 20
308.50219
 30
0.0
  0
VERTEX
  5
39B
  8
TEAM-BODY
 10
110.974466
 20
314.532793
 30
0.0
  0
VERTEX
  5
39C
  8
TEAM-BODY
 10
55.725699
 20
318.169612
 30
0.0
  0
VERTEX
  5
39D
  8
TEAM-BODY
 10
0.053231
 20
319.384969
 30
0.0
  0
VERTEX
  5
39E
  8
TEAM-BODY
 10
-55.619237
 20
318.169612
 30
0.0
  0
VERTEX
  5
39F
  8
TEAM-BODY
 10
-110.868005
 20
314.532793
 30
0.0
  0
VERTEX
  5
3A0
  8
TEAM-BODY
 10
-165.272594
 20
308.50219
 30
0.0
  0
VERTEX
  5
3A1
  8
TEAM-BODY
 10
-218.418955
 20
300.123698
 30
0.0
  0
VERTEX
  5
3A2
  8
TEAM-BODY
 10
-269.90261
 20
289.461084
 30
0.0
  0
VERTEX
  5
3A3
  8
TEAM-BODY
 10
-319.331738
 20
276.595496
 30
0.0
  0
VERTEX
  5
3A4
  8
TEAM-BODY
 10
-366.330153
 20
261.62485
 30
0.0
  0
VERTEX
  5
3A5
  8
TEAM-BODY
 10
-410.54017
 20
244.66308
 30
0.0
  0
VERTEX
  5
3A6
  8
TEAM-BODY
 10
-451.625323
 20
225.839277
 30
0.0
  0
VERTEX
  5
3A7
  8
TEAM-BODY
 10
-489.27293
 20
205.296701
 30
0.0
  0
VERTEX
  5
3A8
  8
TEAM-BODY
 10
-523.196469
 20
183.191692
 30
0.0
  0
VERTEX
  5
3A9
  8
TEAM-BODY
 10
-553.137762
 20
159.692484
 30
0.0
  0
VERTEX
  5
3AA
  8
TEAM-BODY
 10
-578.868937
 20
134.97792
 30
0.0
  0
VERTEX
  5
3AB
  8
TEAM-BODY
 10
-600.194165
 20
109.236093
 30
0.0
  0
VERTEX
  5
3AC
  8
TEAM-BODY
 10
-616.951149
 20
82.662913
 30
0.0
  0
VERTEX
  5
3AD
  8
TEAM-BODY
 10
-629.012356
 20
55.460618
 30
0.0
  0
VERTEX
  5
3AE
  8
TEAM-BODY
 10
-636.285994
 20
27.836234
 30
0.0
  0
VERTEX
  5
3AF
  8
TEAM-BODY
 10
-638.716706
 20
0.0
 30
0.0
  0
SEQEND
  5
3B0
  8
TEAM-BODY
  0
LINE
  5
37
  8
TEAM-AXE
 10
-106.461656
 20
0.0
 30
0.0
 11
106.461656
 21
0.0
 31
0.0
  0
TEXT
  5
3A
  8
TEAM-TXT
 10
-439.743918
 20
147.663796
 30
0.0
 40
31.938497
  1
team 111539
 41
0.7
 51
15.0
  7
TEAM
  0
DIMENSION
  5
3D
  8
TEAM-MAS
  2
*D3
 10
990.034693
 20
0.0
 30
0.0
 11
990.034693
 21
-249.999997
 31
0.0
 12
-4000.0
 22
-52000.0
 32
0.0
 13
1.908856
 23
-499.999994
 33
0.0
 14
106.461656
 24
0.0
 34
0.0
 50
90.0
1001
ACAD
1000
DSTYLE
1002
{
1070
    40
1040
1.0
1002
}
  0
DIMENSION
  5
4B
  8
TEAM-MAS
  2
*D2
 10
0.0
 20
-535.942235
 30
0.0
 11
475.0
 21
-535.942235
 31
0.0
 12
-4000.0
 22
-52000.0
 32
0.0
 13
950.0
 23
0.0
 33
0.0
 14
0.0
 24
-106.461656
 34
0.0
1001
ACAD
1000
DSTYLE
1002
{
1070
    40
1040
1.0
1002
}
  0
DIMENSION
  5
59
  8
TEAM-MAS
  2
*D1
 10
1028.900363
 20
499.999994
 30
0.0
 11
1028.900363
 21
0.0
 31
0.0
 12
-4000.0
 22
-52000.0
 32
0.0
 70
   128
 13
1.908856
 23
-499.999994
 33
0.0
 14
1.908856
 24
499.999994
 34
0.0
 50
90.0
1001
ACAD
1000
DSTYLE
1002
{
1070
    40
1040
1.0
1002
}
  0
CIRCLE
  5
67
  8
TEAM-DET1
 10
0.0
 20
0.0
 30
0.0
 40
42.584662
  0
CIRCLE
  5
68
  8
TEAM-BODY
 10
0.0
 20
0.0
 30
0.0
 40
37.26158
  0
CIRCLE
  5
69
  8
TEAM-KAN
 10
0.0
 20
0.0
 30
0.0
 40
27.680031
  0
CIRCLE
  5
6B
  8
TEAM-INSP
 10
0.0
 20
0.0
 30
0.0
 40
7.558778
  0
LINE
  5
6D
  8
TEAM-AXE
 10
0.0
 20
-106.461656
 30
0.0
 11
0.0
 21
106.461656
 31
0.0
  0
ENDSEC
  0
EOF
