  0
SECTION
  2
HEADER
  9
$ACADVER
  1
AC1009
  9
$INSBASE
 10
0.0
 20
0.0
 30
0.0
  9
$EXTMIN
 10
-518.097656
 20
-7.117056
 30
0.0
  9
$EXTMAX
 10
589.078125
 20
645.51429
 30
0.0
  9
$LIMMIN
 10
-518.097656
 20
-7.117056
  9
$LIMMAX
 10
589.078125
 20
645.51429
  9
$ORTHOMODE
 70
     1
  9
$REGENMODE
 70
     1
  9
$FILLMODE
 70
     1
  9
$QTEXTMODE
 70
     0
  9
$MIRRTEXT
 70
     0
  9
$DRAGMODE
 70
     2
  9
$LTSCALE
 40
50.0
  9
$OSMODE
 70
     7
  9
$ATTMODE
 70
     1
  9
$TEXTSIZE
 40
200.0
  9
$TRACEWID
 40
1.0
  9
$TEXTSTYLE
  7
STANDARD
  9
$CLAYER
  8
TEAM-MAS
  9
$CELTYPE
  6
BYLAYER
  9
$CECOLOR
 62
   256
  9
$DIMSCALE
 40
0.0
  9
$DIMASZ
 40
20.0
  9
$DIMEXO
 40
10.0
  9
$DIMDLI
 40
1.0
  9
$DIMRND
 40
0.0
  9
$DIMDLE
 40
0.0
  9
$DIMEXE
 40
1.0
  9
$DIMTP
 40
0.0
  9
$DIMTM
 40
0.0
  9
$DIMTXT
 40
35.0
  9
$DIMCEN
 40
1.0
  9
$DIMTSZ
 40
0.0
  9
$DIMTOL
 70
     0
  9
$DIMLIM
 70
     0
  9
$DIMTIH
 70
     0
  9
$DIMTOH
 70
     0
  9
$DIMSE1
 70
     0
  9
$DIMSE2
 70
     0
  9
$DIMTAD
 70
     0
  9
$DIMZIN
 70
     0
  9
$DIMBLK
  1

  9
$DIMASO
 70
     1
  9
$DIMSHO
 70
     0
  9
$DIMPOST
  1

  9
$DIMAPOST
  1

  9
$DIMALT
 70
     0
  9
$DIMALTD
 70
     2
  9
$DIMALTF
 40
25.4
  9
$DIMLFAC
 40
1.0
  9
$DIMTOFL
 70
     0
  9
$DIMTVP
 40
0.0
  9
$DIMTIX
 70
     0
  9
$DIMSOXD
 70
     0
  9
$DIMSAH
 70
     0
  9
$DIMBLK1
  1

  9
$DIMBLK2
  1

  9
$DIMSTYLE
  2
TEAM
  9
$DIMCLRD
 70
     9
  9
$DIMCLRE
 70
     9
  9
$DIMCLRT
 70
    11
  9
$DIMTFAC
 40
1.0
  9
$DIMGAP
 40
7.0
  9
$LUNITS
 70
     2
  9
$LUPREC
 70
     1
  9
$SKETCHINC
 40
1.0
  9
$FILLETRAD
 40
10.0
  9
$AUNITS
 70
     0
  9
$AUPREC
 70
     0
  9
$MENU
  1
ROPLANS
  9
$ELEVATION
 40
0.0
  9
$PELEVATION
 40
0.0
  9
$THICKNESS
 40
0.0
  9
$LIMCHECK
 70
     0
  9
$BLIPMODE
 70
     1
  9
$CHAMFERA
 40
0.0
  9
$CHAMFERB
 40
0.0
  9
$SKPOLY
 70
     0
  9
$TDCREATE
 40
2450392.957851
  9
$TDUPDATE
 40
2455955.923321
  9
$TDINDWG
 40
2.217917
  9
$TDUSRTIMER
 40
2.217917
  9
$USRTIMER
 70
     1
  9
$ANGBASE
 50
0.0
  9
$ANGDIR
 70
     0
  9
$PDMODE
 70
     0
  9
$PDSIZE
 40
0.0
  9
$PLINEWID
 40
0.0
  9
$COORDS
 70
     2
  9
$SPLFRAME
 70
     0
  9
$SPLINETYPE
 70
     6
  9
$SPLINESEGS
 70
     8
  9
$ATTDIA
 70
     0
  9
$ATTREQ
 70
     0
  9
$HANDLING
 70
     1
  9
$HANDSEED
  5
2AC
  9
$SURFTAB1
 70
    24
  9
$SURFTAB2
 70
    24
  9
$SURFTYPE
 70
     6
  9
$SURFU
 70
     6
  9
$SURFV
 70
     6
  9
$UCSNAME
  2

  9
$UCSORG
 10
0.0
 20
0.0
 30
0.0
  9
$UCSXDIR
 10
1.0
 20
0.0
 30
0.0
  9
$UCSYDIR
 10
0.0
 20
1.0
 30
0.0
  9
$PUCSNAME
  2

  9
$PUCSORG
 10
0.0
 20
0.0
 30
0.0
  9
$PUCSXDIR
 10
1.0
 20
0.0
 30
0.0
  9
$PUCSYDIR
 10
0.0
 20
1.0
 30
0.0
  9
$USERI1
 70
     0
  9
$USERI2
 70
     0
  9
$USERI3
 70
     0
  9
$USERI4
 70
     0
  9
$USERI5
 70
     0
  9
$USERR1
 40
0.0
  9
$USERR2
 40
0.0
  9
$USERR3
 40
0.0
  9
$USERR4
 40
0.0
  9
$USERR5
 40
0.0
  9
$WORLDVIEW
 70
     1
  9
$SHADEDGE
 70
     0
  9
$SHADEDIF
 70
    70
  9
$TILEMODE
 70
     1
  9
$MAXACTVP
 70
    16
  9
$PLIMCHECK
 70
     0
  9
$PEXTMIN
 10
-0.805942
 20
0.005011
 30
0.0
  9
$PEXTMAX
 10
20.250094
 20
11.356329
 30
0.0
  9
$PLIMMIN
 10
0.0
 20
0.0
  9
$PLIMMAX
 10
12.0
 20
9.0
  9
$UNITMODE
 70
     0
  9
$VISRETAIN
 70
     0
  9
$PLINEGEN
 70
     0
  9
$PSLTSCALE
 70
     0
  0
ENDSEC
  0
SECTION
  2
TABLES
  0
TABLE
  2
VPORT
 70
     2
  0
VPORT
  2
*ACTIVE
 70
     0
 10
0.0
 20
0.0
 11
1.0
 21
1.0
 12
35.490234
 22
319.198617
 13
0.0
 23
0.0
 14
1.0
 24
1.0
 15
50.0
 25
50.0
 16
0.0
 26
0.0
 36
1.0
 17
0.0
 27
0.0
 37
0.0
 40
656.723078
 41
1.903766
 42
50.0
 43
0.0
 44
0.0
 50
0.0
 51
0.0
 71
     0
 72
   100
 73
     1
 74
     1
 75
     0
 76
     0
 77
     0
 78
     0
  0
ENDTAB
  0
TABLE
  2
LTYPE
 70
     3
  0
LTYPE
  2
CONTINUOUS
 70
     0
  3
Solid Line
 72
    65
 73
     0
 40
0.0
  0
LTYPE
  2
31
 70
     0
  3

 72
    65
 73
     4
 40
2.1
 49
1.5
 49
-0.3
 49
0.0
 49
-0.3
  0
LTYPE
  2
22
 70
     0
  3

 72
    65
 73
     2
 40
1.4
 49
1.2
 49
-0.2
  0
ENDTAB
  0
TABLE
  2
LAYER
 70
    11
  0
LAYER
  2
0
 70
     0
 62
     7
  6
CONTINUOUS
  0
LAYER
  2
DEFPOINTS
 70
     0
 62
     7
  6
CONTINUOUS
  0
LAYER
  2
TEAM-BODY
 70
     0
 62
     2
  6
CONTINUOUS
  0
LAYER
  2
TEAM-AXE
 70
     0
 62
    10
  6
31
  0
LAYER
  2
TEAM-MAS
 70
     0
 62
     9
  6
CONTINUOUS
  0
LAYER
  2
TEAM-TXT
 70
     0
 62
    11
  6
CONTINUOUS
  0
LAYER
  2
TEAM-DET1
 70
     0
 62
     4
  6
CONTINUOUS
  0
LAYER
  2
TEAM-HIDE
 70
     0
 62
     8
  6
22
  0
LAYER
  2
TEAM-KAN
 70
     0
 62
     6
  6
CONTINUOUS
  0
LAYER
  2
TEAM-DET3
 70
     0
 62
    14
  6
CONTINUOUS
  0
LAYER
  2
TEAM-INSP
 70
     0
 62
     5
  6
CONTINUOUS
  0
ENDTAB
  0
TABLE
  2
STYLE
 70
     2
  0
STYLE
  2
STANDARD
 70
     0
 40
0.0
 41
1.0
 50
0.0
 71
     0
 42
200.0
  3
txt
  4

  0
STYLE
  2
TEAM
 70
     0
 40
0.0
 41
0.8
 50
15.0
 71
     0
 42
7.0
  3
ROMANS.shx
  4

  0
ENDTAB
  0
TABLE
  2
VIEW
 70
     0
  0
ENDTAB
  0
TABLE
  2
UCS
 70
     0
  0
ENDTAB
  0
TABLE
  2
APPID
 70
     1
  0
APPID
  2
ACAD
 70
     0
  0
ENDTAB
  0
TABLE
  2
DIMSTYLE
 70
     1
  0
DIMSTYLE
  2
TEAM
 70
     0
  3

  4

  5

  6

  7

 40
0.0
 41
20.0
 42
10.0
 43
1.0
 44
1.0
 45
0.0
 46
0.0
 47
0.0
 48
0.0
140
35.0
141
1.0
142
0.0
143
25.4
144
1.0
145
0.0
146
1.0
147
7.0
 71
     0
 72
     0
 73
     0
 74
     0
 75
     0
 76
     0
 77
     0
 78
     0
170
     0
171
     2
172
     0
173
     0
174
     0
175
     0
176
     9
177
     9
178
    11
  0
ENDTAB
  0
ENDSEC
  0
SECTION
  2
BLOCKS
  0
BLOCK
  8
0
  2
$MODEL_SPACE
 70
     0
 10
0.0
 20
0.0
 30
0.0
  3
$MODEL_SPACE
  1

  0
ENDBLK
  5
289
  8
0
  0
BLOCK
 67
     1
  8
0
  2
$PAPER_SPACE
 70
     0
 10
0.0
 20
0.0
 30
0.0
  3
$PAPER_SPACE
  1

  0
ENDBLK
  5
287
 67
     1
  8
0
  0
BLOCK
  8
0
  2
*D0
 70
     1
 10
0.0
 20
0.0
 30
0.0
  3
*D0
  1

  0
LINE
  5
3F
  8
0
  6
BYBLOCK
 62
     9
 10
8036.0
 20
52145.0
 30
0.0
 11
8528.195249
 21
52145.0
 31
0.0
  0
LINE
  5
40
  8
0
  6
BYBLOCK
 62
     9
 10
8470.012765
 20
52595.0
 30
0.0
 11
8528.195249
 21
52595.0
 31
0.0
  0
LINE
  5
41
  8
0
  6
BYBLOCK
 62
     9
 10
8527.195249
 20
52165.0
 30
0.0
 11
8527.195249
 21
52319.25
 31
0.0
  0
LINE
  5
42
  8
0
  6
BYBLOCK
 62
     9
 10
8527.195249
 20
52575.0
 30
0.0
 11
8527.195249
 21
52420.75
 31
0.0
  0
SOLID
  5
43
  8
0
  6
BYBLOCK
 62
     9
 10
8523.861916
 20
52165.0
 30
0.0
 11
8530.528583
 21
52165.0
 31
0.0
 12
8527.195249
 22
52145.0
 32
0.0
 13
8527.195249
 23
52145.0
 33
0.0
  0
SOLID
  5
44
  8
0
  6
BYBLOCK
 62
     9
 10
8523.861916
 20
52575.0
 30
0.0
 11
8530.528583
 21
52575.0
 31
0.0
 12
8527.195249
 22
52595.0
 32
0.0
 13
8527.195249
 23
52595.0
 33
0.0
  0
TEXT
  5
45
  8
0
  6
BYBLOCK
 62
    11
 10
8544.695249
 20
52326.25
 30
0.0
 40
35.0
  1
450
 50
90.0
  0
POINT
  5
46
  8
DEFPOINTS
  6
BYBLOCK
 62
     0
 10
8026.0
 20
52145.0
 30
0.0
  0
POINT
  5
47
  8
DEFPOINTS
  6
BYBLOCK
 62
     0
 10
8460.012765
 20
52595.0
 30
0.0
  0
POINT
  5
48
  8
DEFPOINTS
  6
BYBLOCK
 62
     0
 10
8527.195249
 20
52595.0
 30
0.0
  0
ENDBLK
  5
4A
  8
0
  0
BLOCK
  8
0
  2
*D1
 70
     1
 10
0.0
 20
0.0
 30
0.0
  3
*D1
  1

  0
LINE
  5
31
  8
0
  6
BYBLOCK
 62
     9
 10
8010.0
 20
52000.0
 30
0.0
 11
8572.550318
 21
52000.0
 31
0.0
  0
LINE
  5
32
  8
0
  6
BYBLOCK
 62
     9
 10
8470.012765
 20
52595.0
 30
0.0
 11
8572.550318
 21
52595.0
 31
0.0
  0
LINE
  5
33
  8
0
  6
BYBLOCK
 62
     9
 10
8571.550318
 20
52020.0
 30
0.0
 11
8571.550318
 21
52173.833333
 31
0.0
  0
LINE
  5
34
  8
0
  6
BYBLOCK
 62
     9
 10
8571.550318
 20
52575.0
 30
0.0
 11
8571.550318
 21
52421.166667
 31
0.0
  0
TEXT
  5
35
  8
0
  6
BYBLOCK
 62
    11
 10
8589.050318
 20
52180.833333
 30
0.0
 40
35.0
  1
565-595
 50
90.0
  0
SOLID
  5
36
  8
0
  6
BYBLOCK
 62
     9
 10
8568.216985
 20
52020.0
 30
0.0
 11
8574.883652
 21
52020.0
 31
0.0
 12
8571.550318
 22
52000.0
 32
0.0
 13
8571.550318
 23
52000.0
 33
0.0
  0
SOLID
  5
37
  8
0
  6
BYBLOCK
 62
     9
 10
8568.216985
 20
52575.0
 30
0.0
 11
8574.883652
 21
52575.0
 31
0.0
 12
8571.550318
 22
52595.0
 32
0.0
 13
8571.550318
 23
52595.0
 33
0.0
  0
POINT
  5
38
  8
DEFPOINTS
  6
BYBLOCK
 62
     0
 10
8000.0
 20
52000.0
 30
0.0
  0
POINT
  5
39
  8
DEFPOINTS
  6
BYBLOCK
 62
     0
 10
8460.012765
 20
52595.0
 30
0.0
  0
POINT
  5
3A
  8
DEFPOINTS
  6
BYBLOCK
 62
     0
 10
8571.550318
 20
52595.0
 30
0.0
  0
ENDBLK
  5
3C
  8
0
  0
BLOCK
  8
0
  2
*D2
 70
     1
 10
0.0
 20
0.0
 30
0.0
  3
*D2
  1

  0
LINE
  5
22
  8
0
  6
BYBLOCK
 62
     9
 10
7500.0
 20
52589.096929
 30
0.0
 11
7500.0
 21
52628.972356
 31
0.0
  0
LINE
  5
23
  8
0
  6
BYBLOCK
 62
     9
 10
8500.0
 20
52597.096929
 30
0.0
 11
8500.0
 21
52628.972356
 31
0.0
  0
LINE
  5
24
  8
0
  6
BYBLOCK
 62
     9
 10
7520.0
 20
52627.972356
 30
0.0
 11
7943.416667
 21
52627.972356
 31
0.0
  0
LINE
  5
25
  8
0
  6
BYBLOCK
 62
     9
 10
8480.0
 20
52627.972356
 30
0.0
 11
8056.583333
 21
52627.972356
 31
0.0
  0
SOLID
  5
26
  8
0
  6
BYBLOCK
 62
     9
 10
7520.0
 20
52631.305689
 30
0.0
 11
7520.0
 21
52624.639023
 31
0.0
 12
7500.0
 22
52627.972356
 32
0.0
 13
7500.0
 23
52627.972356
 33
0.0
  0
SOLID
  5
27
  8
0
  6
BYBLOCK
 62
     9
 10
8480.0
 20
52631.305689
 30
0.0
 11
8480.0
 21
52624.639023
 31
0.0
 12
8500.0
 22
52627.972356
 32
0.0
 13
8500.0
 23
52627.972356
 33
0.0
  0
TEXT
  5
28
  8
0
  6
BYBLOCK
 62
    11
 10
7950.416667
 20
52610.472356
 30
0.0
 40
35.0
  1
1000
  0
POINT
  5
29
  8
DEFPOINTS
  6
BYBLOCK
 62
     0
 10
7500.0
 20
52579.096929
 30
0.0
  0
POINT
  5
2B
  8
DEFPOINTS
  6
BYBLOCK
 62
     0
 10
8500.0
 20
52587.096929
 30
0.0
  0
POINT
  5
2C
  8
DEFPOINTS
  6
BYBLOCK
 62
     0
 10
8500.0
 20
52627.972356
 30
0.0
  0
ENDBLK
  5
2E
  8
0
  0
ENDSEC
  0
SECTION
  2
ENTITIES
  0
DIMENSION
  5
20
  8
TEAM-MAS
  2
*D2
 10
500.0
 20
627.972356
 30
0.0
 11
0.0
 21
627.972356
 31
0.0
 12
-8000.0
 22
-52000.0
 32
0.0
 13
-500.0
 23
579.096929
 33
0.0
 14
500.0
 24
587.096929
 34
0.0
  0
DIMENSION
  5
2F
  8
TEAM-MAS
  2
*D1
 10
571.550318
 20
595.0
 30
0.0
 11
571.550318
 21
297.5
 31
0.0
 12
-8000.0
 22
-52000.0
 32
0.0
 70
   128
  1
565-<>
 13
0.0
 23
0.0
 33
0.0
 14
460.012765
 24
595.0
 34
0.0
 50
90.0
  0
DIMENSION
  5
3D
  8
TEAM-MAS
  2
*D0
 10
527.195249
 20
595.0
 30
0.0
 11
527.195249
 21
370.0
 31
0.0
 12
-8000.0
 22
-52000.0
 32
0.0
 13
26.0
 23
145.0
 33
0.0
 14
460.012765
 24
595.0
 34
0.0
 50
90.0
  0
POLYLINE
  5
4B
  8
TEAM-BODY
 66
     1
 10
0.0
 20
0.0
 30
0.0
  0
VERTEX
  5
28F
  8
TEAM-BODY
 10
484.0
 20
562.996929
 30
0.0
  0
VERTEX
  5
290
  8
TEAM-BODY
 10
492.0
 20
562.996929
 30
0.0
 42
0.414214
  0
VERTEX
  5
291
  8
TEAM-BODY
 10
500.0
 20
570.996929
 30
0.0
  0
VERTEX
  5
292
  8
TEAM-BODY
 10
500.0
 20
587.096929
 30
0.0
 42
0.460626
  0
VERTEX
  5
293
  8
TEAM-BODY
 10
490.758443
 20
595.0
 30
0.0
  0
VERTEX
  5
294
  8
TEAM-BODY
 10
460.012765
 20
595.0
 30
0.0
 42
0.389405
  0
VERTEX
  5
295
  8
TEAM-BODY
 10
435.098274
 20
571.965947
 30
0.0
  0
VERTEX
  5
296
  8
TEAM-BODY
 10
364.499626
 20
234.058253
 30
0.0
 42
-0.375544
  0
VERTEX
  5
297
  8
TEAM-BODY
 10
289.403606
 20
160.214054
 30
0.0
  0
VERTEX
  5
298
  8
TEAM-BODY
 10
41.0
 20
150.0
 30
0.0
 42
0.232609
  0
VERTEX
  5
299
  8
TEAM-BODY
 10
36.0
 20
147.5
 30
0.0
 42
-0.241952
  0
VERTEX
  5
29A
  8
TEAM-BODY
 10
31.0
 20
145.0
 30
0.0
  0
VERTEX
  5
29B
  8
TEAM-BODY
 10
26.0
 20
145.0
 30
0.0
  0
SEQEND
  5
29C
  8
TEAM-BODY
  0
POLYLINE
  5
4D
  8
TEAM-BODY
 66
     1
 10
0.0
 20
0.0
 30
0.0
  0
VERTEX
  5
29D
  8
TEAM-BODY
 10
-484.0
 20
562.996929
 30
0.0
  0
VERTEX
  5
29E
  8
TEAM-BODY
 10
-492.0
 20
562.996929
 30
0.0
 42
-0.414214
  0
VERTEX
  5
29F
  8
TEAM-BODY
 10
-500.0
 20
570.996929
 30
0.0
  0
VERTEX
  5
2A0
  8
TEAM-BODY
 10
-500.0
 20
587.096929
 30
0.0
 42
-0.460626
  0
VERTEX
  5
2A1
  8
TEAM-BODY
 10
-490.758443
 20
595.0
 30
0.0
  0
VERTEX
  5
2A2
  8
TEAM-BODY
 10
-460.012765
 20
595.0
 30
0.0
 42
-0.389405
  0
VERTEX
  5
2A3
  8
TEAM-BODY
 10
-435.098274
 20
571.965947
 30
0.0
  0
VERTEX
  5
2A4
  8
TEAM-BODY
 10
-364.499626
 20
234.058253
 30
0.0
 42
0.375544
  0
VERTEX
  5
2A5
  8
TEAM-BODY
 10
-289.403606
 20
160.214054
 30
0.0
  0
VERTEX
  5
2A6
  8
TEAM-BODY
 10
-41.0
 20
150.0
 30
0.0
 42
-0.232609
  0
VERTEX
  5
2A7
  8
TEAM-BODY
 10
-36.0
 20
147.5
 30
0.0
 42
0.241952
  0
VERTEX
  5
2A8
  8
TEAM-BODY
 10
-31.0
 20
145.0
 30
0.0
  0
VERTEX
  5
2A9
  8
TEAM-BODY
 10
-26.0
 20
145.0
 30
0.0
  0
SEQEND
  5
2AA
  8
TEAM-BODY
  0
LINE
  5
4E
  8
TEAM-DET1
 10
484.0
 20
562.996929
 30
0.0
 11
434.421554
 21
562.996929
 31
0.0
  0
LINE
  5
50
  8
TEAM-DET1
 10
-484.0
 20
562.996929
 30
0.0
 11
-434.421554
 21
562.996929
 31
0.0
  0
TEXT
  5
51
  8
TEAM-TXT
 10
-369.104153
 20
539.988243
 30
0.0
 40
30.0
  1
team 111539
 41
0.7
 51
15.0
  7
TEAM
  0
LINE
  5
54
  8
TEAM-KAN
 10
-26.0
 20
145.0
 30
0.0
 11
26.0
 21
145.0
 31
0.0
  0
LINE
  5
56
  8
TEAM-DET3
 10
0.0
 20
122.51694
 30
0.0
 11
160.219168
 21
122.51694
 31
0.0
  0
LINE
  5
58
  8
TEAM-DET3
 10
0.0
 20
117.51694
 30
0.0
 11
160.219168
 21
117.51694
 31
0.0
  0
LINE
  5
59
  8
TEAM-DET3
 10
0.0
 20
123.01742
 30
0.0
 11
160.219168
 21
123.01742
 31
0.0
  0
LINE
  5
5A
  8
TEAM-DET3
 10
0.0
 20
117.01644
 30
0.0
 11
160.219168
 21
117.01644
 31
0.0
  0
LINE
  5
5B
  8
TEAM-AXE
 10
183.014878
 20
120.01754
 30
0.0
 11
0.0
 21
120.01754
 31
0.0
  0
ARC
  5
5E
  8
TEAM-DET3
 10
-373.130248
 20
167.16904
 30
0.0
 40
32.75012
 50
2.999767
 51
59.94175
  0
ARC
  5
5F
  8
TEAM-DET3
 10
-373.130248
 20
167.16904
 30
0.0
 40
27.25002
 50
3.001793
 51
59.94249
  0
ARC
  5
60
  8
TEAM-DET3
 10
-373.130248
 20
167.16904
 30
0.0
 40
30.0
 50
3.001882
 51
59.940788
  0
LINE
  5
61
  8
TEAM-DET3
 10
-345.223748
 20
155.3453
 30
0.0
 11
-342.477168
 21
155.48934
 31
0.0
  0
LINE
  5
62
  8
TEAM-DET3
 10
-345.917708
 20
168.59604
 30
0.0
 11
-338.829708
 21
38.36166
 31
0.0
  0
LINE
  5
63
  8
TEAM-DET3
 10
-359.481548
 20
190.75454
 30
0.0
 11
-356.726428
 21
195.51498
 31
0.0
  0
LINE
  5
64
  8
TEAM-DET3
 10
0.0
 20
122.51694
 30
0.0
 11
-160.219168
 21
122.51694
 31
0.0
  0
LINE
  5
65
  8
TEAM-DET3
 10
0.0
 20
117.51694
 30
0.0
 11
-160.219168
 21
117.51694
 31
0.0
  0
LINE
  5
66
  8
TEAM-DET3
 10
-173.014568
 20
117.51724
 30
0.0
 11
-166.818288
 21
117.51694
 31
0.0
  0
LINE
  5
67
  8
TEAM-DET3
 10
-173.015188
 20
122.51724
 30
0.0
 11
-166.818288
 21
122.51694
 31
0.0
  0
ARC
  5
68
  8
TEAM-DET3
 10
-163.168388
 20
131.96396
 30
0.0
 40
2.95
 50
0.0
 51
95.008759
  0
ARC
  5
69
  8
TEAM-DET3
 10
-168.430828
 20
112.28256
 30
0.0
 40
6.43004
 50
173.437576
 51
238.209351
  0
ARC
  5
6A
  8
TEAM-DET3
 10
-168.430828
 20
127.75132
 30
0.0
 40
6.43004
 50
121.790627
 51
186.562393
  0
ARC
  5
6B
  8
TEAM-DET3
 10
-163.168388
 20
131.96396
 30
0.0
 40
5.7
 50
0.0
 51
95.000305
  0
LINE
  5
6C
  8
TEAM-DET3
 10
-173.015188
 20
123.01742
 30
0.0
 11
-173.014568
 21
117.01766
 31
0.0
  0
LINE
  5
6D
  8
TEAM-DET3
 10
0.0
 20
123.01742
 30
0.0
 11
-160.219168
 21
123.01742
 31
0.0
  0
LINE
  5
6E
  8
TEAM-DET3
 10
0.0
 20
117.01644
 30
0.0
 11
-160.219168
 21
117.01644
 31
0.0
  0
LINE
  5
6F
  8
TEAM-DET3
 10
-169.268248
 20
131.38046
 30
0.0
 11
-160.226488
 21
132.17148
 31
0.0
  0
LINE
  5
70
  8
TEAM-DET3
 10
-157.468928
 20
117.01644
 30
0.0
 11
-157.468928
 21
114.01718
 31
0.0
  0
LINE
  5
71
  8
TEAM-DET3
 10
-161.218928
 20
126.26694
 30
0.0
 11
-161.218928
 21
113.76694
 31
0.0
  0
LINE
  5
72
  8
TEAM-DET3
 10
-173.014568
 20
117.01766
 30
0.0
 11
-166.818288
 21
117.01644
 31
0.0
  0
LINE
  5
73
  8
TEAM-DET3
 10
-173.015188
 20
123.01742
 30
0.0
 11
-166.818288
 21
123.01742
 31
0.0
  0
LINE
  5
74
  8
TEAM-DET3
 10
-171.818288
 20
106.81748
 30
0.0
 11
-161.818288
 21
114.01718
 31
0.0
  0
LINE
  5
75
  8
TEAM-DET3
 10
-174.818768
 20
113.01742
 30
0.0
 11
-166.818288
 21
116.0167
 31
0.0
  0
LINE
  5
76
  8
TEAM-DET3
 10
-166.818288
 20
116.0167
 30
0.0
 11
-161.818288
 21
114.01718
 31
0.0
  0
LINE
  5
77
  8
TEAM-DET3
 10
-166.818288
 20
124.01718
 30
0.0
 11
-161.818288
 21
126.0167
 31
0.0
  0
LINE
  5
78
  8
TEAM-DET3
 10
-171.818288
 20
133.2167
 30
0.0
 11
-161.818288
 21
126.0167
 31
0.0
  0
LINE
  5
79
  8
TEAM-DET3
 10
-174.818768
 20
127.01644
 30
0.0
 11
-166.818288
 21
124.01718
 31
0.0
  0
LINE
  5
7A
  8
TEAM-DET3
 10
-166.818288
 20
124.01718
 30
0.0
 11
-166.818288
 21
116.0167
 31
0.0
  0
LINE
  5
7B
  8
TEAM-DET3
 10
-161.818288
 20
126.0167
 30
0.0
 11
-161.818288
 21
114.01718
 31
0.0
  0
LINE
  5
7C
  8
TEAM-DET3
 10
-160.219168
 20
114.01718
 30
0.0
 11
-157.468928
 21
114.01718
 31
0.0
  0
LINE
  5
7D
  8
TEAM-DET3
 10
-157.468928
 20
116.51718
 30
0.0
 11
-160.219168
 21
116.51718
 31
0.0
  0
LINE
  5
7E
  8
TEAM-DET3
 10
-157.468928
 20
123.5167
 30
0.0
 11
-160.219168
 21
123.5167
 31
0.0
  0
LINE
  5
7F
  8
TEAM-DET3
 10
-160.219168
 20
114.01718
 30
0.0
 11
-160.219168
 21
131.96396
 31
0.0
  0
LINE
  5
80
  8
TEAM-DET3
 10
-157.468308
 20
131.96396
 30
0.0
 11
-157.468928
 21
123.01742
 31
0.0
  0
ARC
  5
81
  8
TEAM-DET3
 10
-244.368028
 20
135.8519
 30
0.0
 40
8.0
 50
282.549683
 51
338.226166
  0
ARC
  5
82
  8
TEAM-DET3
 10
-250.549668
 20
135.31112
 30
0.0
 40
10.75002
 50
274.99649
 51
346.797729
  0
ARC
  5
83
  8
TEAM-DET3
 10
-232.295288
 20
131.03012
 30
0.0
 40
5.00008
 50
87.005226
 51
158.232346
  0
ARC
  5
84
  8
TEAM-DET3
 10
-212.644408
 20
130.00106
 30
0.0
 40
4.99998
 50
38.907764
 51
80.868835
  0
ARC
  5
85
  8
TEAM-DET3
 10
-232.295288
 20
131.03012
 30
0.0
 40
10.75
 50
86.999268
 51
161.776443
  0
ARC
  5
86
  8
TEAM-DET3
 10
-212.644408
 20
130.00106
 30
0.0
 40
10.75
 50
38.908752
 51
86.999268
  0
ARC
  5
87
  8
TEAM-DET3
 10
-232.295288
 20
131.03012
 30
0.0
 40
8.0
 50
86.999962
 51
166.807159
  0
ARC
  5
88
  8
TEAM-DET3
 10
-212.644408
 20
130.00106
 30
0.0
 40
8.0
 50
38.90694
 51
86.999962
  0
ARC
  5
89
  8
TEAM-DET3
 10
-199.610028
 20
140.51986
 30
0.0
 40
8.75
 50
218.901062
 51
274.994141
  0
ARC
  5
8A
  8
TEAM-DET3
 10
-199.610028
 20
140.51986
 30
0.0
 40
6.0
 50
218.896927
 51
274.995483
  0
ARC
  5
8B
  8
TEAM-DET3
 10
-199.610028
 20
140.51986
 30
0.0
 40
11.75004
 50
218.902206
 51
275.000397
  0
ARC
  5
8C
  8
TEAM-DET3
 10
-248.204708
 20
136.26938
 30
0.0
 40
6.0
 50
274.995483
 51
341.765045
  0
LINE
  5
8D
  8
TEAM-DET3
 10
-232.034048
 20
136.02402
 30
0.0
 11
-212.383168
 21
134.99374
 31
0.0
  0
LINE
  5
8E
  8
TEAM-DET3
 10
-231.876568
 20
139.01932
 30
0.0
 11
-212.225708
 21
137.99026
 31
0.0
  0
LINE
  5
8F
  8
TEAM-DET3
 10
-231.732528
 20
141.76528
 30
0.0
 11
-212.081648
 21
140.73624
 31
0.0
  0
ARC
  5
90
  8
TEAM-DET3
 10
-273.763788
 20
133.27988
 30
0.0
 40
10.75002
 50
239.446289
 51
274.99649
  0
ARC
  5
91
  8
TEAM-DET3
 10
-272.858028
 20
134.8143
 30
0.0
 40
6.69984
 50
221.175369
 51
274.996216
  0
ARC
  5
92
  8
TEAM-DET3
 10
-272.858028
 20
134.8143
 30
0.0
 40
6.0
 50
221.174683
 51
274.995483
  0
ARC
  5
93
  8
TEAM-DET3
 10
-281.262568
 20
120.57846
 30
0.0
 40
4.0
 50
59.429832
 51
170.000122
  0
LINE
  5
94
  8
TEAM-DET3
 10
-285.249388
 20
118.61924
 30
0.0
 11
-279.305768
 21
124.06722
 31
0.0
  0
LINE
  5
95
  8
TEAM-DET3
 10
-308.205928
 20
160.77042
 30
0.0
 11
-312.196408
 21
152.71012
 31
0.0
  0
ARC
  5
96
  8
TEAM-DET3
 10
-299.031128
 20
139.37148
 30
0.0
 40
10.70006
 50
41.177006
 51
63.719959
  0
ARC
  5
97
  8
TEAM-DET3
 10
-299.031128
 20
139.37148
 30
0.0
 40
10.0
 50
41.176712
 51
63.720371
  0
ARC
  5
98
  8
TEAM-DET3
 10
-347.453968
 20
159.70322
 30
0.0
 40
10.0
 50
3.001943
 51
64.64476
  0
LINE
  5
99
  8
TEAM-DET3
 10
-294.293568
 20
148.965
 30
0.0
 11
-307.920288
 21
155.71182
 31
0.0
  0
LINE
  5
9A
  8
TEAM-DET3
 10
-307.673088
 20
156.21354
 30
0.0
 11
-308.807728
 21
153.9186
 31
0.0
  0
LINE
  5
9B
  8
TEAM-DET3
 10
-312.111568
 20
158.5173
 30
0.0
 11
-313.288928
 21
156.13784
 31
0.0
  0
LINE
  5
9C
  8
TEAM-DET3
 10
-312.401488
 20
157.92984
 30
0.0
 11
-318.003288
 21
160.70206
 31
0.0
  0
LINE
  5
9D
  8
TEAM-DET3
 10
-313.340208
 20
157.61246
 30
0.0
 11
-318.313348
 21
160.07462
 31
0.0
  0
LINE
  5
9E
  8
TEAM-DET3
 10
-295.915888
 20
147.53678
 30
0.0
 11
-314.857528
 21
156.9136
 31
0.0
  0
LINE
  5
9F
  8
TEAM-DET3
 10
-315.744988
 20
155.121
 30
0.0
 11
-308.126568
 21
151.35024
 31
0.0
  0
LINE
  5
A0
  8
TEAM-DET3
 10
-321.788688
 20
118.16268
 30
0.0
 11
-293.873648
 21
118.16268
 31
0.0
  0
LINE
  5
A1
  8
TEAM-DET3
 10
-335.552108
 20
123.66318
 30
0.0
 11
-307.788448
 21
123.66318
 31
0.0
  0
LINE
  5
A2
  8
TEAM-DET3
 10
-307.788448
 20
123.66318
 30
0.0
 11
-307.788448
 21
120.91294
 31
0.0
  0
LINE
  5
A3
  8
TEAM-DET3
 10
-321.788688
 20
120.91294
 30
0.0
 11
-321.788688
 21
118.16268
 31
0.0
  0
LINE
  5
A4
  8
TEAM-DET3
 10
-335.406848
 20
120.91294
 30
0.0
 11
-293.365828
 21
120.91262
 31
0.0
  0
LINE
  5
A5
  8
TEAM-DET3
 10
-343.171748
 20
168.74008
 30
0.0
 11
-340.425168
 21
168.8829
 31
0.0
  0
LINE
  5
A6
  8
TEAM-DET3
 10
-337.467388
 20
160.2269
 30
0.0
 11
-330.952508
 21
40.91294
 31
0.0
  0
LINE
  5
A7
  8
TEAM-DET3
 10
-343.171748
 20
168.74008
 30
0.0
 11
-342.477168
 21
155.48934
 31
0.0
  0
LINE
  5
A8
  8
TEAM-DET3
 10
-308.375608
 20
40.91294
 30
0.0
 11
-293.490948
 21
120.33188
 31
0.0
  0
ARC
  5
A9
  8
TEAM-DET3
 10
-285.611928
 20
118.94272
 30
0.0
 40
8.0
 50
95.007225
 51
165.745361
  0
LINE
  5
AA
  8
TEAM-DET3
 10
-291.504268
 20
145.95536
 30
0.0
 11
-277.901048
 21
130.40328
 31
0.0
  0
LINE
  5
AB
  8
TEAM-DET3
 10
-290.977528
 20
146.41616
 30
0.0
 11
-277.374328
 21
130.8641
 31
0.0
  0
LINE
  5
AC
  8
TEAM-DET3
 10
-300.825848
 20
37.66342
 30
0.0
 11
-285.201768
 21
121.27304
 31
0.0
  0
LINE
  5
AD
  8
TEAM-DET3
 10
-272.335568
 20
128.83774
 30
0.0
 11
-261.551868
 21
129.78134
 31
0.0
  0
LINE
  5
AE
  8
TEAM-DET3
 10
-271.387068
 20
130.32578
 30
0.0
 11
-263.915148
 21
130.97884
 31
0.0
  0
LINE
  5
AF
  8
TEAM-DET3
 10
-272.827508
 20
122.57064
 30
0.0
 11
-249.613388
 21
124.6019
 31
0.0
  0
LINE
  5
B0
  8
TEAM-DET3
 10
-247.682248
 20
130.2922
 30
0.0
 11
-286.310168
 21
126.91268
 31
0.0
  0
LINE
  5
B1
  8
TEAM-AXE
 10
-183.014878
 20
120.01754
 30
0.0
 11
0.0
 21
120.01754
 31
0.0
  0
LINE
  5
B2
  8
TEAM-DET3
 10
-198.585868
 20
128.81576
 30
0.0
 11
-173.999688
 21
130.96664
 31
0.0
  0
LINE
  5
B3
  8
TEAM-DET3
 10
-199.087568
 20
134.5433
 30
0.0
 11
-163.665208
 21
137.64236
 31
0.0
  0
LINE
  5
B4
  8
TEAM-DET3
 10
-198.848308
 20
131.80404
 30
0.0
 11
-163.425948
 21
134.9028
 31
0.0
  0
LINE
  5
B5
  8
TEAM-DET3
 10
173.014568
 20
117.51724
 30
0.0
 11
166.818288
 21
117.51694
 31
0.0
  0
LINE
  5
B6
  8
TEAM-DET3
 10
173.015188
 20
122.51724
 30
0.0
 11
166.818288
 21
122.51694
 31
0.0
  0
ARC
  5
B7
  8
TEAM-DET3
 10
163.168388
 20
131.96396
 30
0.0
 40
2.95
 50
84.991241
 51
180.0
  0
ARC
  5
B8
  8
TEAM-DET3
 10
168.430828
 20
112.28256
 30
0.0
 40
6.43004
 50
301.790649
 51
6.562424
  0
ARC
  5
B9
  8
TEAM-DET3
 10
168.430828
 20
127.75132
 30
0.0
 40
6.43004
 50
353.437607
 51
58.209373
  0
ARC
  5
BA
  8
TEAM-DET3
 10
163.168388
 20
131.96396
 30
0.0
 40
5.7
 50
84.999695
 51
180.0
  0
LINE
  5
BB
  8
TEAM-DET3
 10
173.015188
 20
123.01742
 30
0.0
 11
173.014568
 21
117.01766
 31
0.0
  0
LINE
  5
BC
  8
TEAM-DET3
 10
169.268248
 20
131.38046
 30
0.0
 11
160.226488
 21
132.17148
 31
0.0
  0
LINE
  5
BD
  8
TEAM-DET3
 10
157.468928
 20
117.01644
 30
0.0
 11
157.468928
 21
114.01718
 31
0.0
  0
LINE
  5
BE
  8
TEAM-DET3
 10
161.218928
 20
126.26694
 30
0.0
 11
161.218928
 21
113.76694
 31
0.0
  0
LINE
  5
BF
  8
TEAM-DET3
 10
173.014568
 20
117.01766
 30
0.0
 11
166.818288
 21
117.01644
 31
0.0
  0
LINE
  5
C0
  8
TEAM-DET3
 10
173.015188
 20
123.01742
 30
0.0
 11
166.818288
 21
123.01742
 31
0.0
  0
LINE
  5
C1
  8
TEAM-DET3
 10
171.818288
 20
106.81748
 30
0.0
 11
161.818288
 21
114.01718
 31
0.0
  0
LINE
  5
C2
  8
TEAM-DET3
 10
174.818768
 20
113.01742
 30
0.0
 11
166.818288
 21
116.0167
 31
0.0
  0
LINE
  5
C3
  8
TEAM-DET3
 10
166.818288
 20
116.0167
 30
0.0
 11
161.818288
 21
114.01718
 31
0.0
  0
LINE
  5
C4
  8
TEAM-DET3
 10
166.818288
 20
124.01718
 30
0.0
 11
161.818288
 21
126.0167
 31
0.0
  0
LINE
  5
C5
  8
TEAM-DET3
 10
171.818288
 20
133.2167
 30
0.0
 11
161.818288
 21
126.0167
 31
0.0
  0
LINE
  5
C6
  8
TEAM-DET3
 10
174.818768
 20
127.01644
 30
0.0
 11
166.818288
 21
124.01718
 31
0.0
  0
LINE
  5
C7
  8
TEAM-DET3
 10
166.818288
 20
124.01718
 30
0.0
 11
166.818288
 21
116.0167
 31
0.0
  0
LINE
  5
C8
  8
TEAM-DET3
 10
161.818288
 20
126.0167
 30
0.0
 11
161.818288
 21
114.01718
 31
0.0
  0
LINE
  5
C9
  8
TEAM-DET3
 10
160.219168
 20
114.01718
 30
0.0
 11
157.468928
 21
114.01718
 31
0.0
  0
LINE
  5
CA
  8
TEAM-DET3
 10
157.468928
 20
116.51718
 30
0.0
 11
160.219168
 21
116.51718
 31
0.0
  0
LINE
  5
CB
  8
TEAM-DET3
 10
157.468928
 20
123.5167
 30
0.0
 11
160.219168
 21
123.5167
 31
0.0
  0
LINE
  5
CC
  8
TEAM-DET3
 10
160.219168
 20
114.01718
 30
0.0
 11
160.219168
 21
131.96396
 31
0.0
  0
LINE
  5
CD
  8
TEAM-DET3
 10
157.468308
 20
131.96396
 30
0.0
 11
157.468928
 21
123.01742
 31
0.0
  0
ARC
  5
CE
  8
TEAM-DET3
 10
232.295288
 20
131.03012
 30
0.0
 40
5.00008
 50
21.767654
 51
92.994774
  0
ARC
  5
CF
  8
TEAM-DET3
 10
212.644408
 20
130.00106
 30
0.0
 40
4.99998
 50
99.131165
 51
141.092236
  0
ARC
  5
D0
  8
TEAM-DET3
 10
212.644408
 20
130.00106
 30
0.0
 40
10.75
 50
93.000732
 51
141.091248
  0
ARC
  5
D1
  8
TEAM-DET3
 10
232.295288
 20
131.03012
 30
0.0
 40
8.0
 50
13.192841
 51
93.000038
  0
ARC
  5
D2
  8
TEAM-DET3
 10
212.644408
 20
130.00106
 30
0.0
 40
8.0
 50
93.000038
 51
141.09306
  0
ARC
  5
D3
  8
TEAM-DET3
 10
199.610028
 20
140.51986
 30
0.0
 40
8.75
 50
265.005859
 51
321.098938
  0
ARC
  5
D4
  8
TEAM-DET3
 10
199.610028
 20
140.51986
 30
0.0
 40
6.0
 50
265.004517
 51
321.103073
  0
ARC
  5
D5
  8
TEAM-DET3
 10
199.610028
 20
140.51986
 30
0.0
 40
11.75004
 50
264.999603
 51
321.097794
  0
LINE
  5
D6
  8
TEAM-DET3
 10
232.034048
 20
136.02402
 30
0.0
 11
212.383168
 21
134.99374
 31
0.0
  0
LINE
  5
D7
  8
TEAM-DET3
 10
231.876568
 20
139.01932
 30
0.0
 11
212.225708
 21
137.99026
 31
0.0
  0
LINE
  5
D8
  8
TEAM-DET3
 10
231.732528
 20
141.76528
 30
0.0
 11
212.081648
 21
140.73624
 31
0.0
  0
LINE
  5
D9
  8
TEAM-DET3
 10
198.585868
 20
128.81576
 30
0.0
 11
173.999688
 21
130.96664
 31
0.0
  0
LINE
  5
DA
  8
TEAM-DET3
 10
199.087568
 20
134.5433
 30
0.0
 11
163.665208
 21
137.64236
 31
0.0
  0
LINE
  5
DB
  8
TEAM-DET3
 10
198.848308
 20
131.80404
 30
0.0
 11
163.425948
 21
134.9028
 31
0.0
  0
LINE
  5
DC
  8
TEAM-DET3
 10
337.467388
 20
160.2269
 30
0.0
 11
330.952508
 21
40.91294
 31
0.0
  0
LINE
  5
DD
  8
TEAM-DET3
 10
308.375608
 20
40.91294
 30
0.0
 11
293.490948
 21
120.33188
 31
0.0
  0
LINE
  5
DE
  8
TEAM-DET3
 10
345.917708
 20
168.59604
 30
0.0
 11
338.829708
 21
38.36166
 31
0.0
  0
LINE
  5
DF
  8
TEAM-DET3
 10
300.825848
 20
37.66342
 30
0.0
 11
285.201768
 21
121.27304
 31
0.0
  0
ARC
  5
E0
  8
TEAM-DET3
 10
244.368028
 20
135.8519
 30
0.0
 40
8.0
 50
201.773834
 51
257.450317
  0
ARC
  5
E1
  8
TEAM-DET3
 10
250.549668
 20
135.31112
 30
0.0
 40
10.75002
 50
193.202271
 51
265.00351
  0
ARC
  5
E2
  8
TEAM-DET3
 10
232.295288
 20
131.03012
 30
0.0
 40
10.75
 50
18.223557
 51
93.000732
  0
ARC
  5
E3
  8
TEAM-DET3
 10
248.204708
 20
136.26938
 30
0.0
 40
6.0
 50
198.234955
 51
265.004517
  0
ARC
  5
E4
  8
TEAM-DET3
 10
273.763788
 20
133.27988
 30
0.0
 40
10.75002
 50
265.00351
 51
300.553711
  0
ARC
  5
E5
  8
TEAM-DET3
 10
272.858028
 20
134.8143
 30
0.0
 40
6.69984
 50
265.003784
 51
318.824631
  0
ARC
  5
E6
  8
TEAM-DET3
 10
272.858028
 20
134.8143
 30
0.0
 40
6.0
 50
265.004517
 51
318.825317
  0
ARC
  5
E7
  8
TEAM-DET3
 10
281.262568
 20
120.57846
 30
0.0
 40
4.0
 50
9.999878
 51
120.570168
  0
LINE
  5
E8
  8
TEAM-DET3
 10
285.249388
 20
118.61924
 30
0.0
 11
279.305768
 21
124.06722
 31
0.0
  0
LINE
  5
E9
  8
TEAM-DET3
 10
308.205928
 20
160.77042
 30
0.0
 11
312.196408
 21
152.71012
 31
0.0
  0
ARC
  5
EA
  8
TEAM-DET3
 10
299.031128
 20
139.37148
 30
0.0
 40
10.70006
 50
116.280041
 51
138.822994
  0
ARC
  5
EB
  8
TEAM-DET3
 10
299.031128
 20
139.37148
 30
0.0
 40
10.0
 50
116.279629
 51
138.823288
  0
ARC
  5
EC
  8
TEAM-DET3
 10
347.453968
 20
159.70322
 30
0.0
 40
10.0
 50
115.35524
 51
176.998057
  0
ARC
  5
ED
  8
TEAM-DET3
 10
373.130248
 20
167.16904
 30
0.0
 40
32.75012
 50
120.05825
 51
177.000233
  0
ARC
  5
EE
  8
TEAM-DET3
 10
373.130248
 20
167.16904
 30
0.0
 40
27.25002
 50
120.05751
 51
176.998207
  0
ARC
  5
EF
  8
TEAM-DET3
 10
373.130248
 20
167.16904
 30
0.0
 40
30.0
 50
120.059212
 51
176.998118
  0
LINE
  5
F0
  8
TEAM-DET3
 10
294.293568
 20
148.965
 30
0.0
 11
307.920288
 21
155.71182
 31
0.0
  0
LINE
  5
F1
  8
TEAM-DET3
 10
307.673088
 20
156.21354
 30
0.0
 11
308.807728
 21
153.9186
 31
0.0
  0
LINE
  5
F2
  8
TEAM-DET3
 10
312.111568
 20
158.5173
 30
0.0
 11
313.288928
 21
156.13784
 31
0.0
  0
LINE
  5
F3
  8
TEAM-DET3
 10
312.401488
 20
157.92984
 30
0.0
 11
318.003288
 21
160.70206
 31
0.0
  0
LINE
  5
F4
  8
TEAM-DET3
 10
313.340208
 20
157.61246
 30
0.0
 11
318.313348
 21
160.07462
 31
0.0
  0
LINE
  5
F5
  8
TEAM-DET3
 10
295.915888
 20
147.53678
 30
0.0
 11
314.857528
 21
156.9136
 31
0.0
  0
LINE
  5
F6
  8
TEAM-DET3
 10
315.744988
 20
155.121
 30
0.0
 11
308.126568
 21
151.35024
 31
0.0
  0
LINE
  5
F7
  8
TEAM-DET3
 10
345.223748
 20
155.3453
 30
0.0
 11
342.477168
 21
155.48934
 31
0.0
  0
LINE
  5
F8
  8
TEAM-DET3
 10
321.788688
 20
118.16268
 30
0.0
 11
293.873648
 21
118.16268
 31
0.0
  0
LINE
  5
F9
  8
TEAM-DET3
 10
335.552108
 20
123.66318
 30
0.0
 11
307.788448
 21
123.66318
 31
0.0
  0
LINE
  5
FA
  8
TEAM-DET3
 10
307.788448
 20
123.66318
 30
0.0
 11
307.788448
 21
120.91294
 31
0.0
  0
LINE
  5
FB
  8
TEAM-DET3
 10
321.788688
 20
120.91294
 30
0.0
 11
321.788688
 21
118.16268
 31
0.0
  0
LINE
  5
FC
  8
TEAM-DET3
 10
335.406848
 20
120.91294
 30
0.0
 11
293.365828
 21
120.91262
 31
0.0
  0
LINE
  5
FD
  8
TEAM-DET3
 10
343.171748
 20
168.74008
 30
0.0
 11
340.425168
 21
168.8829
 31
0.0
  0
LINE
  5
FE
  8
TEAM-DET3
 10
343.171748
 20
168.74008
 30
0.0
 11
342.477168
 21
155.48934
 31
0.0
  0
LINE
  5
FF
  8
TEAM-DET3
 10
359.481548
 20
190.75454
 30
0.0
 11
356.726428
 21
195.51498
 31
0.0
  0
ARC
  5
100
  8
TEAM-DET3
 10
285.611928
 20
118.94272
 30
0.0
 40
8.0
 50
14.254639
 51
84.992775
  0
LINE
  5
101
  8
TEAM-DET3
 10
291.504268
 20
145.95536
 30
0.0
 11
277.901048
 21
130.40328
 31
0.0
  0
LINE
  5
102
  8
TEAM-DET3
 10
290.977528
 20
146.41616
 30
0.0
 11
277.374328
 21
130.8641
 31
0.0
  0
LINE
  5
103
  8
TEAM-DET3
 10
272.335568
 20
128.83774
 30
0.0
 11
261.551868
 21
129.78134
 31
0.0
  0
LINE
  5
104
  8
TEAM-DET3
 10
271.387068
 20
130.32578
 30
0.0
 11
263.915148
 21
130.97884
 31
0.0
  0
LINE
  5
105
  8
TEAM-DET3
 10
272.827508
 20
122.57064
 30
0.0
 11
249.613388
 21
124.6019
 31
0.0
  0
LINE
  5
106
  8
TEAM-DET3
 10
247.682248
 20
130.2922
 30
0.0
 11
286.310168
 21
126.91268
 31
0.0
  0
LINE
  5
107
  8
TEAM-DET1
 10
-460.012765
 20
595.0
 30
0.0
 11
460.012765
 21
595.0
 31
0.0
  0
LINE
  5
108
  8
TEAM-DET3
 10
333.087508
 20
32.91244
 30
0.0
 11
306.488388
 21
32.91244
 31
0.0
  0
LINE
  5
109
  8
TEAM-DET3
 10
304.437608
 20
10.80062
 30
0.0
 11
304.437608
 21
-0.00016
 31
0.0
  0
LINE
  5
10A
  8
TEAM-DET3
 10
335.138288
 20
10.80062
 30
0.0
 11
335.138288
 21
-0.00016
 31
0.0
  0
LINE
  5
10B
  8
TEAM-DET3
 10
314.787948
 20
14.0001
 30
0.0
 11
324.787948
 21
14.0001
 31
0.0
  0
LINE
  5
10C
  8
TEAM-DET3
 10
335.138288
 20
10.80062
 30
0.0
 11
304.437608
 21
10.80062
 31
0.0
  0
LINE
  5
10D
  8
TEAM-DET3
 10
323.788208
 20
82.91244
 30
0.0
 11
315.787708
 21
82.91244
 31
0.0
  0
LINE
  5
10E
  8
TEAM-DET3
 10
324.787948
 20
81.91268
 30
0.0
 11
314.787948
 21
81.91268
 31
0.0
  0
LINE
  5
10F
  8
TEAM-DET3
 10
324.787948
 20
81.91268
 30
0.0
 11
324.787948
 21
40.91294
 31
0.0
  0
LINE
  5
110
  8
TEAM-DET3
 10
335.138288
 20
-0.00016
 30
0.0
 11
304.437608
 21
-0.00016
 31
0.0
  0
LINE
  5
111
  8
TEAM-DET3
 10
314.787948
 20
15.71274
 30
0.0
 11
314.789788
 21
32.91244
 31
0.0
  0
LINE
  5
112
  8
TEAM-DET3
 10
308.375608
 20
40.91294
 30
0.0
 11
330.952508
 21
40.91294
 31
0.0
  0
LINE
  5
113
  8
TEAM-DET3
 10
330.952508
 20
40.91294
 30
0.0
 11
335.152948
 21
36.48666
 31
0.0
  0
LINE
  5
114
  8
TEAM-DET3
 10
308.375608
 20
40.91294
 30
0.0
 11
304.559688
 21
36.3646
 31
0.0
  0
LINE
  5
115
  8
TEAM-DET3
 10
324.789788
 20
32.91244
 30
0.0
 11
324.787948
 21
15.71274
 31
0.0
  0
LINE
  5
116
  8
TEAM-DET3
 10
314.787948
 20
40.91294
 30
0.0
 11
314.787948
 21
81.91268
 31
0.0
  0
ARC
  5
117
  8
TEAM-DET3
 10
333.087508
 20
38.66196
 30
0.0
 40
5.75002
 50
270.0
 51
357.006393
  0
ARC
  5
118
  8
TEAM-DET3
 10
306.488388
 20
38.66196
 30
0.0
 40
5.75002
 50
190.000763
 51
270.0
  0
LINE
  5
119
  8
TEAM-DET3
 10
324.787948
 20
14.0001
 30
0.0
 11
319.455308
 21
10.80062
 31
0.0
  0
LINE
  5
11A
  8
TEAM-DET3
 10
320.120588
 20
10.80062
 30
0.0
 11
314.787948
 21
14.0001
 31
0.0
  0
LINE
  5
11B
  8
TEAM-DET3
 10
324.037228
 20
18.00034
 30
0.0
 11
324.787948
 21
14.0001
 31
0.0
  0
LINE
  5
11C
  8
TEAM-DET3
 10
315.537468
 20
18.00034
 30
0.0
 11
314.787948
 21
14.0001
 31
0.0
  0
LINE
  5
11D
  8
TEAM-DET3
 10
324.038448
 20
82.6622
 30
0.0
 11
324.037228
 21
40.91294
 31
0.0
  0
LINE
  5
11E
  8
TEAM-DET3
 10
315.537468
 20
82.6622
 30
0.0
 11
315.537468
 21
40.91294
 31
0.0
  0
LINE
  5
11F
  8
TEAM-AXE
 10
319.787948
 20
4.91196
 30
0.0
 11
319.787948
 21
90.655841
 31
0.0
  0
CIRCLE
  5
120
  8
TEAM-INSP
 10
0.0
 20
0.0
 30
0.0
 40
7.1
  0
LINE
  5
122
  8
TEAM-DET3
 10
-333.087508
 20
32.91244
 30
0.0
 11
-306.488388
 21
32.91244
 31
0.0
  0
LINE
  5
123
  8
TEAM-DET3
 10
-304.437608
 20
10.80062
 30
0.0
 11
-304.437608
 21
-0.00016
 31
0.0
  0
LINE
  5
124
  8
TEAM-DET3
 10
-335.138288
 20
10.80062
 30
0.0
 11
-335.138288
 21
-0.00016
 31
0.0
  0
LINE
  5
125
  8
TEAM-DET3
 10
-314.787948
 20
14.0001
 30
0.0
 11
-324.787948
 21
14.0001
 31
0.0
  0
LINE
  5
126
  8
TEAM-DET3
 10
-335.138288
 20
10.80062
 30
0.0
 11
-304.437608
 21
10.80062
 31
0.0
  0
LINE
  5
127
  8
TEAM-DET3
 10
-323.788208
 20
82.91244
 30
0.0
 11
-315.787708
 21
82.91244
 31
0.0
  0
LINE
  5
128
  8
TEAM-DET3
 10
-324.787948
 20
81.91268
 30
0.0
 11
-314.787948
 21
81.91268
 31
0.0
  0
LINE
  5
129
  8
TEAM-DET3
 10
-324.787948
 20
81.91268
 30
0.0
 11
-324.787948
 21
40.91294
 31
0.0
  0
LINE
  5
12A
  8
TEAM-DET3
 10
-335.138288
 20
-0.00016
 30
0.0
 11
-304.437608
 21
-0.00016
 31
0.0
  0
LINE
  5
12B
  8
TEAM-DET3
 10
-314.787948
 20
15.71274
 30
0.0
 11
-314.789788
 21
32.91244
 31
0.0
  0
LINE
  5
12C
  8
TEAM-DET3
 10
-308.375608
 20
40.91294
 30
0.0
 11
-330.952508
 21
40.91294
 31
0.0
  0
LINE
  5
12D
  8
TEAM-DET3
 10
-330.952508
 20
40.91294
 30
0.0
 11
-335.152948
 21
36.48666
 31
0.0
  0
LINE
  5
12E
  8
TEAM-DET3
 10
-308.375608
 20
40.91294
 30
0.0
 11
-304.559688
 21
36.3646
 31
0.0
  0
LINE
  5
12F
  8
TEAM-DET3
 10
-324.789788
 20
32.91244
 30
0.0
 11
-324.787948
 21
15.71274
 31
0.0
  0
LINE
  5
130
  8
TEAM-DET3
 10
-314.787948
 20
40.91294
 30
0.0
 11
-314.787948
 21
81.91268
 31
0.0
  0
ARC
  5
131
  8
TEAM-DET3
 10
-333.087508
 20
38.66196
 30
0.0
 40
5.75002
 50
182.993607
 51
270.0
  0
ARC
  5
132
  8
TEAM-DET3
 10
-306.488388
 20
38.66196
 30
0.0
 40
5.75002
 50
270.0
 51
349.999237
  0
LINE
  5
133
  8
TEAM-DET3
 10
-324.787948
 20
14.0001
 30
0.0
 11
-319.455308
 21
10.80062
 31
0.0
  0
LINE
  5
134
  8
TEAM-DET3
 10
-320.120588
 20
10.80062
 30
0.0
 11
-314.787948
 21
14.0001
 31
0.0
  0
LINE
  5
135
  8
TEAM-DET3
 10
-324.037228
 20
18.00034
 30
0.0
 11
-324.787948
 21
14.0001
 31
0.0
  0
LINE
  5
136
  8
TEAM-DET3
 10
-315.537468
 20
18.00034
 30
0.0
 11
-314.787948
 21
14.0001
 31
0.0
  0
LINE
  5
137
  8
TEAM-DET3
 10
-324.038448
 20
82.6622
 30
0.0
 11
-324.037228
 21
40.91294
 31
0.0
  0
LINE
  5
138
  8
TEAM-DET3
 10
-315.537468
 20
82.6622
 30
0.0
 11
-315.537468
 21
40.91294
 31
0.0
  0
LINE
  5
139
  8
TEAM-AXE
 10
-319.787948
 20
4.91196
 30
0.0
 11
-319.787948
 21
90.655841
 31
0.0
  0
LINE
  5
13A
  8
TEAM-HIDE
 10
-518.014888
 20
-0.00016
 30
0.0
 11
0.0
 21
0.0
 31
0.0
  0
LINE
  5
13D
  8
TEAM-HIDE
 10
518.014888
 20
-0.00016
 30
0.0
 11
0.0
 21
0.0
 31
0.0
  0
ENDSEC
  0
EOF
