  0
SECTION
  2
HEADER
  9
$ACADVER
  1
AC1009
  9
$INSBASE
 10
0.0
 20
0.0
 30
0.0
  9
$EXTMIN
 10
-951.374868
 20
-7.117042
 30
-10.00106
  9
$EXTMAX
 10
997.864564
 20
646.374314
 30
10.000672
  9
$LIMMIN
 10
-951.374868
 20
-7.117042
  9
$LIMMAX
 10
997.864564
 20
646.374314
  9
$ORTHOMODE
 70
     1
  9
$REGENMODE
 70
     1
  9
$FILLMODE
 70
     1
  9
$QTEXTMODE
 70
     0
  9
$MIRRTEXT
 70
     0
  9
$DRAGMODE
 70
     2
  9
$LTSCALE
 40
50.0
  9
$OSMODE
 70
     7
  9
$ATTMODE
 70
     1
  9
$TEXTSIZE
 40
200.0
  9
$TRACEWID
 40
1.0
  9
$TEXTSTYLE
  7
STANDARD
  9
$CLAYER
  8
TEAM-MAS
  9
$CELTYPE
  6
BYLAYER
  9
$CECOLOR
 62
   256
  9
$DIMSCALE
 40
0.0
  9
$DIMASZ
 40
20.0
  9
$DIMEXO
 40
10.0
  9
$DIMDLI
 40
1.0
  9
$DIMRND
 40
0.0
  9
$DIMDLE
 40
0.0
  9
$DIMEXE
 40
1.0
  9
$DIMTP
 40
0.0
  9
$DIMTM
 40
0.0
  9
$DIMTXT
 40
35.0
  9
$DIMCEN
 40
1.0
  9
$DIMTSZ
 40
0.0
  9
$DIMTOL
 70
     0
  9
$DIMLIM
 70
     0
  9
$DIMTIH
 70
     0
  9
$DIMTOH
 70
     0
  9
$DIMSE1
 70
     0
  9
$DIMSE2
 70
     0
  9
$DIMTAD
 70
     0
  9
$DIMZIN
 70
     0
  9
$DIMBLK
  1

  9
$DIMASO
 70
     1
  9
$DIMSHO
 70
     0
  9
$DIMPOST
  1

  9
$DIMAPOST
  1

  9
$DIMALT
 70
     0
  9
$DIMALTD
 70
     2
  9
$DIMALTF
 40
25.4
  9
$DIMLFAC
 40
1.0
  9
$DIMTOFL
 70
     0
  9
$DIMTVP
 40
0.0
  9
$DIMTIX
 70
     0
  9
$DIMSOXD
 70
     0
  9
$DIMSAH
 70
     0
  9
$DIMBLK1
  1

  9
$DIMBLK2
  1

  9
$DIMSTYLE
  2
TEAM
  9
$DIMCLRD
 70
     9
  9
$DIMCLRE
 70
     9
  9
$DIMCLRT
 70
    11
  9
$DIMTFAC
 40
1.0
  9
$DIMGAP
 40
7.0
  9
$LUNITS
 70
     2
  9
$LUPREC
 70
     1
  9
$SKETCHINC
 40
1.0
  9
$FILLETRAD
 40
10.0
  9
$AUNITS
 70
     0
  9
$AUPREC
 70
     0
  9
$MENU
  1
ROPLANS
  9
$ELEVATION
 40
0.0
  9
$PELEVATION
 40
0.0
  9
$THICKNESS
 40
0.0
  9
$LIMCHECK
 70
     0
  9
$BLIPMODE
 70
     1
  9
$CHAMFERA
 40
0.0
  9
$CHAMFERB
 40
0.0
  9
$SKPOLY
 70
     0
  9
$TDCREATE
 40
2450392.957851
  9
$TDUPDATE
 40
2455955.923321
  9
$TDINDWG
 40
2.217917
  9
$TDUSRTIMER
 40
2.217917
  9
$USRTIMER
 70
     1
  9
$ANGBASE
 50
0.0
  9
$ANGDIR
 70
     0
  9
$PDMODE
 70
     0
  9
$PDSIZE
 40
0.0
  9
$PLINEWID
 40
0.0
  9
$COORDS
 70
     2
  9
$SPLFRAME
 70
     0
  9
$SPLINETYPE
 70
     6
  9
$SPLINESEGS
 70
     8
  9
$ATTDIA
 70
     0
  9
$ATTREQ
 70
     0
  9
$HANDLING
 70
     1
  9
$HANDSEED
  5
258
  9
$SURFTAB1
 70
    24
  9
$SURFTAB2
 70
    24
  9
$SURFTYPE
 70
     6
  9
$SURFU
 70
     6
  9
$SURFV
 70
     6
  9
$UCSNAME
  2

  9
$UCSORG
 10
0.0
 20
0.0
 30
0.0
  9
$UCSXDIR
 10
1.0
 20
0.0
 30
0.0
  9
$UCSYDIR
 10
0.0
 20
1.0
 30
0.0
  9
$PUCSNAME
  2

  9
$PUCSORG
 10
0.0
 20
0.0
 30
0.0
  9
$PUCSXDIR
 10
1.0
 20
0.0
 30
0.0
  9
$PUCSYDIR
 10
0.0
 20
1.0
 30
0.0
  9
$USERI1
 70
     0
  9
$USERI2
 70
     0
  9
$USERI3
 70
     0
  9
$USERI4
 70
     0
  9
$USERI5
 70
     0
  9
$USERR1
 40
0.0
  9
$USERR2
 40
0.0
  9
$USERR3
 40
0.0
  9
$USERR4
 40
0.0
  9
$USERR5
 40
0.0
  9
$WORLDVIEW
 70
     1
  9
$SHADEDGE
 70
     0
  9
$SHADEDIF
 70
    70
  9
$TILEMODE
 70
     1
  9
$MAXACTVP
 70
    16
  9
$PLIMCHECK
 70
     0
  9
$PEXTMIN
 10
-0.805942
 20
0.005011
 30
0.0
  9
$PEXTMAX
 10
20.250094
 20
11.356329
 30
0.0
  9
$PLIMMIN
 10
0.0
 20
0.0
  9
$PLIMMAX
 10
12.0
 20
9.0
  9
$UNITMODE
 70
     0
  9
$VISRETAIN
 70
     0
  9
$PLINEGEN
 70
     0
  9
$PSLTSCALE
 70
     0
  0
ENDSEC
  0
SECTION
  2
TABLES
  0
TABLE
  2
VPORT
 70
     2
  0
VPORT
  2
*ACTIVE
 70
     0
 10
0.0
 20
0.0
 11
1.0
 21
1.0
 12
23.244848
 22
319.628636
 13
0.0
 23
0.0
 14
1.0
 24
1.0
 15
50.0
 25
50.0
 16
0.0
 26
0.0
 36
1.0
 17
0.0
 27
0.0
 37
0.0
 40
1027.258129
 41
1.903766
 42
50.0
 43
0.0
 44
0.0
 50
0.0
 51
0.0
 71
     0
 72
   100
 73
     1
 74
     1
 75
     0
 76
     0
 77
     0
 78
     0
  0
ENDTAB
  0
TABLE
  2
LTYPE
 70
     3
  0
LTYPE
  2
CONTINUOUS
 70
     0
  3
Solid Line
 72
    65
 73
     0
 40
0.0
  0
LTYPE
  2
31
 70
     0
  3

 72
    65
 73
     4
 40
2.1
 49
1.5
 49
-0.3
 49
0.0
 49
-0.3
  0
LTYPE
  2
22
 70
     0
  3

 72
    65
 73
     2
 40
1.4
 49
1.2
 49
-0.2
  0
ENDTAB
  0
TABLE
  2
LAYER
 70
    11
  0
LAYER
  2
0
 70
     0
 62
     7
  6
CONTINUOUS
  0
LAYER
  2
DEFPOINTS
 70
     0
 62
     7
  6
CONTINUOUS
  0
LAYER
  2
TEAM-BODY
 70
     0
 62
     2
  6
CONTINUOUS
  0
LAYER
  2
TEAM-AXE
 70
     0
 62
    10
  6
31
  0
LAYER
  2
TEAM-MAS
 70
     0
 62
     9
  6
CONTINUOUS
  0
LAYER
  2
TEAM-TXT
 70
     0
 62
    11
  6
CONTINUOUS
  0
LAYER
  2
TEAM-DET1
 70
     0
 62
     4
  6
CONTINUOUS
  0
LAYER
  2
TEAM-HIDE
 70
     0
 62
     8
  6
22
  0
LAYER
  2
TEAM-KAN
 70
     0
 62
     6
  6
CONTINUOUS
  0
LAYER
  2
TEAM-DET3
 70
     0
 62
    14
  6
CONTINUOUS
  0
LAYER
  2
TEAM-INSP
 70
     0
 62
     5
  6
CONTINUOUS
  0
ENDTAB
  0
TABLE
  2
STYLE
 70
     2
  0
STYLE
  2
STANDARD
 70
     0
 40
0.0
 41
1.0
 50
0.0
 71
     0
 42
200.0
  3
txt
  4

  0
STYLE
  2
TEAM
 70
     0
 40
0.0
 41
0.8
 50
15.0
 71
     0
 42
7.0
  3
ROMANS.shx
  4

  0
ENDTAB
  0
TABLE
  2
VIEW
 70
     0
  0
ENDTAB
  0
TABLE
  2
UCS
 70
     0
  0
ENDTAB
  0
TABLE
  2
APPID
 70
     1
  0
APPID
  2
ACAD
 70
     0
  0
ENDTAB
  0
TABLE
  2
DIMSTYLE
 70
     1
  0
DIMSTYLE
  2
TEAM
 70
     0
  3

  4

  5

  6

  7

 40
0.0
 41
20.0
 42
10.0
 43
1.0
 44
1.0
 45
0.0
 46
0.0
 47
0.0
 48
0.0
140
35.0
141
1.0
142
0.0
143
25.4
144
1.0
145
0.0
146
1.0
147
7.0
 71
     0
 72
     0
 73
     0
 74
     0
 75
     0
 76
     0
 77
     0
 78
     0
170
     0
171
     2
172
     0
173
     0
174
     0
175
     0
176
     9
177
     9
178
    11
  0
ENDTAB
  0
ENDSEC
  0
SECTION
  2
BLOCKS
  0
BLOCK
  8
0
  2
$MODEL_SPACE
 70
     0
 10
0.0
 20
0.0
 30
0.0
  3
$MODEL_SPACE
  1

  0
ENDBLK
  5
234
  8
0
  0
BLOCK
 67
     1
  8
0
  2
$PAPER_SPACE
 70
     0
 10
0.0
 20
0.0
 30
0.0
  3
$PAPER_SPACE
  1

  0
ENDBLK
  5
232
 67
     1
  8
0
  0
BLOCK
  8
0
  2
*D0
 70
     1
 10
0.0
 20
0.0
 30
0.0
  3
*D0
  1

  0
LINE
  5
31
  8
0
  6
BYBLOCK
 62
     9
 10
12958.604959
 20
52595.0
 30
0.0
 11
12981.231887
 21
52595.0
 31
0.0
  0
LINE
  5
32
  8
0
  6
BYBLOCK
 62
     9
 10
12036.013776
 20
52145.0
 30
0.0
 11
12981.231887
 21
52145.0
 31
0.0
  0
LINE
  5
33
  8
0
  6
BYBLOCK
 62
     9
 10
12980.231887
 20
52575.0
 30
0.0
 11
12980.231887
 21
52420.75
 31
0.0
  0
LINE
  5
34
  8
0
  6
BYBLOCK
 62
     9
 10
12980.231887
 20
52165.0
 30
0.0
 11
12980.231887
 21
52319.25
 31
0.0
  0
SOLID
  5
35
  8
0
  6
BYBLOCK
 62
     9
 10
12976.898553
 20
52575.0
 30
0.0
 11
12983.56522
 21
52575.0
 31
0.0
 12
12980.231887
 22
52595.0
 32
0.0
 13
12980.231887
 23
52595.0
 33
0.0
  0
SOLID
  5
36
  8
0
  6
BYBLOCK
 62
     9
 10
12976.898553
 20
52165.0
 30
0.0
 11
12983.56522
 21
52165.0
 31
0.0
 12
12980.231887
 22
52145.0
 32
0.0
 13
12980.231887
 23
52145.0
 33
0.0
  0
TEXT
  5
37
  8
0
  6
BYBLOCK
 62
    11
 10
12997.731887
 20
52326.25
 30
0.0
 40
35.0
  1
450
 50
90.0
  0
POINT
  5
38
  8
DEFPOINTS
  6
BYBLOCK
 62
     0
 10
12948.604959
 20
52595.0
 30
0.0
  0
POINT
  5
39
  8
DEFPOINTS
  6
BYBLOCK
 62
     0
 10
12026.013776
 20
52145.0
 30
0.0
  0
POINT
  5
3A
  8
DEFPOINTS
  6
BYBLOCK
 62
     0
 10
12980.231887
 20
52145.0
 30
0.0
  0
ENDBLK
  5
3C
  8
0
  0
BLOCK
  8
0
  2
*D1
 70
     1
 10
0.0
 20
0.0
 30
0.0
  3
*D1
  1

  0
LINE
  5
22
  8
0
  6
BYBLOCK
 62
     9
 10
11050.013776
 20
52578.9
 30
0.0
 11
11050.013776
 21
52629.855634
 31
0.0
  0
LINE
  5
23
  8
0
  6
BYBLOCK
 62
     9
 10
12950.013776
 20
52599.0
 30
0.0
 11
12950.013776
 21
52629.855634
 31
0.0
  0
LINE
  5
24
  8
0
  6
BYBLOCK
 62
     9
 10
11070.013776
 20
52628.855634
 30
0.0
 11
11940.513776
 21
52628.855634
 31
0.0
  0
LINE
  5
25
  8
0
  6
BYBLOCK
 62
     9
 10
12930.013776
 20
52628.855634
 30
0.0
 11
12059.513776
 21
52628.855634
 31
0.0
  0
SOLID
  5
26
  8
0
  6
BYBLOCK
 62
     9
 10
11070.013776
 20
52632.188967
 30
0.0
 11
11070.013776
 21
52625.5223
 31
0.0
 12
11050.013776
 22
52628.855634
 32
0.0
 13
11050.013776
 23
52628.855634
 33
0.0
  0
SOLID
  5
27
  8
0
  6
BYBLOCK
 62
     9
 10
12930.013776
 20
52632.188967
 30
0.0
 11
12930.013776
 21
52625.5223
 31
0.0
 12
12950.013776
 22
52628.855634
 32
0.0
 13
12950.013776
 23
52628.855634
 33
0.0
  0
TEXT
  5
28
  8
0
  6
BYBLOCK
 62
    11
 10
11947.513776
 20
52611.355634
 30
0.0
 40
35.0
  1
1900
  0
POINT
  5
29
  8
DEFPOINTS
  6
BYBLOCK
 62
     0
 10
11050.013776
 20
52568.9
 30
-10.0
  0
POINT
  5
2B
  8
DEFPOINTS
  6
BYBLOCK
 62
     0
 10
12950.013776
 20
52589.0
 30
-10.0
  0
POINT
  5
2C
  8
DEFPOINTS
  6
BYBLOCK
 62
     0
 10
12950.013776
 20
52628.855634
 30
0.0
  0
ENDBLK
  5
2E
  8
0
  0
BLOCK
  8
0
  2
*D2
 70
     1
 10
0.0
 20
0.0
 30
0.0
  3
*D2
  1

  0
LINE
  5
46
  8
0
  6
BYBLOCK
 62
     9
 10
11974.013776
 20
52135.0
 30
0.0
 11
11974.013776
 21
52090.128662
 31
0.0
  0
LINE
  5
47
  8
0
  6
BYBLOCK
 62
     9
 10
12026.013776
 20
52135.0
 30
0.0
 11
12026.013776
 21
52090.128662
 31
0.0
  0
LINE
  5
48
  8
0
  6
BYBLOCK
 62
     9
 10
11954.013776
 20
52091.128662
 30
0.0
 11
11934.013776
 21
52091.128662
 31
0.0
  0
LINE
  5
49
  8
0
  6
BYBLOCK
 62
     9
 10
12046.013776
 20
52091.128662
 30
0.0
 11
12066.013776
 21
52091.128662
 31
0.0
  0
TEXT
  5
4A
  8
0
  6
BYBLOCK
 62
    11
 10
12084.47187
 20
52073.628662
 30
0.0
 40
35.0
  1
52
  0
LINE
  5
4B
  8
0
  6
BYBLOCK
 62
     9
 10
11974.013776
 20
52091.128662
 30
0.0
 11
12026.013776
 21
52091.128662
 31
0.0
  0
SOLID
  5
4C
  8
0
  6
BYBLOCK
 62
     9
 10
11954.013776
 20
52094.461995
 30
0.0
 11
11954.013776
 21
52087.795328
 31
0.0
 12
11974.013776
 22
52091.128662
 32
0.0
 13
11974.013776
 23
52091.128662
 33
0.0
  0
SOLID
  5
4D
  8
0
  6
BYBLOCK
 62
     9
 10
12046.013776
 20
52094.461995
 30
0.0
 11
12046.013776
 21
52087.795328
 31
0.0
 12
12026.013776
 22
52091.128662
 32
0.0
 13
12026.013776
 23
52091.128662
 33
0.0
  0
POINT
  5
4E
  8
DEFPOINTS
  6
BYBLOCK
 62
     0
 10
11974.013776
 20
52145.0
 30
10.0
  0
POINT
  5
4F
  8
DEFPOINTS
  6
BYBLOCK
 62
     0
 10
12026.013776
 20
52145.0
 30
10.0
  0
POINT
  5
50
  8
DEFPOINTS
  6
BYBLOCK
 62
     0
 10
12026.013776
 20
52091.128662
 30
0.0
  0
ENDBLK
  5
52
  8
0
  0
ENDSEC
  0
SECTION
  2
ENTITIES
  0
DIMENSION
  5
20
  8
TEAM-MAS
  2
*D1
 10
950.013776
 20
628.855634
 30
10.0
 11
0.013776
 21
628.855634
 31
10.0
 12
-12000.0
 22
-52000.0
 32
10.0
 13
-949.986224
 23
568.9
 33
0.0
 14
950.013776
 24
589.0
 34
0.0
  0
DIMENSION
  5
2F
  8
TEAM-MAS
  2
*D0
 10
980.231887
 20
145.0
 30
0.0
 11
980.231887
 21
370.0
 31
0.0
 12
-12000.0
 22
-52000.0
 32
0.0
 13
948.604959
 23
595.0
 33
0.0
 14
26.013776
 24
145.0
 34
0.0
 50
90.0
  0
POLYLINE
  5
3D
  8
TEAM-BODY
 66
     1
 10
0.0
 20
0.0
 30
0.0
  0
VERTEX
  5
23A
  8
TEAM-BODY
 10
31.013776
 20
145.0
 30
0.0
  0
VERTEX
  5
23B
  8
TEAM-BODY
 10
26.013776
 20
145.0
 30
0.0
  0
VERTEX
  5
23C
  8
TEAM-BODY
 10
31.013776
 20
145.0
 30
0.0
 42
0.241952
  0
VERTEX
  5
23D
  8
TEAM-BODY
 10
36.013776
 20
147.5
 30
0.0
 42
-0.232609
  0
VERTEX
  5
23E
  8
TEAM-BODY
 10
41.013776
 20
150.0
 30
0.0
  0
VERTEX
  5
23F
  8
TEAM-BODY
 10
554.231335
 20
165.068433
 30
0.0
 42
0.24016
  0
VERTEX
  5
240
  8
TEAM-BODY
 10
657.632053
 20
222.073281
 30
0.0
  0
VERTEX
  5
241
  8
TEAM-BODY
 10
849.6012
 20
579.634117
 30
0.0
 42
-0.248757
  0
VERTEX
  5
242
  8
TEAM-BODY
 10
878.575352
 20
595.0
 30
0.0
  0
VERTEX
  5
243
  8
TEAM-BODY
 10
944.013776
 20
595.0
 30
0.0
 42
-0.414214
  0
VERTEX
  5
244
  8
TEAM-BODY
 10
950.013776
 20
589.0
 30
0.0
  0
VERTEX
  5
245
  8
TEAM-BODY
 10
950.013776
 20
568.9
 30
0.0
 42
-0.414214
  0
VERTEX
  5
246
  8
TEAM-BODY
 10
944.013776
 20
562.9
 30
0.0
  0
VERTEX
  5
247
  8
TEAM-BODY
 10
934.063775
 20
562.9
 30
0.0
  0
SEQEND
  5
248
  8
TEAM-BODY
  0
LINE
  5
3F
  8
TEAM-DET1
 10
878.575352
 20
595.0
 30
0.0
 11
-878.5478
 21
595.0
 31
0.0
  0
LINE
  5
41
  8
TEAM-HIDE
 10
-507.592176
 20
-0.00046
 30
0.0
 11
491.415754
 21
0.00046
 31
0.0
  0
DIMENSION
  5
44
  8
TEAM-MAS
  2
*D2
 10
26.013776
 20
91.128662
 30
-10.0
 11
113.638536
 21
91.128662
 31
-10.0
 12
-12000.0
 22
-52000.0
 32
-10.0
 70
   128
 13
-25.986224
 23
145.0
 33
0.0
 14
26.013776
 24
145.0
 34
0.0
  0
POLYLINE
  5
53
  8
TEAM-BODY
 66
     1
 10
0.0
 20
0.0
 30
0.0
  0
VERTEX
  5
249
  8
TEAM-BODY
 10
-934.036223
 20
562.9
 30
0.0
  0
VERTEX
  5
24A
  8
TEAM-BODY
 10
-943.986224
 20
562.9
 30
0.0
 42
-0.414214
  0
VERTEX
  5
24B
  8
TEAM-BODY
 10
-949.986224
 20
568.9
 30
0.0
  0
VERTEX
  5
24C
  8
TEAM-BODY
 10
-949.986224
 20
589.0
 30
0.0
 42
-0.414214
  0
VERTEX
  5
24D
  8
TEAM-BODY
 10
-943.986224
 20
595.0
 30
0.0
  0
VERTEX
  5
24E
  8
TEAM-BODY
 10
-878.5478
 20
595.0
 30
0.0
 42
-0.248757
  0
VERTEX
  5
24F
  8
TEAM-BODY
 10
-849.573648
 20
579.634117
 30
0.0
  0
VERTEX
  5
250
  8
TEAM-BODY
 10
-657.604501
 20
222.073281
 30
0.0
 42
0.238312
  0
VERTEX
  5
251
  8
TEAM-BODY
 10
-554.203783
 20
163.195488
 30
0.0
  0
VERTEX
  5
252
  8
TEAM-BODY
 10
-40.986224
 20
150.0
 30
0.0
 42
-0.232609
  0
VERTEX
  5
253
  8
TEAM-BODY
 10
-35.986224
 20
147.5
 30
0.0
 42
0.241952
  0
VERTEX
  5
254
  8
TEAM-BODY
 10
-30.986224
 20
145.0
 30
0.0
  0
VERTEX
  5
255
  8
TEAM-BODY
 10
-25.986224
 20
145.0
 30
0.0
  0
SEQEND
  5
256
  8
TEAM-BODY
  0
LINE
  5
54
  8
TEAM-DET1
 10
-934.036223
 20
562.9
 30
0.0
 11
-838.301664
 21
562.9
 31
0.0
  0
TEXT
  5
55
  8
TEAM-TXT
 10
-793.295402
 20
533.796866
 30
0.0
 40
30.0
  1
team 111539
 41
0.7
 51
15.0
  7
TEAM
  0
LINE
  5
58
  8
TEAM-DET3
 10
-556.941536
 20
144.502754
 30
0.0
 11
-556.941536
 21
162.938616
 31
0.0
  0
LINE
  5
5A
  8
TEAM-DET3
 10
-556.941536
 20
162.938616
 30
0.0
 11
-556.941536
 21
175.316954
 31
0.0
  0
LINE
  5
5B
  8
TEAM-AXE
 10
-522.941296
 20
199.855534
 30
0.0
 11
-522.941296
 21
-5.3514
 31
0.0
  0
LINE
  5
5E
  8
TEAM-DET3
 10
-556.941536
 20
144.502754
 30
0.0
 11
-540.941796
 21
79.53508
 31
0.0
  0
LINE
  5
5F
  8
TEAM-DET3
 10
-488.941056
 20
144.502754
 30
0.0
 11
-504.940816
 21
79.53508
 31
0.0
  0
LINE
  5
60
  8
TEAM-DET3
 10
-514.940816
 20
130.384094
 30
0.0
 11
-514.940816
 21
154.066954
 31
0.0
  0
LINE
  5
61
  8
TEAM-DET3
 10
-530.941796
 20
130.384094
 30
0.0
 11
-530.941796
 21
154.066954
 31
0.0
  0
LINE
  5
62
  8
TEAM-DET3
 10
-514.940816
 20
130.384094
 30
0.0
 11
-530.941796
 21
130.384094
 31
0.0
  0
LINE
  5
63
  8
TEAM-DET3
 10
-572.941296
 20
199.855534
 30
0.0
 11
-561.941536
 21
199.855534
 31
0.0
  0
LINE
  5
64
  8
TEAM-DET3
 10
-572.941296
 20
202.235894
 30
0.0
 11
-561.941536
 21
202.235894
 31
0.0
  0
LINE
  5
65
  8
TEAM-DET3
 10
-572.941296
 20
177.697334
 30
0.0
 11
-561.941536
 21
177.697334
 31
0.0
  0
ARC
  5
66
  8
TEAM-DET3
 10
-572.941296
 20
182.697334
 30
0.0
 40
5.0
 50
180.0
 51
270.0
  0
ARC
  5
67
  8
TEAM-DET3
 10
-572.941296
 20
197.235894
 30
0.0
 40
5.0
 50
90.0
 51
180.0
  0
ARC
  5
68
  8
TEAM-DET3
 10
-572.941296
 20
194.855534
 30
0.0
 40
5.0
 50
90.0
 51
180.0
  0
LINE
  5
69
  8
TEAM-DET3
 10
-577.941296
 20
182.697334
 30
0.0
 11
-577.941296
 21
197.235894
 31
0.0
  0
LINE
  5
6A
  8
TEAM-AXE
 10
-512.361456
 20
154.066954
 30
0.0
 11
-533.521136
 21
154.066954
 31
0.0
  0
ARC
  5
6B
  8
TEAM-DET3
 10
-522.941296
 20
154.066954
 30
0.0
 40
8.0
 50
22.401295
 51
155.597656
  0
ARC
  5
6C
  8
TEAM-DET3
 10
-483.941056
 20
174.696834
 30
0.0
 40
3.0
 50
90.0
 51
130.527954
  0
ARC
  5
6D
  8
TEAM-DET3
 10
-488.941056
 20
178.316214
 30
0.0
 40
3.0
 50
270.0
 51
310.511505
  0
ARC
  5
6E
  8
TEAM-DET3
 10
-483.941056
 20
196.856254
 30
0.0
 40
3.0
 50
90.0
 51
130.527954
  0
ARC
  5
6F
  8
TEAM-DET3
 10
-488.941056
 20
200.475654
 30
0.0
 40
3.0
 50
270.0
 51
310.495087
  0
ARC
  5
70
  8
TEAM-DET3
 10
-488.941056
 20
202.856014
 30
0.0
 40
3.0
 50
270.0
 51
310.495087
  0
ARC
  5
71
  8
TEAM-DET3
 10
-483.941056
 20
199.235414
 30
0.0
 40
3.0
 50
90.0
 51
130.515305
  0
ARC
  5
72
  8
TEAM-DET3
 10
-472.941296
 20
182.697334
 30
0.0
 40
5.0
 50
270.0
 51
0.0
  0
ARC
  5
73
  8
TEAM-DET3
 10
-472.941296
 20
197.235894
 30
0.0
 40
5.0
 50
0.0
 51
90.0
  0
ARC
  5
74
  8
TEAM-DET3
 10
-472.941296
 20
194.855534
 30
0.0
 40
5.0
 50
0.0
 51
90.0
  0
ARC
  5
75
  8
TEAM-DET3
 10
-561.941536
 20
174.696834
 30
0.0
 40
3.0
 50
49.472038
 51
90.0
  0
ARC
  5
76
  8
TEAM-DET3
 10
-556.941536
 20
178.316214
 30
0.0
 40
3.0
 50
229.48848
 51
270.0
  0
ARC
  5
77
  8
TEAM-DET3
 10
-561.941536
 20
196.856254
 30
0.0
 40
3.0
 50
49.472038
 51
90.0
  0
ARC
  5
78
  8
TEAM-DET3
 10
-556.941536
 20
200.475654
 30
0.0
 40
3.0
 50
229.504883
 51
270.0
  0
ARC
  5
79
  8
TEAM-DET3
 10
-556.941536
 20
202.856014
 30
0.0
 40
3.0
 50
229.504883
 51
270.0
  0
ARC
  5
7A
  8
TEAM-DET3
 10
-561.941536
 20
199.235414
 30
0.0
 40
3.0
 50
49.484684
 51
90.0
  0
LINE
  5
7B
  8
TEAM-DET3
 10
-561.941536
 20
179.242734
 30
0.0
 11
-561.941536
 21
198.310114
 31
0.0
  0
LINE
  5
7C
  8
TEAM-DET3
 10
-556.941536
 20
176.862354
 30
0.0
 11
-556.941536
 21
195.929754
 31
0.0
  0
LINE
  5
7D
  8
TEAM-DET3
 10
-488.941056
 20
176.862354
 30
0.0
 11
-488.941056
 21
195.929754
 31
0.0
  0
LINE
  5
7E
  8
TEAM-DET3
 10
-483.941056
 20
179.242734
 30
0.0
 11
-483.941056
 21
198.310114
 31
0.0
  0
LINE
  5
7F
  8
TEAM-DET3
 10
-488.941056
 20
156.651494
 30
0.0
 11
-488.941056
 21
175.316034
 31
0.0
  0
LINE
  5
80
  8
TEAM-DET3
 10
-472.941296
 20
199.855534
 30
0.0
 11
-483.941056
 21
199.855534
 31
0.0
  0
LINE
  5
81
  8
TEAM-DET3
 10
-472.941296
 20
202.235894
 30
0.0
 11
-483.941056
 21
202.235894
 31
0.0
  0
LINE
  5
82
  8
TEAM-DET3
 10
-472.941296
 20
177.697334
 30
0.0
 11
-483.941056
 21
177.697334
 31
0.0
  0
LINE
  5
83
  8
TEAM-DET3
 10
-467.941296
 20
182.697334
 30
0.0
 11
-467.941296
 21
197.235894
 31
0.0
  0
LINE
  5
84
  8
TEAM-DET3
 10
-556.941536
 20
199.855534
 30
0.0
 11
-488.941056
 21
199.855534
 31
0.0
  0
LINE
  5
85
  8
TEAM-DET3
 10
-556.941536
 20
197.475154
 30
0.0
 11
-488.941056
 21
197.475154
 31
0.0
  0
ARC
  5
86
  8
TEAM-DET3
 10
-522.941296
 20
154.066954
 30
0.0
 40
8.0
 50
0.0
 51
22.401295
  0
ARC
  5
87
  8
TEAM-DET3
 10
-522.941296
 20
154.066954
 30
0.0
 40
8.0
 50
155.597656
 51
180.0
  0
LINE
  5
88
  8
TEAM-DET3
 10
-488.941056
 20
144.502754
 30
0.0
 11
-488.941056
 21
156.651494
 31
0.0
  0
LINE
  5
89
  8
TEAM-KAN
 10
-25.986224
 20
145.0
 30
0.0
 11
26.013776
 21
145.0
 31
0.0
  0
LINE
  5
8B
  8
TEAM-AXE
 10
0.013776
 20
169.999956
 30
0.0
 11
0.013776
 21
135.0
 31
0.0
  0
CIRCLE
  5
8C
  8
TEAM-INSP
 10
0.0
 20
0.0
 30
0.0
 40
7.1
  0
LINE
  5
8E
  8
TEAM-HIDE
 10
-538.291636
 20
-0.00046
 30
0.0
 11
-882.49954
 21
-0.00168
 31
0.0
  0
LINE
  5
8F
  8
TEAM-DET3
 10
-518.941356
 20
46.6066
 30
0.0
 11
-518.941356
 21
19.32816
 31
0.0
  0
LINE
  5
90
  8
TEAM-DET3
 10
-526.941236
 20
19.3367
 30
0.0
 11
-526.941236
 21
46.6066
 31
0.0
  0
LINE
  5
91
  8
TEAM-DET3
 10
-526.941236
 20
19.3367
 30
0.0
 11
-527.941296
 21
13.9998
 31
0.0
  0
LINE
  5
92
  8
TEAM-DET3
 10
-518.941356
 20
19.32816
 30
0.0
 11
-517.941296
 21
13.9998
 31
0.0
  0
LINE
  5
93
  8
TEAM-DET3
 10
-522.608056
 20
10.80034
 30
0.0
 11
-527.941296
 21
13.9998
 31
0.0
  0
LINE
  5
94
  8
TEAM-DET3
 10
-517.941296
 20
13.9998
 30
0.0
 11
-523.274556
 21
10.80034
 31
0.0
  0
ARC
  5
95
  8
TEAM-DET3
 10
-536.190816
 20
51.35758
 30
0.0
 40
4.75
 50
180.0
 51
270.0
  0
ARC
  5
96
  8
TEAM-DET3
 10
-509.691796
 20
51.35758
 30
0.0
 40
4.75
 50
270.0
 51
0.0
  0
LINE
  5
97
  8
TEAM-DET3
 10
-540.941796
 20
51.35758
 30
0.0
 11
-540.941796
 21
79.53508
 31
0.0
  0
LINE
  5
98
  8
TEAM-DET3
 10
-504.940816
 20
51.35758
 30
0.0
 11
-504.940816
 21
79.53508
 31
0.0
  0
LINE
  5
99
  8
TEAM-DET3
 10
-517.941296
 20
46.6066
 30
0.0
 11
-517.941296
 21
10.80034
 31
0.0
  0
LINE
  5
9A
  8
TEAM-DET3
 10
-509.691796
 20
46.6066
 30
0.0
 11
-536.190816
 21
46.6066
 31
0.0
  0
LINE
  5
9B
  8
TEAM-DET3
 10
-527.941296
 20
10.80034
 30
0.0
 11
-527.941296
 21
46.6066
 31
0.0
  0
LINE
  5
9C
  8
TEAM-DET3
 10
-507.592176
 20
-0.00046
 30
0.0
 11
-538.291636
 21
-0.00046
 31
0.0
  0
LINE
  5
9D
  8
TEAM-DET3
 10
-507.592176
 20
10.80034
 30
0.0
 11
-538.291636
 21
10.80034
 31
0.0
  0
LINE
  5
9E
  8
TEAM-DET3
 10
-527.941296
 20
13.9998
 30
0.0
 11
-517.941296
 21
13.9998
 31
0.0
  0
LINE
  5
9F
  8
TEAM-DET3
 10
-507.592176
 20
10.80034
 30
0.0
 11
-507.592176
 21
-0.00046
 31
0.0
  0
LINE
  5
A0
  8
TEAM-DET3
 10
-538.291636
 20
10.80034
 30
0.0
 11
-538.291636
 21
-0.00046
 31
0.0
  0
LINE
  5
A1
  8
TEAM-DET1
 10
934.063775
 20
562.9
 30
0.0
 11
838.329216
 21
562.9
 31
0.0
  0
LINE
  5
A2
  8
TEAM-DET3
 10
540.765114
 20
196.85594
 30
0.0
 11
472.764634
 21
196.85594
 31
0.0
  0
LINE
  5
A3
  8
TEAM-DET3
 10
540.765114
 20
199.2363
 30
0.0
 11
472.764634
 21
199.2363
 31
0.0
  0
LINE
  5
A4
  8
TEAM-DET3
 10
472.764634
 20
143.88352
 30
0.0
 11
472.764634
 21
153.99064
 31
0.0
  0
ARC
  5
A5
  8
TEAM-DET3
 10
506.764874
 20
153.44774
 30
0.0
 40
8.0
 50
0.0
 51
11.818751
  0
ARC
  5
A6
  8
TEAM-DET3
 10
506.764874
 20
153.44774
 30
0.0
 40
8.0
 50
171.18338
 51
180.0
  0
LINE
  5
A7
  8
TEAM-DET3
 10
451.764874
 20
182.0781
 30
0.0
 11
451.764874
 21
196.61668
 31
0.0
  0
LINE
  5
A8
  8
TEAM-DET3
 10
456.764874
 20
177.0781
 30
0.0
 11
467.764634
 21
177.0781
 31
0.0
  0
LINE
  5
A9
  8
TEAM-DET3
 10
456.764874
 20
201.61668
 30
0.0
 11
467.764634
 21
201.61668
 31
0.0
  0
LINE
  5
AA
  8
TEAM-DET3
 10
456.764874
 20
199.2363
 30
0.0
 11
467.764634
 21
199.2363
 31
0.0
  0
LINE
  5
AB
  8
TEAM-DET3
 10
472.764634
 20
153.99064
 30
0.0
 11
472.764634
 21
174.69712
 31
0.0
  0
LINE
  5
AC
  8
TEAM-DET3
 10
467.764634
 20
178.62352
 30
0.0
 11
467.764634
 21
197.6909
 31
0.0
  0
LINE
  5
AD
  8
TEAM-DET3
 10
472.764634
 20
176.24314
 30
0.0
 11
472.764634
 21
195.31052
 31
0.0
  0
ARC
  5
AE
  8
TEAM-DET3
 10
456.764874
 20
194.2363
 30
0.0
 40
5.0
 50
90.0
 51
180.0
  0
ARC
  5
AF
  8
TEAM-DET3
 10
456.764874
 20
196.61668
 30
0.0
 40
5.0
 50
90.0
 51
180.0
  0
ARC
  5
B0
  8
TEAM-DET3
 10
456.764874
 20
182.0781
 30
0.0
 40
5.0
 50
180.0
 51
270.0
  0
ARC
  5
B1
  8
TEAM-DET3
 10
467.764634
 20
198.61618
 30
0.0
 40
3.0
 50
49.501122
 51
90.0
  0
ARC
  5
B2
  8
TEAM-DET3
 10
472.764634
 20
202.2368
 30
0.0
 40
3.0
 50
229.501129
 51
270.0
  0
ARC
  5
B3
  8
TEAM-DET3
 10
472.764634
 20
199.85642
 30
0.0
 40
3.0
 50
229.501129
 51
270.0
  0
ARC
  5
B4
  8
TEAM-DET3
 10
467.764634
 20
196.23704
 30
0.0
 40
3.0
 50
49.472038
 51
90.0
  0
ARC
  5
B5
  8
TEAM-DET3
 10
472.764634
 20
177.697
 30
0.0
 40
3.0
 50
229.480255
 51
270.0
  0
ARC
  5
B6
  8
TEAM-DET3
 10
467.764634
 20
174.07762
 30
0.0
 40
3.0
 50
49.472038
 51
90.0
  0
ARC
  5
B7
  8
TEAM-DET3
 10
506.764874
 20
153.44774
 30
0.0
 40
8.0
 50
11.818751
 51
171.18338
  0
LINE
  5
B8
  8
TEAM-AXE
 10
496.185034
 20
153.44774
 30
0.0
 11
517.344714
 21
153.44774
 31
0.0
  0
LINE
  5
B9
  8
TEAM-DET3
 10
498.764374
 20
129.76486
 30
0.0
 11
514.765354
 21
129.76486
 31
0.0
  0
LINE
  5
BA
  8
TEAM-DET3
 10
514.765354
 20
129.76486
 30
0.0
 11
514.765354
 21
153.44774
 31
0.0
  0
LINE
  5
BB
  8
TEAM-DET3
 10
498.764374
 20
129.76486
 30
0.0
 11
498.764374
 21
153.44774
 31
0.0
  0
LINE
  5
BC
  8
TEAM-DET3
 10
472.764634
 20
143.88352
 30
0.0
 11
488.764374
 21
71.9426
 31
0.0
  0
LINE
  5
BD
  8
TEAM-AXE
 10
506.764874
 20
199.2363
 30
0.0
 11
506.764874
 21
-5.35018
 31
0.0
  0
LINE
  5
BE
  8
TEAM-DET3
 10
540.765114
 20
143.88352
 30
0.0
 11
540.765114
 21
155.77104
 31
0.0
  0
LINE
  5
BF
  8
TEAM-DET3
 10
561.764874
 20
182.0781
 30
0.0
 11
561.764874
 21
196.61668
 31
0.0
  0
LINE
  5
C0
  8
TEAM-DET3
 10
556.764874
 20
177.0781
 30
0.0
 11
545.765114
 21
177.0781
 31
0.0
  0
LINE
  5
C1
  8
TEAM-DET3
 10
556.764874
 20
201.61668
 30
0.0
 11
545.765114
 21
201.61668
 31
0.0
  0
LINE
  5
C2
  8
TEAM-DET3
 10
556.764874
 20
199.2363
 30
0.0
 11
545.765114
 21
199.2363
 31
0.0
  0
LINE
  5
C3
  8
TEAM-DET3
 10
540.765114
 20
155.77104
 30
0.0
 11
540.765114
 21
174.69774
 31
0.0
  0
LINE
  5
C4
  8
TEAM-DET3
 10
540.765114
 20
176.24314
 30
0.0
 11
540.765114
 21
195.31052
 31
0.0
  0
LINE
  5
C5
  8
TEAM-DET3
 10
545.765114
 20
178.62352
 30
0.0
 11
545.765114
 21
197.6909
 31
0.0
  0
ARC
  5
C6
  8
TEAM-DET3
 10
545.765114
 20
198.61618
 30
0.0
 40
3.0
 50
90.0
 51
130.51973
  0
ARC
  5
C7
  8
TEAM-DET3
 10
540.765114
 20
202.2368
 30
0.0
 40
3.0
 50
270.0
 51
310.498871
  0
ARC
  5
C8
  8
TEAM-DET3
 10
540.765114
 20
199.85642
 30
0.0
 40
3.0
 50
270.0
 51
310.498871
  0
ARC
  5
C9
  8
TEAM-DET3
 10
545.765114
 20
196.23704
 30
0.0
 40
3.0
 50
90.0
 51
130.527954
  0
ARC
  5
CA
  8
TEAM-DET3
 10
540.765114
 20
177.697
 30
0.0
 40
3.0
 50
270.0
 51
310.498871
  0
ARC
  5
CB
  8
TEAM-DET3
 10
545.765114
 20
174.07762
 30
0.0
 40
3.0
 50
90.0
 51
130.527954
  0
LINE
  5
CC
  8
TEAM-DET3
 10
540.765114
 20
143.88352
 30
0.0
 11
524.765354
 21
71.9426
 31
0.0
  0
ARC
  5
CD
  8
TEAM-DET3
 10
556.764874
 20
194.2363
 30
0.0
 40
5.0
 50
0.0
 51
90.0
  0
ARC
  5
CE
  8
TEAM-DET3
 10
556.764874
 20
196.61668
 30
0.0
 40
5.0
 50
0.0
 51
90.0
  0
ARC
  5
CF
  8
TEAM-DET3
 10
556.764874
 20
182.0781
 30
0.0
 40
5.0
 50
270.0
 51
0.0
  0
LINE
  5
D0
  8
TEAM-DET3
 10
524.765354
 20
43.76512
 30
0.0
 11
524.765354
 21
71.9426
 31
0.0
  0
LINE
  5
D1
  8
TEAM-DET3
 10
510.825534
 20
19.01352
 30
0.0
 11
510.825534
 21
39.01414
 31
0.0
  0
LINE
  5
D2
  8
TEAM-DET3
 10
502.705414
 20
39.01414
 30
0.0
 11
502.705414
 21
19.01352
 31
0.0
  0
LINE
  5
D3
  8
TEAM-DET3
 10
510.825534
 20
19.01352
 30
0.0
 11
511.764874
 21
14.0007
 31
0.0
  0
LINE
  5
D4
  8
TEAM-DET3
 10
502.705414
 20
19.01352
 30
0.0
 11
501.764874
 21
14.0007
 31
0.0
  0
LINE
  5
D5
  8
TEAM-DET3
 10
506.431614
 20
10.80124
 30
0.0
 11
511.764874
 21
14.0007
 31
0.0
  0
LINE
  5
D6
  8
TEAM-DET3
 10
501.764874
 20
14.0007
 30
0.0
 11
507.098114
 21
10.80124
 31
0.0
  0
ARC
  5
D7
  8
TEAM-DET3
 10
493.515354
 20
43.76512
 30
0.0
 40
4.75
 50
180.0
 51
270.0
  0
LINE
  5
D8
  8
TEAM-DET3
 10
488.764374
 20
43.76512
 30
0.0
 11
488.764374
 21
71.9426
 31
0.0
  0
LINE
  5
D9
  8
TEAM-DET3
 10
501.764874
 20
39.01414
 30
0.0
 11
501.764874
 21
10.80124
 31
0.0
  0
LINE
  5
DA
  8
TEAM-DET3
 10
493.515354
 20
39.01414
 30
0.0
 11
520.014374
 21
39.01414
 31
0.0
  0
LINE
  5
DB
  8
TEAM-DET3
 10
511.764874
 20
10.80124
 30
0.0
 11
511.764874
 21
39.01414
 31
0.0
  0
LINE
  5
DC
  8
TEAM-DET3
 10
491.415754
 20
0.00046
 30
0.0
 11
522.115214
 21
0.00046
 31
0.0
  0
LINE
  5
DD
  8
TEAM-DET3
 10
491.415754
 20
10.80124
 30
0.0
 11
522.115214
 21
10.80124
 31
0.0
  0
LINE
  5
DE
  8
TEAM-DET3
 10
511.764874
 20
14.0007
 30
0.0
 11
501.764874
 21
14.0007
 31
0.0
  0
LINE
  5
DF
  8
TEAM-DET3
 10
491.415754
 20
10.80124
 30
0.0
 11
491.415754
 21
0.00046
 31
0.0
  0
LINE
  5
E0
  8
TEAM-DET3
 10
522.115214
 20
10.80124
 30
0.0
 11
522.115214
 21
0.00046
 31
0.0
  0
LINE
  5
E1
  8
TEAM-HIDE
 10
522.115214
 20
0.00046
 30
0.0
 11
817.5003
 21
0.00046
 31
0.0
  0
ARC
  5
E2
  8
TEAM-DET3
 10
520.014374
 20
43.76512
 30
0.0
 40
4.75
 50
270.0
 51
0.0
  0
ENDSEC
  0
EOF
