  0
SECTION
  2
HEADER
  9
$ACADVER
  1
AC1009
  9
$INSBASE
 10
0.0
 20
0.0
 30
0.0
  9
$EXTMIN
 10
-963.721808
 20
-969.010164
 30
0.0
  9
$EXTMAX
 10
1011.807291
 20
1011.86689
 30
0.000005
  9
$LIMMIN
 10
-963.721808
 20
-969.010164
  9
$LIMMAX
 10
1011.807291
 20
1011.86689
  9
$ORTHOMODE
 70
     1
  9
$REGENMODE
 70
     1
  9
$FILLMODE
 70
     1
  9
$QTEXTMODE
 70
     0
  9
$MIRRTEXT
 70
     0
  9
$DRAGMODE
 70
     2
  9
$LTSCALE
 40
50.0
  9
$OSMODE
 70
     7
  9
$ATTMODE
 70
     1
  9
$TEXTSIZE
 40
200.0
  9
$TRACEWID
 40
1.0
  9
$TEXTSTYLE
  7
STANDARD
  9
$CLAYER
  8
TEAM-MAS
  9
$CELTYPE
  6
BYLAYER
  9
$CECOLOR
 62
   256
  9
$DIMSCALE
 40
1.0
  9
$DIMASZ
 40
20.0
  9
$DIMEXO
 40
10.0
  9
$DIMDLI
 40
1.0
  9
$DIMRND
 40
0.0
  9
$DIMDLE
 40
0.0
  9
$DIMEXE
 40
1.0
  9
$DIMTP
 40
0.0
  9
$DIMTM
 40
0.0
  9
$DIMTXT
 40
35.0
  9
$DIMCEN
 40
1.0
  9
$DIMTSZ
 40
0.0
  9
$DIMTOL
 70
     0
  9
$DIMLIM
 70
     0
  9
$DIMTIH
 70
     0
  9
$DIMTOH
 70
     0
  9
$DIMSE1
 70
     0
  9
$DIMSE2
 70
     0
  9
$DIMTAD
 70
     0
  9
$DIMZIN
 70
     0
  9
$DIMBLK
  1

  9
$DIMASO
 70
     1
  9
$DIMSHO
 70
     0
  9
$DIMPOST
  1

  9
$DIMAPOST
  1

  9
$DIMALT
 70
     0
  9
$DIMALTD
 70
     2
  9
$DIMALTF
 40
25.4
  9
$DIMLFAC
 40
1.0
  9
$DIMTOFL
 70
     0
  9
$DIMTVP
 40
0.0
  9
$DIMTIX
 70
     0
  9
$DIMSOXD
 70
     0
  9
$DIMSAH
 70
     0
  9
$DIMBLK1
  1

  9
$DIMBLK2
  1

  9
$DIMSTYLE
  2
TEAM
  9
$DIMCLRD
 70
     9
  9
$DIMCLRE
 70
     9
  9
$DIMCLRT
 70
    11
  9
$DIMTFAC
 40
1.0
  9
$DIMGAP
 40
15.0
  9
$LUNITS
 70
     2
  9
$LUPREC
 70
     1
  9
$SKETCHINC
 40
1.0
  9
$FILLETRAD
 40
300.0
  9
$AUNITS
 70
     0
  9
$AUPREC
 70
     0
  9
$MENU
  1
ROPLANS
  9
$ELEVATION
 40
0.0
  9
$PELEVATION
 40
0.0
  9
$THICKNESS
 40
0.0
  9
$LIMCHECK
 70
     0
  9
$BLIPMODE
 70
     1
  9
$CHAMFERA
 40
0.0
  9
$CHAMFERB
 40
0.0
  9
$SKPOLY
 70
     0
  9
$TDCREATE
 40
2450392.957851
  9
$TDUPDATE
 40
2455843.591272
  9
$TDINDWG
 40
2.850297
  9
$TDUSRTIMER
 40
2.850297
  9
$USRTIMER
 70
     1
  9
$ANGBASE
 50
0.0
  9
$ANGDIR
 70
     0
  9
$PDMODE
 70
     0
  9
$PDSIZE
 40
0.0
  9
$PLINEWID
 40
0.0
  9
$COORDS
 70
     2
  9
$SPLFRAME
 70
     0
  9
$SPLINETYPE
 70
     6
  9
$SPLINESEGS
 70
     8
  9
$ATTDIA
 70
     0
  9
$ATTREQ
 70
     0
  9
$HANDLING
 70
     1
  9
$HANDSEED
  5
438
  9
$SURFTAB1
 70
    64
  9
$SURFTAB2
 70
    64
  9
$SURFTYPE
 70
     6
  9
$SURFU
 70
     6
  9
$SURFV
 70
     6
  9
$UCSNAME
  2

  9
$UCSORG
 10
0.0
 20
0.0
 30
0.0
  9
$UCSXDIR
 10
1.0
 20
0.0
 30
0.0
  9
$UCSYDIR
 10
0.0
 20
1.0
 30
0.0
  9
$PUCSNAME
  2

  9
$PUCSORG
 10
0.0
 20
0.0
 30
0.0
  9
$PUCSXDIR
 10
1.0
 20
0.0
 30
0.0
  9
$PUCSYDIR
 10
0.0
 20
1.0
 30
0.0
  9
$USERI1
 70
     0
  9
$USERI2
 70
     0
  9
$USERI3
 70
     0
  9
$USERI4
 70
     0
  9
$USERI5
 70
     0
  9
$USERR1
 40
0.0
  9
$USERR2
 40
0.0
  9
$USERR3
 40
0.0
  9
$USERR4
 40
0.0
  9
$USERR5
 40
0.0
  9
$WORLDVIEW
 70
     1
  9
$SHADEDGE
 70
     0
  9
$SHADEDIF
 70
    70
  9
$TILEMODE
 70
     1
  9
$MAXACTVP
 70
    16
  9
$PLIMCHECK
 70
     0
  9
$PEXTMIN
 10
-0.805942
 20
0.005011
 30
0.0
  9
$PEXTMAX
 10
20.250094
 20
11.356329
 30
0.0
  9
$PLIMMIN
 10
0.0
 20
0.0
  9
$PLIMMAX
 10
12.0
 20
9.0
  9
$UNITMODE
 70
     0
  9
$VISRETAIN
 70
     0
  9
$PLINEGEN
 70
     0
  9
$PSLTSCALE
 70
     0
  0
ENDSEC
  0
SECTION
  2
TABLES
  0
TABLE
  2
VPORT
 70
     2
  0
VPORT
  2
*ACTIVE
 70
     0
 10
0.0
 20
0.0
 11
1.0
 21
1.0
 12
24.042742
 22
21.428363
 13
0.0
 23
0.0
 14
1.0
 24
1.0
 15
50.0
 25
50.0
 16
0.0
 26
0.0
 36
1.0
 17
0.0
 27
0.0
 37
0.0
 40
1993.296346
 41
1.903766
 42
50.0
 43
0.0
 44
0.0
 50
0.0
 51
0.0
 71
     0
 72
   100
 73
     1
 74
     1
 75
     0
 76
     0
 77
     0
 78
     0
  0
ENDTAB
  0
TABLE
  2
LTYPE
 70
     2
  0
LTYPE
  2
CONTINUOUS
 70
     0
  3
Solid Line
 72
    65
 73
     0
 40
0.0
  0
LTYPE
  2
31
 70
     0
  3

 72
    65
 73
     4
 40
2.1
 49
1.5
 49
-0.3
 49
0.0
 49
-0.3
  0
ENDTAB
  0
TABLE
  2
LAYER
 70
     8
  0
LAYER
  2
0
 70
     0
 62
     7
  6
CONTINUOUS
  0
LAYER
  2
DEFPOINTS
 70
     0
 62
     7
  6
CONTINUOUS
  0
LAYER
  2
TEAM-BODY
 70
     0
 62
     2
  6
CONTINUOUS
  0
LAYER
  2
TEAM-AXE
 70
     0
 62
    10
  6
31
  0
LAYER
  2
TEAM-MAS
 70
     0
 62
     9
  6
CONTINUOUS
  0
LAYER
  2
TEAM-TXT
 70
     0
 62
    11
  6
CONTINUOUS
  0
LAYER
  2
TEAM-DET1
 70
     0
 62
     4
  6
CONTINUOUS
  0
LAYER
  2
TEAM-INSP
 70
     0
 62
     5
  6
CONTINUOUS
  0
ENDTAB
  0
TABLE
  2
STYLE
 70
     2
  0
STYLE
  2
STANDARD
 70
     0
 40
0.0
 41
1.0
 50
0.0
 71
     0
 42
200.0
  3
txt
  4

  0
STYLE
  2
TEAM
 70
     0
 40
0.0
 41
0.8
 50
15.0
 71
     0
 42
7.0
  3
ROMANS.shx
  4

  0
ENDTAB
  0
TABLE
  2
VIEW
 70
     0
  0
ENDTAB
  0
TABLE
  2
UCS
 70
     0
  0
ENDTAB
  0
TABLE
  2
APPID
 70
     1
  0
APPID
  2
ACAD
 70
     0
  0
ENDTAB
  0
TABLE
  2
DIMSTYLE
 70
     1
  0
DIMSTYLE
  2
TEAM
 70
     0
  3

  4

  5

  6

  7

 40
1.0
 41
20.0
 42
10.0
 43
1.0
 44
1.0
 45
0.0
 46
0.0
 47
0.0
 48
0.0
140
35.0
141
1.0
142
0.0
143
25.4
144
1.0
145
0.0
146
1.0
147
15.0
 71
     0
 72
     0
 73
     0
 74
     0
 75
     0
 76
     0
 77
     0
 78
     0
170
     0
171
     2
172
     0
173
     0
174
     0
175
     0
176
     9
177
     9
178
    11
  0
ENDTAB
  0
ENDSEC
  0
SECTION
  2
BLOCKS
  0
BLOCK
  8
0
  2
$MODEL_SPACE
 70
     0
 10
0.0
 20
0.0
 30
0.0
  3
$MODEL_SPACE
  1

  0
ENDBLK
  5
310
  8
0
  0
BLOCK
 67
     1
  8
0
  2
$PAPER_SPACE
 70
     0
 10
0.0
 20
0.0
 30
0.0
  3
$PAPER_SPACE
  1

  0
ENDBLK
  5
30E
 67
     1
  8
0
  0
BLOCK
  8
0
  2
*D0
 70
     1
 10
0.0
 20
0.0
 30
0.0
  3
*D0
  1

  0
LINE
  5
5B
  8
0
  6
BYBLOCK
 62
     9
 10
4873.999324
 20
27666.0
 30
0.0
 11
4873.999324
 21
28919.768371
 31
0.0
  0
LINE
  5
5C
  8
0
  6
BYBLOCK
 62
     9
 10
3126.0
 20
28776.0
 30
0.0
 11
3126.0
 21
28919.768371
 31
0.0
  0
LINE
  5
5D
  8
0
  6
BYBLOCK
 62
     9
 10
4853.999324
 20
28918.768371
 30
0.0
 11
4073.332995
 21
28918.768371
 31
0.0
  0
LINE
  5
5E
  8
0
  6
BYBLOCK
 62
     9
 10
3146.0
 20
28918.768371
 30
0.0
 11
3926.666329
 21
28918.768371
 31
0.0
  0
SOLID
  5
5F
  8
0
  6
BYBLOCK
 62
     9
 10
4853.999324
 20
28922.101705
 30
0.0
 11
4853.999324
 21
28915.435038
 31
0.0
 12
4873.999324
 22
28918.768371
 32
0.0
 13
4873.999324
 23
28918.768371
 33
0.0
  0
SOLID
  5
60
  8
0
  6
BYBLOCK
 62
     9
 10
3146.0
 20
28922.101705
 30
0.0
 11
3146.0
 21
28915.435038
 31
0.0
 12
3126.0
 22
28918.768371
 32
0.0
 13
3126.0
 23
28918.768371
 33
0.0
  0
TEXT
  5
61
  8
0
  6
BYBLOCK
 62
    11
 10
3941.666329
 20
28901.268371
 30
0.0
 40
35.0
  1
1748
  0
POINT
  5
62
  8
DEFPOINTS
  6
BYBLOCK
 62
     0
 10
4873.999324
 20
27656.0
 30
0.0
  0
POINT
  5
63
  8
DEFPOINTS
  6
BYBLOCK
 62
     0
 10
3126.0
 20
28766.0
 30
0.0
  0
POINT
  5
64
  8
DEFPOINTS
  6
BYBLOCK
 62
     0
 10
3126.0
 20
28918.768371
 30
0.0
  0
ENDBLK
  5
66
  8
0
  0
BLOCK
  8
0
  2
*D1
 70
     1
 10
0.0
 20
0.0
 30
0.0
  3
*D1
  1

  0
LINE
  5
22
  8
0
  6
BYBLOCK
 62
     9
 10
3126.0
 20
27116.0
 30
0.0
 11
3126.0
 21
27090.517497
 31
0.0
  0
LINE
  5
23
  8
0
  6
BYBLOCK
 62
     9
 10
4064.0
 20
28054.0
 30
0.0
 11
4064.0
 21
27090.517497
 31
0.0
  0
LINE
  5
24
  8
0
  6
BYBLOCK
 62
     9
 10
3146.0
 20
27091.517497
 30
0.0
 11
3533.333333
 21
27091.517497
 31
0.0
  0
LINE
  5
25
  8
0
  6
BYBLOCK
 62
     9
 10
4044.0
 20
27091.517497
 30
0.0
 11
3656.666667
 21
27091.517497
 31
0.0
  0
SOLID
  5
26
  8
0
  6
BYBLOCK
 62
     9
 10
3146.0
 20
27094.85083
 30
0.0
 11
3146.0
 21
27088.184163
 31
0.0
 12
3126.0
 22
27091.517497
 32
0.0
 13
3126.0
 23
27091.517497
 33
0.0
  0
SOLID
  5
27
  8
0
  6
BYBLOCK
 62
     9
 10
4044.0
 20
27094.85083
 30
0.0
 11
4044.0
 21
27088.184163
 31
0.0
 12
4064.0
 22
27091.517497
 32
0.0
 13
4064.0
 23
27091.517497
 33
0.0
  0
TEXT
  5
28
  8
0
  6
BYBLOCK
 62
    11
 10
3548.333333
 20
27074.017497
 30
0.0
 40
35.0
  1
938
  0
POINT
  5
29
  8
DEFPOINTS
  6
BYBLOCK
 62
     0
 10
3126.0
 20
27126.0
 30
0.0
  0
POINT
  5
2B
  8
DEFPOINTS
  6
BYBLOCK
 62
     0
 10
4064.0
 20
28064.0
 30
0.0
  0
POINT
  5
2C
  8
DEFPOINTS
  6
BYBLOCK
 62
     0
 10
4064.0
 20
27091.517497
 30
0.0
  0
ENDBLK
  5
2E
  8
0
  0
BLOCK
  8
0
  2
*D2
 70
     1
 10
0.0
 20
0.0
 30
0.0
  3
*D2
  1

  0
LINE
  5
31
  8
0
  6
BYBLOCK
 62
     9
 10
3116.0
 20
27126.0
 30
0.0
 11
3088.670509
 21
27126.0
 31
0.0
  0
LINE
  5
32
  8
0
  6
BYBLOCK
 62
     9
 10
4054.0
 20
28064.0
 30
0.0
 11
3088.670509
 21
28064.0
 31
0.0
  0
LINE
  5
33
  8
0
  6
BYBLOCK
 62
     9
 10
3089.670509
 20
27146.0
 30
0.0
 11
3089.670509
 21
27533.333333
 31
0.0
  0
LINE
  5
34
  8
0
  6
BYBLOCK
 62
     9
 10
3089.670509
 20
28044.0
 30
0.0
 11
3089.670509
 21
27656.666667
 31
0.0
  0
SOLID
  5
35
  8
0
  6
BYBLOCK
 62
     9
 10
3086.337176
 20
27146.0
 30
0.0
 11
3093.003842
 21
27146.0
 31
0.0
 12
3089.670509
 22
27126.0
 32
0.0
 13
3089.670509
 23
27126.0
 33
0.0
  0
SOLID
  5
36
  8
0
  6
BYBLOCK
 62
     9
 10
3086.337176
 20
28044.0
 30
0.0
 11
3093.003842
 21
28044.0
 31
0.0
 12
3089.670509
 22
28064.0
 32
0.0
 13
3089.670509
 23
28064.0
 33
0.0
  0
TEXT
  5
37
  8
0
  6
BYBLOCK
 62
    11
 10
3107.170509
 20
27548.333333
 30
0.0
 40
35.0
  1
938
 50
90.0
  0
POINT
  5
38
  8
DEFPOINTS
  6
BYBLOCK
 62
     0
 10
3126.0
 20
27126.0
 30
0.0
  0
POINT
  5
39
  8
DEFPOINTS
  6
BYBLOCK
 62
     0
 10
4064.0
 20
28064.0
 30
0.0
  0
POINT
  5
3A
  8
DEFPOINTS
  6
BYBLOCK
 62
     0
 10
3089.670509
 20
28064.0
 30
0.0
  0
ENDBLK
  5
3C
  8
0
  0
BLOCK
  8
0
  2
*D3
 70
     1
 10
0.0
 20
0.0
 30
0.0
  3
*D3
  1

  0
LINE
  5
7C
  8
0
  6
BYBLOCK
 62
     9
 10
3666.0
 20
28873.999324
 30
0.0
 11
4924.612195
 21
28873.999324
 31
0.0
  0
LINE
  5
7D
  8
0
  6
BYBLOCK
 62
     9
 10
4776.0
 20
27126.0
 30
0.0
 11
4924.612195
 21
27126.0
 31
0.0
  0
LINE
  5
7E
  8
0
  6
BYBLOCK
 62
     9
 10
4923.612195
 20
28853.999324
 30
0.0
 11
4923.612195
 21
28073.332995
 31
0.0
  0
LINE
  5
7F
  8
0
  6
BYBLOCK
 62
     9
 10
4923.612195
 20
27146.0
 30
0.0
 11
4923.612195
 21
27926.666329
 31
0.0
  0
SOLID
  5
80
  8
0
  6
BYBLOCK
 62
     9
 10
4920.278862
 20
28853.999324
 30
0.0
 11
4926.945528
 21
28853.999324
 31
0.0
 12
4923.612195
 22
28873.999324
 32
0.0
 13
4923.612195
 23
28873.999324
 33
0.0
  0
SOLID
  5
81
  8
0
  6
BYBLOCK
 62
     9
 10
4920.278862
 20
27146.0
 30
0.0
 11
4926.945528
 21
27146.0
 31
0.0
 12
4923.612195
 22
27126.0
 32
0.0
 13
4923.612195
 23
27126.0
 33
0.0
  0
TEXT
  5
82
  8
0
  6
BYBLOCK
 62
    11
 10
4941.112195
 20
27941.666329
 30
0.0
 40
35.0
  1
1748
 50
90.0
  0
POINT
  5
83
  8
DEFPOINTS
  6
BYBLOCK
 62
     0
 10
3656.0
 20
28873.999324
 30
0.0
  0
POINT
  5
84
  8
DEFPOINTS
  6
BYBLOCK
 62
     0
 10
4766.0
 20
27126.0
 30
0.0
  0
POINT
  5
85
  8
DEFPOINTS
  6
BYBLOCK
 62
     0
 10
4923.612195
 20
27126.0
 30
0.0
  0
ENDBLK
  5
87
  8
0
  0
BLOCK
  8
0
  2
*D4
 70
     1
 10
0.0
 20
0.0
 30
0.0
  3
*D4
  1

  0
LINE
  5
3F
  8
0
  6
BYBLOCK
 62
     9
 10
3133.071068
 20
27118.928932
 30
0.0
 11
3212.261395
 21
27039.738605
 31
0.0
  0
LINE
  5
40
  8
0
  6
BYBLOCK
 62
     9
 10
4551.527271
 20
28537.385135
 30
0.0
 11
4630.717598
 21
28458.194808
 31
0.0
  0
LINE
  5
41
  8
0
  6
BYBLOCK
 62
     9
 10
3225.696424
 20
27054.587847
 30
0.0
 11
3868.927893
 21
27697.819316
 31
0.0
  0
LINE
  5
42
  8
0
  6
BYBLOCK
 62
     9
 10
4615.868356
 20
28444.759779
 30
0.0
 11
3972.636887
 21
27801.52831
 31
0.0
  0
SOLID
  5
43
  8
0
  6
BYBLOCK
 62
     9
 10
3223.339401
 20
27056.94487
 30
0.0
 11
3228.053447
 21
27052.230825
 31
0.0
 12
3211.554288
 22
27040.445712
 32
0.0
 13
3211.554288
 23
27040.445712
 33
0.0
  0
SOLID
  5
44
  8
0
  6
BYBLOCK
 62
     9
 10
4613.511333
 20
28447.116802
 30
0.0
 11
4618.225378
 21
28442.402756
 31
0.0
 12
4630.010491
 22
28458.901915
 32
0.0
 13
4630.010491
 23
28458.901915
 33
0.0
  0
TEXT
  5
45
  8
0
  6
BYBLOCK
 62
    11
 10
3891.908863
 20
27696.051549
 30
0.0
 40
35.0
  1
2006
 50
45.0
  0
POINT
  5
46
  8
DEFPOINTS
  6
BYBLOCK
 62
     0
 10
3126.0
 20
27126.0
 30
0.0
  0
POINT
  5
47
  8
DEFPOINTS
  6
BYBLOCK
 62
     0
 10
4544.456203
 20
28544.456203
 30
0.0
  0
POINT
  5
48
  8
DEFPOINTS
  6
BYBLOCK
 62
     0
 10
4630.010491
 20
28458.901915
 30
0.0
  0
ENDBLK
  5
4A
  8
0
  0
BLOCK
  8
0
  2
*D5
 70
     1
 10
0.0
 20
0.0
 30
0.0
  3
*D5
  1

  0
LINE
  5
4D
  8
0
  6
BYBLOCK
 62
     9
 10
3126.0
 20
27116.0
 30
0.0
 11
3126.0
 21
27047.592107
 31
0.0
  0
LINE
  5
4E
  8
0
  6
BYBLOCK
 62
     9
 10
4766.0
 20
27116.0
 30
0.0
 11
4766.0
 21
27047.592107
 31
0.0
  0
LINE
  5
4F
  8
0
  6
BYBLOCK
 62
     9
 10
3146.0
 20
27048.592107
 30
0.0
 11
3875.583333
 21
27048.592107
 31
0.0
  0
LINE
  5
50
  8
0
  6
BYBLOCK
 62
     9
 10
4746.0
 20
27048.592107
 30
0.0
 11
4016.416667
 21
27048.592107
 31
0.0
  0
SOLID
  5
51
  8
0
  6
BYBLOCK
 62
     9
 10
3146.0
 20
27051.92544
 30
0.0
 11
3146.0
 21
27045.258773
 31
0.0
 12
3126.0
 22
27048.592107
 32
0.0
 13
3126.0
 23
27048.592107
 33
0.0
  0
SOLID
  5
52
  8
0
  6
BYBLOCK
 62
     9
 10
4746.0
 20
27051.92544
 30
0.0
 11
4746.0
 21
27045.258773
 31
0.0
 12
4766.0
 22
27048.592107
 32
0.0
 13
4766.0
 23
27048.592107
 33
0.0
  0
TEXT
  5
53
  8
0
  6
BYBLOCK
 62
    11
 10
3890.583333
 20
27031.092107
 30
0.0
 40
35.0
  1
1640
  0
POINT
  5
54
  8
DEFPOINTS
  6
BYBLOCK
 62
     0
 10
3126.0
 20
27126.0
 30
0.0
  0
POINT
  5
55
  8
DEFPOINTS
  6
BYBLOCK
 62
     0
 10
4766.0
 20
27126.0
 30
0.0
  0
POINT
  5
56
  8
DEFPOINTS
  6
BYBLOCK
 62
     0
 10
4766.0
 20
27048.592107
 30
0.0
  0
ENDBLK
  5
58
  8
0
  0
ENDSEC
  0
SECTION
  2
ENTITIES
  0
DIMENSION
  5
20
  8
TEAM-MAS
  2
*D1
 10
64.0
 20
-908.482503
 30
0.0
 11
-405.0
 21
-908.482503
 31
0.0
 12
-4000.0
 22
-28000.0
 32
0.0
 13
-874.0
 23
-874.0
 33
0.0
 14
64.0
 24
64.0
 34
0.0
1001
ACAD
1000
DSTYLE
1002
{
1070
    40
1040
1.0
1002
}
  0
DIMENSION
  5
2F
  8
TEAM-MAS
  2
*D2
 10
-910.329491
 20
64.0
 30
0.0
 11
-910.329491
 21
-405.0
 31
0.0
 12
-4000.0
 22
-28000.0
 32
0.0
 13
-874.0
 23
-874.0
 33
0.0
 14
64.0
 24
64.0
 34
0.0
 50
270.0
1001
ACAD
1000
DSTYLE
1002
{
1070
    40
1040
1.0
1002
}
  0
DIMENSION
  5
3D
  8
TEAM-MAS
  2
*D4
 10
630.010491
 20
458.901915
 30
0.0
 11
-79.21761
 21
-250.326187
 31
0.0
 12
-4000.0
 22
-28000.0
 32
0.0
 70
     1
 13
-874.0
 23
-874.0
 33
0.0
 14
544.456203
 24
544.456203
 34
0.0
1001
ACAD
1000
DSTYLE
1002
{
1070
    40
1040
1.0
1002
}
  0
DIMENSION
  5
4B
  8
TEAM-MAS
  2
*D5
 10
766.0
 20
-951.407893
 30
0.0
 11
-54.0
 21
-951.407893
 31
0.0
 12
-4000.0
 22
-28000.0
 32
0.0
 13
-874.0
 23
-874.0
 33
0.0
 14
766.0
 24
-874.0
 34
0.0
1001
ACAD
1000
DSTYLE
1002
{
1070
    40
1040
1.0
1002
}
  0
DIMENSION
  5
59
  8
TEAM-MAS
  2
*D0
 10
-874.0
 20
918.768371
 30
0.0
 11
-0.000338
 21
918.768371
 31
0.0
 12
-4000.0
 22
-28000.0
 32
0.0
 13
873.999324
 23
-344.0
 33
0.0
 14
-874.0
 24
766.0
 34
0.0
1001
ACAD
1000
DSTYLE
1002
{
1070
    40
1040
1.0
1002
}
  0
LINE
  5
67
  8
TEAM-AXE
 10
781.29245
 20
0.0
 30
0.0
 11
-875.0
 21
0.0
 31
0.0
  0
TEXT
  5
6A
  8
TEAM-TXT
 10
-558.121735
 20
589.153454
 30
0.0
 40
30.0
  1
team 121026
 41
0.8
 51
15.0
  7
TEAM
  0
POLYLINE
  5
6D
  8
TEAM-BODY
 66
     1
 10
0.0
 20
0.0
 30
0.0
  0
VERTEX
  5
316
  8
TEAM-BODY
 10
465.786114
 20
465.786114
 30
0.0
 42
-0.109518
  0
VERTEX
  5
317
  8
TEAM-BODY
 10
533.236008
 20
359.910989
 30
0.0
  0
VERTEX
  5
318
  8
TEAM-BODY
 10
740.889446
 20
-210.612144
 30
0.0
 42
-0.520567
  0
VERTEX
  5
319
  8
TEAM-BODY
 10
374.409324
 20
-734.0
 30
0.0
  0
VERTEX
  5
31A
  8
TEAM-BODY
 10
-444.0
 20
-734.0
 30
0.0
 42
-0.198912
  0
VERTEX
  5
31B
  8
TEAM-BODY
 10
-649.060967
 20
-649.060967
 30
0.0
  0
SEQEND
  5
31C
  8
TEAM-BODY
  0
POLYLINE
  5
6F
  8
TEAM-BODY
 66
     1
 10
0.0
 20
0.0
 30
0.0
  0
VERTEX
  5
31D
  8
TEAM-BODY
 10
-705.629509
 20
-705.629509
 30
0.0
 42
0.198912
  0
VERTEX
  5
31E
  8
TEAM-BODY
 10
-444.0
 20
-814.0
 30
0.0
  0
VERTEX
  5
31F
  8
TEAM-BODY
 10
374.409324
 20
-814.0
 30
0.0
 42
0.520567
  0
VERTEX
  5
320
  8
TEAM-BODY
 10
816.064856
 20
-183.250533
 30
0.0
  0
VERTEX
  5
321
  8
TEAM-BODY
 10
608.411417
 20
387.272601
 30
0.0
 42
0.109518
  0
VERTEX
  5
322
  8
TEAM-BODY
 10
522.354657
 20
522.354657
 30
0.0
  0
SEQEND
  5
323
  8
TEAM-BODY
  0
POLYLINE
  5
70
  8
TEAM-BODY
 66
     1
 10
0.0
 20
0.0
 30
0.0
  0
VERTEX
  5
324
  8
TEAM-BODY
 10
540.763318
 20
540.763318
 30
0.0
 42
-0.109518
  0
VERTEX
  5
325
  8
TEAM-BODY
 10
630.308867
 20
400.204963
 30
0.0
  0
VERTEX
  5
326
  8
TEAM-BODY
 10
839.557171
 20
-174.700029
 30
0.0
 42
-0.514448
  0
VERTEX
  5
327
  8
TEAM-BODY
 10
374.409324
 20
-844.0
 30
0.0
  0
VERTEX
  5
328
  8
TEAM-BODY
 10
-444.0
 20
-844.0
 30
0.0
 42
-0.198912
  0
VERTEX
  5
329
  8
TEAM-BODY
 10
-726.842712
 20
-726.842712
 30
0.0
  0
SEQEND
  5
32A
  8
TEAM-BODY
  0
POLYLINE
  5
71
  8
TEAM-BODY
 66
     1
 10
0.0
 20
0.0
 30
0.0
  0
VERTEX
  5
32B
  8
TEAM-BODY
 10
-874.0
 20
-874.0
 30
0.0
  0
VERTEX
  5
32C
  8
TEAM-BODY
 10
766.0
 20
-874.0
 30
0.0
  0
VERTEX
  5
32D
  8
TEAM-BODY
 10
766.0
 20
-654.896675
 30
0.0
 42
0.2607
  0
VERTEX
  5
32E
  8
TEAM-BODY
 10
844.255634
 20
-172.989928
 30
0.0
  0
VERTEX
  5
32F
  8
TEAM-BODY
 10
635.00733
 20
401.915064
 30
0.0
 42
0.109518
  0
VERTEX
  5
330
  8
TEAM-BODY
 10
544.298852
 20
544.298852
 30
0.0
  0
SEQEND
  5
331
  8
TEAM-BODY
  0
POLYLINE
  5
72
  8
TEAM-BODY
 66
     1
 10
0.0
 20
0.0
 30
0.0
  0
VERTEX
  5
332
  8
TEAM-BODY
 10
-325.421356
 20
-325.421356
 30
0.0
 42
-0.198912
  0
VERTEX
  5
333
  8
TEAM-BODY
 10
-384.0
 20
-184.0
 30
0.0
  0
VERTEX
  5
334
  8
TEAM-BODY
 10
-384.0
 20
305.532309
 30
0.0
 42
-0.520567
  0
VERTEX
  5
335
  8
TEAM-BODY
 10
-115.595971
 20
493.470833
 30
0.0
  0
VERTEX
  5
336
  8
TEAM-BODY
 10
243.306515
 20
362.841011
 30
0.0
 42
-0.109518
  0
VERTEX
  5
337
  8
TEAM-BODY
 10
316.323843
 20
316.323843
 30
0.0
  0
SEQEND
  5
338
  8
TEAM-BODY
  0
POLYLINE
  5
73
  8
TEAM-BODY
 66
     1
 10
0.0
 20
0.0
 30
0.0
  0
VERTEX
  5
339
  8
TEAM-BODY
 10
-649.060967
 20
-649.060967
 30
0.0
 42
-0.198912
  0
VERTEX
  5
33A
  8
TEAM-BODY
 10
-734.0
 20
-444.0
 30
0.0
  0
VERTEX
  5
33B
  8
TEAM-BODY
 10
-734.0
 20
374.409324
 30
0.0
 42
-0.520567
  0
VERTEX
  5
33C
  8
TEAM-BODY
 10
-210.612144
 20
740.889446
 30
0.0
  0
VERTEX
  5
33D
  8
TEAM-BODY
 10
359.910989
 20
533.236008
 30
0.0
 42
-0.109518
  0
VERTEX
  5
33E
  8
TEAM-BODY
 10
465.786114
 20
465.786114
 30
0.0
  0
SEQEND
  5
33F
  8
TEAM-BODY
  0
POLYLINE
  5
74
  8
TEAM-BODY
 66
     1
 10
0.0
 20
0.0
 30
0.0
  0
VERTEX
  5
340
  8
TEAM-BODY
 10
522.354657
 20
522.354657
 30
0.0
 42
0.109518
  0
VERTEX
  5
341
  8
TEAM-BODY
 10
387.272601
 20
608.411417
 30
0.0
  0
VERTEX
  5
342
  8
TEAM-BODY
 10
-183.250533
 20
816.064856
 30
0.0
 42
0.520567
  0
VERTEX
  5
343
  8
TEAM-BODY
 10
-814.0
 20
374.409324
 30
0.0
  0
VERTEX
  5
344
  8
TEAM-BODY
 10
-814.0
 20
-444.0
 30
0.0
 42
0.198912
  0
VERTEX
  5
345
  8
TEAM-BODY
 10
-705.629509
 20
-705.629509
 30
0.0
  0
SEQEND
  5
346
  8
TEAM-BODY
  0
POLYLINE
  5
75
  8
TEAM-BODY
 66
     1
 10
0.0
 20
0.0
 30
0.0
  0
VERTEX
  5
347
  8
TEAM-BODY
 10
-726.842712
 20
-726.842712
 30
0.0
 42
-0.198912
  0
VERTEX
  5
348
  8
TEAM-BODY
 10
-844.0
 20
-444.0
 30
0.0
  0
VERTEX
  5
349
  8
TEAM-BODY
 10
-844.0
 20
374.409324
 30
0.0
 42
-0.514448
  0
VERTEX
  5
34A
  8
TEAM-BODY
 10
-174.700029
 20
839.557171
 30
0.0
  0
VERTEX
  5
34B
  8
TEAM-BODY
 10
400.204963
 20
630.308867
 30
0.0
 42
-0.109518
  0
VERTEX
  5
34C
  8
TEAM-BODY
 10
540.763318
 20
540.763318
 30
0.0
  0
SEQEND
  5
34D
  8
TEAM-BODY
  0
POLYLINE
  5
76
  8
TEAM-BODY
 66
     1
 10
0.0
 20
0.0
 30
0.0
  0
VERTEX
  5
34E
  8
TEAM-BODY
 10
544.298852
 20
544.298852
 30
0.0
 42
0.109518
  0
VERTEX
  5
34F
  8
TEAM-BODY
 10
401.915064
 20
635.00733
 30
0.0
  0
VERTEX
  5
350
  8
TEAM-BODY
 10
-172.989928
 20
844.255634
 30
0.0
 42
0.2607
  0
VERTEX
  5
351
  8
TEAM-BODY
 10
-654.896675
 20
766.0
 30
0.0
  0
VERTEX
  5
352
  8
TEAM-BODY
 10
-874.0
 20
766.0
 30
0.0
  0
VERTEX
  5
353
  8
TEAM-BODY
 10
-874.0
 20
-874.0
 30
0.0
  0
SEQEND
  5
354
  8
TEAM-BODY
  0
POLYLINE
  5
77
  8
TEAM-DET1
 66
     1
 10
0.0
 20
0.0
 30
0.0
 70
     1
  0
VERTEX
  5
355
  8
TEAM-DET1
 10
-804.173518
 20
-86.866089
 30
0.0
  0
VERTEX
  5
356
  8
TEAM-DET1
 10
-804.173518
 20
12.60769
 30
0.0
  0
VERTEX
  5
357
  8
TEAM-DET1
 10
-785.667418
 20
12.60769
 30
0.0
  0
VERTEX
  5
358
  8
TEAM-DET1
 10
-785.667418
 20
-86.866089
 30
0.0
  0
SEQEND
  5
359
  8
TEAM-DET1
  0
POLYLINE
  5
79
  8
TEAM-DET1
 66
     1
 10
0.0
 20
0.0
 30
0.0
 70
     1
  0
VERTEX
  5
35A
  8
TEAM-DET1
 10
-794.920468
 20
-63.129199
 30
0.0
  0
VERTEX
  5
35B
  8
TEAM-DET1
 10
-794.02097
 20
-62.809095
 30
0.0
  0
VERTEX
  5
35C
  8
TEAM-DET1
 10
-793.14362
 20
-61.856668
 30
0.0
  0
VERTEX
  5
35D
  8
TEAM-DET1
 10
-792.310022
 20
-60.295368
 30
0.0
  0
VERTEX
  5
35E
  8
TEAM-DET1
 10
-791.540702
 20
-58.16364
 30
0.0
  0
VERTEX
  5
35F
  8
TEAM-DET1
 10
-790.854604
 20
-55.513975
 30
0.0
  0
VERTEX
  5
360
  8
TEAM-DET1
 10
-790.26862
 20
-52.411615
 30
0.0
  0
VERTEX
  5
361
  8
TEAM-DET1
 10
-789.79718
 20
-48.932952
 30
0.0
  0
VERTEX
  5
362
  8
TEAM-DET1
 10
-789.451893
 20
-45.16364
 30
0.0
  0
VERTEX
  5
363
  8
TEAM-DET1
 10
-789.24126
 20
-41.196495
 30
0.0
  0
VERTEX
  5
364
  8
TEAM-DET1
 10
-789.170468
 20
-37.129199
 30
0.0
  0
VERTEX
  5
365
  8
TEAM-DET1
 10
-789.24126
 20
-33.061903
 30
0.0
  0
VERTEX
  5
366
  8
TEAM-DET1
 10
-789.451893
 20
-29.094757
 30
0.0
  0
VERTEX
  5
367
  8
TEAM-DET1
 10
-789.79718
 20
-25.325446
 30
0.0
  0
VERTEX
  5
368
  8
TEAM-DET1
 10
-790.26862
 20
-21.846782
 30
0.0
  0
VERTEX
  5
369
  8
TEAM-DET1
 10
-790.854604
 20
-18.744422
 30
0.0
  0
VERTEX
  5
36A
  8
TEAM-DET1
 10
-791.540702
 20
-16.094757
 30
0.0
  0
VERTEX
  5
36B
  8
TEAM-DET1
 10
-792.310022
 20
-13.963029
 30
0.0
  0
VERTEX
  5
36C
  8
TEAM-DET1
 10
-793.14362
 20
-12.401729
 30
0.0
  0
VERTEX
  5
36D
  8
TEAM-DET1
 10
-794.02097
 20
-11.449302
 30
0.0
  0
VERTEX
  5
36E
  8
TEAM-DET1
 10
-794.920468
 20
-11.129199
 30
0.0
  0
VERTEX
  5
36F
  8
TEAM-DET1
 10
-795.819966
 20
-11.449302
 30
0.0
  0
VERTEX
  5
370
  8
TEAM-DET1
 10
-796.697315
 20
-12.401729
 30
0.0
  0
VERTEX
  5
371
  8
TEAM-DET1
 10
-797.530913
 20
-13.963029
 30
0.0
  0
VERTEX
  5
372
  8
TEAM-DET1
 10
-798.300233
 20
-16.094757
 30
0.0
  0
VERTEX
  5
373
  8
TEAM-DET1
 10
-798.986332
 20
-18.744422
 30
0.0
  0
VERTEX
  5
374
  8
TEAM-DET1
 10
-799.572315
 20
-21.846782
 30
0.0
  0
VERTEX
  5
375
  8
TEAM-DET1
 10
-800.043755
 20
-25.325446
 30
0.0
  0
VERTEX
  5
376
  8
TEAM-DET1
 10
-800.389043
 20
-29.094757
 30
0.0
  0
VERTEX
  5
377
  8
TEAM-DET1
 10
-800.599676
 20
-33.061903
 30
0.0
  0
VERTEX
  5
378
  8
TEAM-DET1
 10
-800.670468
 20
-37.129199
 30
0.0
  0
VERTEX
  5
379
  8
TEAM-DET1
 10
-800.599676
 20
-41.196495
 30
0.0
  0
VERTEX
  5
37A
  8
TEAM-DET1
 10
-800.389043
 20
-45.16364
 30
0.0
  0
VERTEX
  5
37B
  8
TEAM-DET1
 10
-800.043755
 20
-48.932952
 30
0.0
  0
VERTEX
  5
37C
  8
TEAM-DET1
 10
-799.572315
 20
-52.411615
 30
0.0
  0
VERTEX
  5
37D
  8
TEAM-DET1
 10
-798.986332
 20
-55.513975
 30
0.0
  0
VERTEX
  5
37E
  8
TEAM-DET1
 10
-798.300233
 20
-58.16364
 30
0.0
  0
VERTEX
  5
37F
  8
TEAM-DET1
 10
-797.530913
 20
-60.295368
 30
0.0
  0
VERTEX
  5
380
  8
TEAM-DET1
 10
-796.697315
 20
-61.856668
 30
0.0
  0
VERTEX
  5
381
  8
TEAM-DET1
 10
-795.819966
 20
-62.809095
 30
0.0
  0
SEQEND
  5
382
  8
TEAM-DET1
  0
DIMENSION
  5
7A
  8
TEAM-MAS
  2
*D3
 10
923.612195
 20
-874.0
 30
0.0
 11
923.612195
 21
-0.000338
 31
0.0
 12
-4000.0
 22
-28000.0
 32
0.0
 13
-344.0
 23
873.999324
 33
0.0
 14
766.0
 24
-874.0
 34
0.0
 50
270.0
1001
ACAD
1000
DSTYLE
1002
{
1070
    40
1040
1.0
1002
}
  0
POLYLINE
  5
88
  8
TEAM-DET1
 66
     1
 10
0.0
 20
0.0
 30
0.0
 70
     1
  0
VERTEX
  5
383
  8
TEAM-DET1
 10
709.14032
 20
145.978403
 30
0.0
  0
VERTEX
  5
384
  8
TEAM-DET1
 10
763.48859
 20
-3.948752
 30
0.0
  0
VERTEX
  5
385
  8
TEAM-DET1
 10
775.688744
 20
0.473778
 30
0.0
  0
VERTEX
  5
386
  8
TEAM-DET1
 10
721.340474
 20
150.400933
 30
0.0
  0
SEQEND
  5
387
  8
TEAM-DET1
  0
POLYLINE
  5
89
  8
TEAM-DET1
 66
     1
 10
0.0
 20
0.0
 30
0.0
 70
     1
  0
VERTEX
  5
388
  8
TEAM-DET1
 10
696.940167
 20
141.555874
 30
0.0
  0
VERTEX
  5
389
  8
TEAM-DET1
 10
751.288436
 20
-8.371281
 30
0.0
  0
VERTEX
  5
38A
  8
TEAM-DET1
 10
763.48859
 20
-3.948752
 30
0.0
  0
VERTEX
  5
38B
  8
TEAM-DET1
 10
709.14032
 20
145.978403
 30
0.0
  0
SEQEND
  5
38C
  8
TEAM-DET1
  0
POLYLINE
  5
8A
  8
TEAM-DET1
 66
     1
 10
0.0
 20
0.0
 30
0.0
 70
     1
  0
VERTEX
  5
38D
  8
TEAM-DET1
 10
684.740013
 20
137.133345
 30
0.0
  0
VERTEX
  5
38E
  8
TEAM-DET1
 10
739.088283
 20
-12.79381
 30
0.0
  0
VERTEX
  5
38F
  8
TEAM-DET1
 10
751.288436
 20
-8.371281
 30
0.0
  0
VERTEX
  5
390
  8
TEAM-DET1
 10
696.940167
 20
141.555874
 30
0.0
  0
SEQEND
  5
391
  8
TEAM-DET1
  0
POLYLINE
  5
8B
  8
TEAM-DET1
 66
     1
 10
0.0
 20
0.0
 30
0.0
 70
     1
  0
VERTEX
  5
392
  8
TEAM-DET1
 10
672.539859
 20
132.710815
 30
0.0
  0
VERTEX
  5
393
  8
TEAM-DET1
 10
726.888129
 20
-17.21634
 30
0.0
  0
VERTEX
  5
394
  8
TEAM-DET1
 10
739.088283
 20
-12.79381
 30
0.0
  0
VERTEX
  5
395
  8
TEAM-DET1
 10
684.740013
 20
137.133345
 30
0.0
  0
SEQEND
  5
396
  8
TEAM-DET1
  0
POLYLINE
  5
8C
  8
TEAM-DET1
 66
     1
 10
0.0
 20
0.0
 30
0.0
 70
     1
  0
VERTEX
  5
397
  8
TEAM-DET1
 10
660.339706
 20
128.288286
 30
0.0
  0
VERTEX
  5
398
  8
TEAM-DET1
 10
714.687975
 20
-21.638869
 30
0.0
  0
VERTEX
  5
399
  8
TEAM-DET1
 10
726.888129
 20
-17.21634
 30
0.0
  0
VERTEX
  5
39A
  8
TEAM-DET1
 10
672.539859
 20
132.710815
 30
0.0
  0
SEQEND
  5
39B
  8
TEAM-DET1
  0
CIRCLE
  5
8D
  8
TEAM-INSP
 10
0.0
 20
0.0
 30
0.0
 40
10.0
  0
POLYLINE
  5
8F
  8
TEAM-BODY
 66
     1
 10
0.0
 20
0.0
 30
0.0
  0
VERTEX
  5
39C
  8
TEAM-BODY
 10
10.966991
 20
10.966991
 30
0.0
  0
VERTEX
  5
39D
  8
TEAM-BODY
 10
64.0
 20
-42.066017
 30
0.0
  0
VERTEX
  5
39E
  8
TEAM-BODY
 10
170.066017
 20
64.0
 30
0.0
  0
VERTEX
  5
39F
  8
TEAM-BODY
 10
117.033009
 20
117.033009
 30
0.0
  0
SEQEND
  5
3A0
  8
TEAM-BODY
  0
POLYLINE
  5
90
  8
TEAM-BODY
 66
     1
 10
0.0
 20
0.0
 30
0.0
  0
VERTEX
  5
3A1
  8
TEAM-BODY
 10
10.966991
 20
10.966991
 30
0.0
  0
VERTEX
  5
3A2
  8
TEAM-BODY
 10
-42.066017
 20
64.0
 30
0.0
  0
VERTEX
  5
3A3
  8
TEAM-BODY
 10
64.0
 20
170.066017
 30
0.0
  0
VERTEX
  5
3A4
  8
TEAM-BODY
 10
117.033009
 20
117.033009
 30
0.0
  0
SEQEND
  5
3A5
  8
TEAM-BODY
  0
LINE
  5
91
  8
TEAM-AXE
 10
117.033009
 20
117.033009
 30
0.0
 11
10.966991
 21
10.966991
 31
0.0
  0
LINE
  5
92
  8
TEAM-AXE
 10
64.0
 20
-874.0
 30
0.0
 11
64.0
 21
757.998355
 31
0.0
  0
POLYLINE
  5
93
  8
TEAM-BODY
 66
     1
 10
0.0
 20
0.0
 30
0.0
  0
VERTEX
  5
3A6
  8
TEAM-BODY
 10
316.323843
 20
316.323843
 30
0.0
 42
-0.109518
  0
VERTEX
  5
3A7
  8
TEAM-BODY
 10
362.841011
 20
243.306515
 30
0.0
  0
VERTEX
  5
3A8
  8
TEAM-BODY
 10
493.470833
 20
-115.595971
 30
0.0
 42
-0.520567
  0
VERTEX
  5
3A9
  8
TEAM-BODY
 10
305.532309
 20
-384.0
 30
0.0
  0
VERTEX
  5
3AA
  8
TEAM-BODY
 10
-184.0
 20
-384.0
 30
0.0
 42
-0.198912
  0
VERTEX
  5
3AB
  8
TEAM-BODY
 10
-325.421356
 20
-325.421356
 30
0.0
  0
SEQEND
  5
3AC
  8
TEAM-BODY
  0
POLYLINE
  5
94
  8
TEAM-DET1
 66
     1
 10
0.0
 20
0.0
 30
0.0
 70
     1
  0
VERTEX
  5
3AD
  8
TEAM-DET1
 10
-26.200962
 20
-804.173518
 30
0.0
  0
VERTEX
  5
3AE
  8
TEAM-DET1
 10
73.272817
 20
-804.173518
 30
0.0
  0
VERTEX
  5
3AF
  8
TEAM-DET1
 10
73.272817
 20
-785.667418
 30
0.0
  0
VERTEX
  5
3B0
  8
TEAM-DET1
 10
-26.200962
 20
-785.667418
 30
0.0
  0
SEQEND
  5
3B1
  8
TEAM-DET1
  0
POLYLINE
  5
95
  8
TEAM-DET1
 66
     1
 10
0.0
 20
0.0
 30
0.0
 70
     1
  0
VERTEX
  5
3B2
  8
TEAM-DET1
 10
-2.464073
 20
-794.920468
 30
0.0
  0
VERTEX
  5
3B3
  8
TEAM-DET1
 10
-2.143969
 20
-794.02097
 30
0.0
  0
VERTEX
  5
3B4
  8
TEAM-DET1
 10
-1.191542
 20
-793.14362
 30
0.0
  0
VERTEX
  5
3B5
  8
TEAM-DET1
 10
0.369758
 20
-792.310022
 30
0.0
  0
VERTEX
  5
3B6
  8
TEAM-DET1
 10
2.501486
 20
-791.540702
 30
0.0
  0
VERTEX
  5
3B7
  8
TEAM-DET1
 10
5.151151
 20
-790.854604
 30
0.0
  0
VERTEX
  5
3B8
  8
TEAM-DET1
 10
8.253511
 20
-790.26862
 30
0.0
  0
VERTEX
  5
3B9
  8
TEAM-DET1
 10
11.732174
 20
-789.79718
 30
0.0
  0
VERTEX
  5
3BA
  8
TEAM-DET1
 10
15.501486
 20
-789.451893
 30
0.0
  0
VERTEX
  5
3BB
  8
TEAM-DET1
 10
19.468631
 20
-789.24126
 30
0.0
  0
VERTEX
  5
3BC
  8
TEAM-DET1
 10
23.535927
 20
-789.170468
 30
0.0
  0
VERTEX
  5
3BD
  8
TEAM-DET1
 10
27.603223
 20
-789.24126
 30
0.0
  0
VERTEX
  5
3BE
  8
TEAM-DET1
 10
31.570369
 20
-789.451893
 30
0.0
  0
VERTEX
  5
3BF
  8
TEAM-DET1
 10
35.33968
 20
-789.79718
 30
0.0
  0
VERTEX
  5
3C0
  8
TEAM-DET1
 10
38.818344
 20
-790.26862
 30
0.0
  0
VERTEX
  5
3C1
  8
TEAM-DET1
 10
41.920704
 20
-790.854604
 30
0.0
  0
VERTEX
  5
3C2
  8
TEAM-DET1
 10
44.570369
 20
-791.540702
 30
0.0
  0
VERTEX
  5
3C3
  8
TEAM-DET1
 10
46.702097
 20
-792.310022
 30
0.0
  0
VERTEX
  5
3C4
  8
TEAM-DET1
 10
48.263397
 20
-793.14362
 30
0.0
  0
VERTEX
  5
3C5
  8
TEAM-DET1
 10
49.215824
 20
-794.02097
 30
0.0
  0
VERTEX
  5
3C6
  8
TEAM-DET1
 10
49.535927
 20
-794.920468
 30
0.0
  0
VERTEX
  5
3C7
  8
TEAM-DET1
 10
49.215824
 20
-795.819966
 30
0.0
  0
VERTEX
  5
3C8
  8
TEAM-DET1
 10
48.263397
 20
-796.697315
 30
0.0
  0
VERTEX
  5
3C9
  8
TEAM-DET1
 10
46.702097
 20
-797.530913
 30
0.0
  0
VERTEX
  5
3CA
  8
TEAM-DET1
 10
44.570369
 20
-798.300233
 30
0.0
  0
VERTEX
  5
3CB
  8
TEAM-DET1
 10
41.920704
 20
-798.986332
 30
0.0
  0
VERTEX
  5
3CC
  8
TEAM-DET1
 10
38.818344
 20
-799.572315
 30
0.0
  0
VERTEX
  5
3CD
  8
TEAM-DET1
 10
35.33968
 20
-800.043755
 30
0.0
  0
VERTEX
  5
3CE
  8
TEAM-DET1
 10
31.570369
 20
-800.389043
 30
0.0
  0
VERTEX
  5
3CF
  8
TEAM-DET1
 10
27.603223
 20
-800.599676
 30
0.0
  0
VERTEX
  5
3D0
  8
TEAM-DET1
 10
23.535927
 20
-800.670468
 30
0.0
  0
VERTEX
  5
3D1
  8
TEAM-DET1
 10
19.468631
 20
-800.599676
 30
0.0
  0
VERTEX
  5
3D2
  8
TEAM-DET1
 10
15.501486
 20
-800.389043
 30
0.0
  0
VERTEX
  5
3D3
  8
TEAM-DET1
 10
11.732174
 20
-800.043755
 30
0.0
  0
VERTEX
  5
3D4
  8
TEAM-DET1
 10
8.253511
 20
-799.572315
 30
0.0
  0
VERTEX
  5
3D5
  8
TEAM-DET1
 10
5.151151
 20
-798.986332
 30
0.0
  0
VERTEX
  5
3D6
  8
TEAM-DET1
 10
2.501486
 20
-798.300233
 30
0.0
  0
VERTEX
  5
3D7
  8
TEAM-DET1
 10
0.369758
 20
-797.530913
 30
0.0
  0
VERTEX
  5
3D8
  8
TEAM-DET1
 10
-1.191542
 20
-796.697315
 30
0.0
  0
VERTEX
  5
3D9
  8
TEAM-DET1
 10
-2.143969
 20
-795.819966
 30
0.0
  0
SEQEND
  5
3DA
  8
TEAM-DET1
  0
POLYLINE
  5
96
  8
TEAM-DET1
 66
     1
 10
0.0
 20
0.0
 30
0.0
 70
     1
  0
VERTEX
  5
3DB
  8
TEAM-DET1
 10
14.191679
 20
722.165074
 30
0.0
  0
VERTEX
  5
3DC
  8
TEAM-DET1
 10
14.189782
 20
721.210318
 30
0.0
  0
VERTEX
  5
3DD
  8
TEAM-DET1
 10
14.790656
 20
720.06323
 30
0.0
  0
VERTEX
  5
3DE
  8
TEAM-DET1
 10
15.979505
 20
718.752054
 30
0.0
  0
VERTEX
  5
3DF
  8
TEAM-DET1
 10
17.727056
 20
717.309078
 30
0.0
  0
VERTEX
  5
3E0
  8
TEAM-DET1
 10
19.990279
 20
715.769832
 30
0.0
  0
VERTEX
  5
3E1
  8
TEAM-DET1
 10
22.713446
 20
714.172216
 30
0.0
  0
VERTEX
  5
3E2
  8
TEAM-DET1
 10
25.829503
 20
712.55557
 30
0.0
  0
VERTEX
  5
3E3
  8
TEAM-DET1
 10
29.261723
 20
710.959701
 30
0.0
  0
VERTEX
  5
3E4
  8
TEAM-DET1
 10
32.925592
 20
709.423904
 30
0.0
  0
VERTEX
  5
3E5
  8
TEAM-DET1
 10
36.730894
 20
707.985995
 30
0.0
  0
VERTEX
  5
3E6
  8
TEAM-DET1
 10
40.583931
 20
706.681382
 30
0.0
  0
VERTEX
  5
3E7
  8
TEAM-DET1
 10
44.389827
 20
705.542187
 30
0.0
  0
VERTEX
  5
3E8
  8
TEAM-DET1
 10
48.054869
 20
704.596461
 30
0.0
  0
VERTEX
  5
3E9
  8
TEAM-DET1
 10
51.488812
 20
703.867492
 30
0.0
  0
VERTEX
  5
3EA
  8
TEAM-DET1
 10
54.6071
 20
703.373229
 30
0.0
  0
VERTEX
  5
3EB
  8
TEAM-DET1
 10
57.332949
 20
703.125842
 30
0.0
  0
VERTEX
  5
3EC
  8
TEAM-DET1
 10
59.599243
 20
703.131423
 30
0.0
  0
VERTEX
  5
3ED
  8
TEAM-DET1
 10
61.350176
 20
703.389836
 30
0.0
  0
VERTEX
  5
3EE
  8
TEAM-DET1
 10
62.542634
 20
703.894715
 30
0.0
  0
VERTEX
  5
3EF
  8
TEAM-DET1
 10
63.147256
 20
704.63363
 30
0.0
  0
VERTEX
  5
3F0
  8
TEAM-DET1
 10
63.149153
 20
705.588386
 30
0.0
  0
VERTEX
  5
3F1
  8
TEAM-DET1
 10
62.54828
 20
706.735474
 30
0.0
  0
VERTEX
  5
3F2
  8
TEAM-DET1
 10
61.35943
 20
708.046649
 30
0.0
  0
VERTEX
  5
3F3
  8
TEAM-DET1
 10
59.611879
 20
709.489625
 30
0.0
  0
VERTEX
  5
3F4
  8
TEAM-DET1
 10
57.348656
 20
711.028872
 30
0.0
  0
VERTEX
  5
3F5
  8
TEAM-DET1
 10
54.625489
 20
712.626487
 30
0.0
  0
VERTEX
  5
3F6
  8
TEAM-DET1
 10
51.509432
 20
714.243134
 30
0.0
  0
VERTEX
  5
3F7
  8
TEAM-DET1
 10
48.077213
 20
715.839004
 30
0.0
  0
VERTEX
  5
3F8
  8
TEAM-DET1
 10
44.413343
 20
717.374801
 30
0.0
  0
VERTEX
  5
3F9
  8
TEAM-DET1
 10
40.60804
 20
718.812709
 30
0.0
  0
VERTEX
  5
3FA
  8
TEAM-DET1
 10
36.755004
 20
720.117323
 30
0.0
  0
VERTEX
  5
3FB
  8
TEAM-DET1
 10
32.949108
 20
721.256518
 30
0.0
  0
VERTEX
  5
3FC
  8
TEAM-DET1
 10
29.284065
 20
722.202243
 30
0.0
  0
VERTEX
  5
3FD
  8
TEAM-DET1
 10
25.850123
 20
722.931211
 30
0.0
  0
VERTEX
  5
3FE
  8
TEAM-DET1
 10
22.731836
 20
723.425475
 30
0.0
  0
VERTEX
  5
3FF
  8
TEAM-DET1
 10
20.005986
 20
723.672861
 30
0.0
  0
VERTEX
  5
400
  8
TEAM-DET1
 10
17.739693
 20
723.66728
 30
0.0
  0
VERTEX
  5
401
  8
TEAM-DET1
 10
15.988759
 20
723.408868
 30
0.0
  0
VERTEX
  5
402
  8
TEAM-DET1
 10
14.796302
 20
722.903989
 30
0.0
  0
SEQEND
  5
403
  8
TEAM-DET1
  0
POLYLINE
  5
97
  8
TEAM-DET1
 66
     1
 10
0.0
 20
0.0
 30
0.0
 70
     1
  0
VERTEX
  5
404
  8
TEAM-DET1
 10
-5.035894
 20
738.87912
 30
0.0
  0
VERTEX
  5
405
  8
TEAM-DET1
 10
88.614033
 20
705.342216
 30
0.0
  0
VERTEX
  5
406
  8
TEAM-DET1
 10
82.374828
 20
687.919585
 30
0.0
  0
VERTEX
  5
407
  8
TEAM-DET1
 10
-11.275099
 20
721.456489
 30
0.0
  0
SEQEND
  5
408
  8
TEAM-DET1
  0
POLYLINE
  5
98
  8
TEAM-DET1
 66
     1
 10
0.0
 20
0.0
 30
0.0
 70
     1
  0
VERTEX
  5
409
  8
TEAM-DET1
 10
736.181544
 20
18.109482
 30
0.0
  0
VERTEX
  5
40A
  8
TEAM-DET1
 10
702.006991
 20
111.528606
 30
0.0
  0
VERTEX
  5
40B
  8
TEAM-DET1
 10
684.627299
 20
105.170773
 30
0.0
  0
VERTEX
  5
40C
  8
TEAM-DET1
 10
718.801851
 20
11.751649
 30
0.0
  0
SEQEND
  5
40D
  8
TEAM-DET1
  0
POLYLINE
  5
99
  8
TEAM-DET1
 66
     1
 10
0.0
 20
0.0
 30
0.0
 70
     1
  0
VERTEX
  5
40E
  8
TEAM-DET1
 10
719.336809
 20
37.222665
 30
0.0
  0
VERTEX
  5
40F
  8
TEAM-DET1
 10
718.382088
 20
37.21426
 30
0.0
  0
VERTEX
  5
410
  8
TEAM-DET1
 10
717.23093
 20
37.807299
 30
0.0
  0
VERTEX
  5
411
  8
TEAM-DET1
 10
715.91168
 20
38.987182
 30
0.0
  0
VERTEX
  5
412
  8
TEAM-DET1
 10
714.456824
 20
40.724856
 30
0.0
  0
VERTEX
  5
413
  8
TEAM-DET1
 10
712.902185
 20
42.977533
 30
0.0
  0
VERTEX
  5
414
  8
TEAM-DET1
 10
711.286042
 20
45.689746
 30
0.0
  0
VERTEX
  5
415
  8
TEAM-DET1
 10
709.648191
 20
48.794709
 30
0.0
  0
VERTEX
  5
416
  8
TEAM-DET1
 10
708.028961
 20
52.21597
 30
0.0
  0
VERTEX
  5
417
  8
TEAM-DET1
 10
706.468222
 20
55.869284
 30
0.0
  0
VERTEX
  5
418
  8
TEAM-DET1
 10
705.004406
 20
59.664695
 30
0.0
  0
VERTEX
  5
419
  8
TEAM-DET1
 10
703.673555
 20
63.508749
 30
0.0
  0
VERTEX
  5
41A
  8
TEAM-DET1
 10
702.508442
 20
67.306791
 30
0.0
  0
VERTEX
  5
41B
  8
TEAM-DET1
 10
701.537752
 20
70.9653
 30
0.0
  0
VERTEX
  5
41C
  8
TEAM-DET1
 10
700.785391
 20
74.394194
 30
0.0
  0
VERTEX
  5
41D
  8
TEAM-DET1
 10
700.269881
 20
77.509039
 30
0.0
  0
VERTEX
  5
41E
  8
TEAM-DET1
 10
700.003917
 20
80.233139
 30
0.0
  0
VERTEX
  5
41F
  8
TEAM-DET1
 10
699.994049
 20
82.499418
 30
0.0
  0
VERTEX
  5
420
  8
TEAM-DET1
 10
700.240519
 20
84.252072
 30
0.0
  0
VERTEX
  5
421
  8
TEAM-DET1
 10
700.737258
 20
85.447944
 30
0.0
  0
VERTEX
  5
422
  8
TEAM-DET1
 10
701.472033
 20
86.057589
 30
0.0
  0
VERTEX
  5
423
  8
TEAM-DET1
 10
702.426754
 20
86.065995
 30
0.0
  0
VERTEX
  5
424
  8
TEAM-DET1
 10
703.577911
 20
85.472956
 30
0.0
  0
VERTEX
  5
425
  8
TEAM-DET1
 10
704.897161
 20
84.293073
 30
0.0
  0
VERTEX
  5
426
  8
TEAM-DET1
 10
706.352017
 20
82.555399
 30
0.0
  0
VERTEX
  5
427
  8
TEAM-DET1
 10
707.906657
 20
80.302722
 30
0.0
  0
VERTEX
  5
428
  8
TEAM-DET1
 10
709.522799
 20
77.590509
 30
0.0
  0
VERTEX
  5
429
  8
TEAM-DET1
 10
711.160651
 20
74.485546
 30
0.0
  0
VERTEX
  5
42A
  8
TEAM-DET1
 10
712.779882
 20
71.064285
 30
0.0
  0
VERTEX
  5
42B
  8
TEAM-DET1
 10
714.340621
 20
67.410971
 30
0.0
  0
VERTEX
  5
42C
  8
TEAM-DET1
 10
715.804437
 20
63.615559
 30
0.0
  0
VERTEX
  5
42D
  8
TEAM-DET1
 10
717.135287
 20
59.771506
 30
0.0
  0
VERTEX
  5
42E
  8
TEAM-DET1
 10
718.300401
 20
55.973465
 30
0.0
  0
VERTEX
  5
42F
  8
TEAM-DET1
 10
719.271089
 20
52.314954
 30
0.0
  0
VERTEX
  5
430
  8
TEAM-DET1
 10
720.023451
 20
48.886061
 30
0.0
  0
VERTEX
  5
431
  8
TEAM-DET1
 10
720.538961
 20
45.771216
 30
0.0
  0
VERTEX
  5
432
  8
TEAM-DET1
 10
720.804924
 20
43.047116
 30
0.0
  0
VERTEX
  5
433
  8
TEAM-DET1
 10
720.814792
 20
40.780837
 30
0.0
  0
VERTEX
  5
434
  8
TEAM-DET1
 10
720.568323
 20
39.028183
 30
0.0
  0
VERTEX
  5
435
  8
TEAM-DET1
 10
720.071585
 20
37.832311
 30
0.0
  0
SEQEND
  5
436
  8
TEAM-DET1
  0
ENDSEC
  0
EOF
