  0
SECTION
  2
HEADER
  9
$ACADVER
  1
AC1009
  9
$INSBASE
 10
0.0
 20
0.0
 30
0.0
  9
$EXTMIN
 10
-875.292975
 20
-10.052151
 30
0.0
  9
$EXTMAX
 10
989.009172
 20
764.257234
 30
0.000005
  9
$LIMMIN
 10
-875.292975
 20
-10.052151
  9
$LIMMAX
 10
989.009172
 20
764.257234
  9
$ORTHOMODE
 70
     1
  9
$REGENMODE
 70
     1
  9
$FILLMODE
 70
     1
  9
$QTEXTMODE
 70
     0
  9
$MIRRTEXT
 70
     0
  9
$DRAGMODE
 70
     2
  9
$LTSCALE
 40
50.0
  9
$OSMODE
 70
     7
  9
$ATTMODE
 70
     1
  9
$TEXTSIZE
 40
200.0
  9
$TRACEWID
 40
1.0
  9
$TEXTSTYLE
  7
STANDARD
  9
$CLAYER
  8
TEAM-MAS
  9
$CELTYPE
  6
BYLAYER
  9
$CECOLOR
 62
   256
  9
$DIMSCALE
 40
1.0
  9
$DIMASZ
 40
20.0
  9
$DIMEXO
 40
10.0
  9
$DIMDLI
 40
1.0
  9
$DIMRND
 40
0.0
  9
$DIMDLE
 40
0.0
  9
$DIMEXE
 40
1.0
  9
$DIMTP
 40
0.0
  9
$DIMTM
 40
0.0
  9
$DIMTXT
 40
35.0
  9
$DIMCEN
 40
1.0
  9
$DIMTSZ
 40
0.0
  9
$DIMTOL
 70
     0
  9
$DIMLIM
 70
     0
  9
$DIMTIH
 70
     0
  9
$DIMTOH
 70
     0
  9
$DIMSE1
 70
     0
  9
$DIMSE2
 70
     0
  9
$DIMTAD
 70
     0
  9
$DIMZIN
 70
     0
  9
$DIMBLK
  1

  9
$DIMASO
 70
     1
  9
$DIMSHO
 70
     0
  9
$DIMPOST
  1

  9
$DIMAPOST
  1

  9
$DIMALT
 70
     0
  9
$DIMALTD
 70
     2
  9
$DIMALTF
 40
25.4
  9
$DIMLFAC
 40
1.0
  9
$DIMTOFL
 70
     0
  9
$DIMTVP
 40
0.0
  9
$DIMTIX
 70
     0
  9
$DIMSOXD
 70
     0
  9
$DIMSAH
 70
     0
  9
$DIMBLK1
  1

  9
$DIMBLK2
  1

  9
$DIMSTYLE
  2
TEAM
  9
$DIMCLRD
 70
     9
  9
$DIMCLRE
 70
     9
  9
$DIMCLRT
 70
    11
  9
$DIMTFAC
 40
1.0
  9
$DIMGAP
 40
15.0
  9
$LUNITS
 70
     2
  9
$LUPREC
 70
     1
  9
$SKETCHINC
 40
1.0
  9
$FILLETRAD
 40
300.0
  9
$AUNITS
 70
     0
  9
$AUPREC
 70
     0
  9
$MENU
  1
ROPLANS
  9
$ELEVATION
 40
0.0
  9
$PELEVATION
 40
0.0
  9
$THICKNESS
 40
0.0
  9
$LIMCHECK
 70
     0
  9
$BLIPMODE
 70
     1
  9
$CHAMFERA
 40
0.0
  9
$CHAMFERB
 40
0.0
  9
$SKPOLY
 70
     0
  9
$TDCREATE
 40
2450392.957851
  9
$TDUPDATE
 40
2455843.591272
  9
$TDINDWG
 40
2.850297
  9
$TDUSRTIMER
 40
2.850297
  9
$USRTIMER
 70
     1
  9
$ANGBASE
 50
0.0
  9
$ANGDIR
 70
     0
  9
$PDMODE
 70
     0
  9
$PDSIZE
 40
0.0
  9
$PLINEWID
 40
0.0
  9
$COORDS
 70
     2
  9
$SPLFRAME
 70
     0
  9
$SPLINETYPE
 70
     6
  9
$SPLINESEGS
 70
     8
  9
$ATTDIA
 70
     0
  9
$ATTREQ
 70
     0
  9
$HANDLING
 70
     1
  9
$HANDSEED
  5
1C5
  9
$SURFTAB1
 70
    64
  9
$SURFTAB2
 70
    64
  9
$SURFTYPE
 70
     6
  9
$SURFU
 70
     6
  9
$SURFV
 70
     6
  9
$UCSNAME
  2

  9
$UCSORG
 10
0.0
 20
0.0
 30
0.0
  9
$UCSXDIR
 10
1.0
 20
0.0
 30
0.0
  9
$UCSYDIR
 10
0.0
 20
1.0
 30
0.0
  9
$PUCSNAME
  2

  9
$PUCSORG
 10
0.0
 20
0.0
 30
0.0
  9
$PUCSXDIR
 10
1.0
 20
0.0
 30
0.0
  9
$PUCSYDIR
 10
0.0
 20
1.0
 30
0.0
  9
$USERI1
 70
     0
  9
$USERI2
 70
     0
  9
$USERI3
 70
     0
  9
$USERI4
 70
     0
  9
$USERI5
 70
     0
  9
$USERR1
 40
0.0
  9
$USERR2
 40
0.0
  9
$USERR3
 40
0.0
  9
$USERR4
 40
0.0
  9
$USERR5
 40
0.0
  9
$WORLDVIEW
 70
     1
  9
$SHADEDGE
 70
     0
  9
$SHADEDIF
 70
    70
  9
$TILEMODE
 70
     1
  9
$MAXACTVP
 70
    16
  9
$PLIMCHECK
 70
     0
  9
$PEXTMIN
 10
-0.805942
 20
0.005011
 30
0.0
  9
$PEXTMAX
 10
20.250094
 20
11.356329
 30
0.0
  9
$PLIMMIN
 10
0.0
 20
0.0
  9
$PLIMMAX
 10
12.0
 20
9.0
  9
$UNITMODE
 70
     0
  9
$VISRETAIN
 70
     0
  9
$PLINEGEN
 70
     0
  9
$PSLTSCALE
 70
     0
  0
ENDSEC
  0
SECTION
  2
TABLES
  0
TABLE
  2
VPORT
 70
     2
  0
VPORT
  2
*ACTIVE
 70
     0
 10
0.0
 20
0.0
 11
1.0
 21
1.0
 12
56.858099
 22
377.102541
 13
0.0
 23
0.0
 14
1.0
 24
1.0
 15
50.0
 25
50.0
 16
0.0
 26
0.0
 36
1.0
 17
0.0
 27
0.0
 37
0.0
 40
982.49579
 41
1.903766
 42
50.0
 43
0.0
 44
0.0
 50
0.0
 51
0.0
 71
     0
 72
   100
 73
     1
 74
     1
 75
     0
 76
     0
 77
     0
 78
     0
  0
ENDTAB
  0
TABLE
  2
LTYPE
 70
     3
  0
LTYPE
  2
CONTINUOUS
 70
     0
  3
Solid Line
 72
    65
 73
     0
 40
0.0
  0
LTYPE
  2
31
 70
     0
  3

 72
    65
 73
     4
 40
2.1
 49
1.5
 49
-0.3
 49
0.0
 49
-0.3
  0
LTYPE
  2
22
 70
     0
  3

 72
    65
 73
     2
 40
1.4
 49
1.2
 49
-0.2
  0
ENDTAB
  0
TABLE
  2
LAYER
 70
    11
  0
LAYER
  2
0
 70
     0
 62
     7
  6
CONTINUOUS
  0
LAYER
  2
DEFPOINTS
 70
     0
 62
     7
  6
CONTINUOUS
  0
LAYER
  2
TEAM-BODY
 70
     0
 62
     2
  6
CONTINUOUS
  0
LAYER
  2
TEAM-AXE
 70
     0
 62
    10
  6
31
  0
LAYER
  2
TEAM-MAS
 70
     0
 62
     9
  6
CONTINUOUS
  0
LAYER
  2
TEAM-TXT
 70
     0
 62
    11
  6
CONTINUOUS
  0
LAYER
  2
TEAM-DET1
 70
     0
 62
     4
  6
CONTINUOUS
  0
LAYER
  2
TEAM-HIDE
 70
     0
 62
     8
  6
22
  0
LAYER
  2
TEAM-KAN
 70
     0
 62
     6
  6
CONTINUOUS
  0
LAYER
  2
TEAM-DET3
 70
     0
 62
    14
  6
CONTINUOUS
  0
LAYER
  2
TEAM-INSP
 70
     0
 62
     5
  6
CONTINUOUS
  0
ENDTAB
  0
TABLE
  2
STYLE
 70
     2
  0
STYLE
  2
STANDARD
 70
     0
 40
0.0
 41
1.0
 50
0.0
 71
     0
 42
200.0
  3
txt
  4

  0
STYLE
  2
TEAM
 70
     0
 40
0.0
 41
0.8
 50
15.0
 71
     0
 42
7.0
  3
ROMANS.shx
  4

  0
ENDTAB
  0
TABLE
  2
VIEW
 70
     0
  0
ENDTAB
  0
TABLE
  2
UCS
 70
     0
  0
ENDTAB
  0
TABLE
  2
APPID
 70
     1
  0
APPID
  2
ACAD
 70
     0
  0
ENDTAB
  0
TABLE
  2
DIMSTYLE
 70
     1
  0
DIMSTYLE
  2
TEAM
 70
     0
  3

  4

  5

  6

  7

 40
1.0
 41
20.0
 42
10.0
 43
1.0
 44
1.0
 45
0.0
 46
0.0
 47
0.0
 48
0.0
140
35.0
141
1.0
142
0.0
143
25.4
144
1.0
145
0.0
146
1.0
147
15.0
 71
     0
 72
     0
 73
     0
 74
     0
 75
     0
 76
     0
 77
     0
 78
     0
170
     0
171
     2
172
     0
173
     0
174
     0
175
     0
176
     9
177
     9
178
    11
  0
ENDTAB
  0
ENDSEC
  0
SECTION
  2
BLOCKS
  0
BLOCK
  8
0
  2
$MODEL_SPACE
 70
     0
 10
0.0
 20
0.0
 30
0.0
  3
$MODEL_SPACE
  1

  0
ENDBLK
  5
187
  8
0
  0
BLOCK
 67
     1
  8
0
  2
$PAPER_SPACE
 70
     0
 10
0.0
 20
0.0
 30
0.0
  3
$PAPER_SPACE
  1

  0
ENDBLK
  5
185
 67
     1
  8
0
  0
BLOCK
  8
0
  2
*D0
 70
     1
 10
0.0
 20
0.0
 30
0.0
  3
*D0
  1

  0
LINE
  5
22
  8
0
  6
BYBLOCK
 62
     9
 10
7126.000676
 20
28704.0
 30
0.0
 11
7126.000676
 21
28747.75095
 31
0.0
  0
LINE
  5
23
  8
0
  6
BYBLOCK
 62
     9
 10
8874.000676
 20
28704.0
 30
0.0
 11
8874.000676
 21
28747.75095
 31
0.0
  0
LINE
  5
24
  8
0
  6
BYBLOCK
 62
     9
 10
7146.000676
 20
28746.75095
 30
0.0
 11
7926.667343
 21
28746.75095
 31
0.0
  0
LINE
  5
25
  8
0
  6
BYBLOCK
 62
     9
 10
8854.000676
 20
28746.75095
 30
0.0
 11
8073.334009
 21
28746.75095
 31
0.0
  0
TEXT
  5
26
  8
0
  6
BYBLOCK
 62
    11
 10
7941.667343
 20
28729.25095
 30
0.0
 40
35.0
  1
1748
  0
SOLID
  5
27
  8
0
  6
BYBLOCK
 62
     9
 10
7146.000676
 20
28750.084283
 30
0.0
 11
7146.000676
 21
28743.417616
 31
0.0
 12
7126.000676
 22
28746.75095
 32
0.0
 13
7126.000676
 23
28746.75095
 33
0.0
  0
SOLID
  5
28
  8
0
  6
BYBLOCK
 62
     9
 10
8854.000676
 20
28750.084283
 30
0.0
 11
8854.000676
 21
28743.417616
 31
0.0
 12
8874.000676
 22
28746.75095
 32
0.0
 13
8874.000676
 23
28746.75095
 33
0.0
  0
POINT
  5
29
  8
DEFPOINTS
  6
BYBLOCK
 62
     0
 10
7126.000676
 20
28694.0
 30
0.0
  0
POINT
  5
2B
  8
DEFPOINTS
  6
BYBLOCK
 62
     0
 10
8874.000676
 20
28694.0
 30
0.0
  0
POINT
  5
2C
  8
DEFPOINTS
  6
BYBLOCK
 62
     0
 10
8874.000676
 20
28746.75095
 30
0.0
  0
ENDBLK
  5
2E
  8
0
  0
BLOCK
  8
0
  2
*D1
 70
     1
 10
0.0
 20
0.0
 30
0.0
  3
*D1
  1

  0
LINE
  5
55
  8
0
  6
BYBLOCK
 62
     9
 10
7910.0
 20
28182.685052
 30
0.0
 11
7910.0
 21
28154.556898
 31
0.0
  0
LINE
  5
56
  8
0
  6
BYBLOCK
 62
     9
 10
7962.0
 20
28182.685052
 30
0.0
 11
7962.0
 21
28154.556898
 31
0.0
  0
LINE
  5
57
  8
0
  6
BYBLOCK
 62
     9
 10
7890.0
 20
28155.556898
 30
0.0
 11
7870.0
 21
28155.556898
 31
0.0
  0
LINE
  5
58
  8
0
  6
BYBLOCK
 62
     9
 10
7982.0
 20
28155.556898
 30
0.0
 11
8002.0
 21
28155.556898
 31
0.0
  0
TEXT
  5
59
  8
0
  6
BYBLOCK
 62
    11
 10
7771.312095
 20
28138.528811
 30
0.0
 40
35.0
  1
52
  0
LINE
  5
5A
  8
0
  6
BYBLOCK
 62
     9
 10
7910.0
 20
28155.556898
 30
0.0
 11
7962.0
 21
28155.556898
 31
0.0
  0
SOLID
  5
5B
  8
0
  6
BYBLOCK
 62
     9
 10
7890.0
 20
28158.890231
 30
0.0
 11
7890.0
 21
28152.223565
 31
0.0
 12
7910.0
 22
28155.556898
 32
0.0
 13
7910.0
 23
28155.556898
 33
0.0
  0
SOLID
  5
5C
  8
0
  6
BYBLOCK
 62
     9
 10
7982.0
 20
28158.890231
 30
0.0
 11
7982.0
 21
28152.223565
 31
0.0
 12
7962.0
 22
28155.556898
 32
0.0
 13
7962.0
 23
28155.556898
 33
0.0
  0
POINT
  5
5D
  8
DEFPOINTS
  6
BYBLOCK
 62
     0
 10
7910.0
 20
28192.685052
 30
0.0
  0
POINT
  5
5E
  8
DEFPOINTS
  6
BYBLOCK
 62
     0
 10
7962.0
 20
28192.685052
 30
0.0
  0
POINT
  5
5F
  8
DEFPOINTS
  6
BYBLOCK
 62
     0
 10
7962.0
 20
28155.556898
 30
0.0
  0
ENDBLK
  5
61
  8
0
  0
BLOCK
  8
0
  2
*D2
 70
     1
 10
0.0
 20
0.0
 30
0.0
  3
*D2
  1

  0
LINE
  5
31
  8
0
  6
BYBLOCK
 62
     9
 10
8878.000676
 20
28700.0
 30
0.0
 11
8972.491023
 21
28700.0
 31
0.0
  0
LINE
  5
32
  8
0
  6
BYBLOCK
 62
     9
 10
8010.0
 20
28000.0
 30
0.0
 11
8972.491023
 21
28000.0
 31
0.0
  0
LINE
  5
33
  8
0
  6
BYBLOCK
 62
     9
 10
8971.491023
 20
28680.0
 30
0.0
 11
8971.491023
 21
28405.833333
 31
0.0
  0
LINE
  5
34
  8
0
  6
BYBLOCK
 62
     9
 10
8971.491023
 20
28020.0
 30
0.0
 11
8971.491023
 21
28294.166667
 31
0.0
  0
SOLID
  5
35
  8
0
  6
BYBLOCK
 62
     9
 10
8968.15769
 20
28680.0
 30
0.0
 11
8974.824356
 21
28680.0
 31
0.0
 12
8971.491023
 22
28700.0
 32
0.0
 13
8971.491023
 23
28700.0
 33
0.0
  0
SOLID
  5
36
  8
0
  6
BYBLOCK
 62
     9
 10
8968.15769
 20
28020.0
 30
0.0
 11
8974.824356
 21
28020.0
 31
0.0
 12
8971.491023
 22
28000.0
 32
0.0
 13
8971.491023
 23
28000.0
 33
0.0
  0
TEXT
  5
37
  8
0
  6
BYBLOCK
 62
    11
 10
8988.991023
 20
28309.166667
 30
0.0
 40
35.0
  1
700
 50
90.0
  0
POINT
  5
38
  8
DEFPOINTS
  6
BYBLOCK
 62
     0
 10
8868.000676
 20
28700.0
 30
0.0
  0
POINT
  5
39
  8
DEFPOINTS
  6
BYBLOCK
 62
     0
 10
8000.0
 20
28000.0
 30
0.0
  0
POINT
  5
3A
  8
DEFPOINTS
  6
BYBLOCK
 62
     0
 10
8971.491023
 20
28000.0
 30
0.0
  0
ENDBLK
  5
3C
  8
0
  0
BLOCK
  8
0
  2
*D3
 70
     1
 10
0.0
 20
0.0
 30
0.0
  3
*D3
  1

  0
LINE
  5
3F
  8
0
  6
BYBLOCK
 62
     9
 10
8878.000676
 20
28700.0
 30
0.0
 11
8921.544206
 21
28700.0
 31
0.0
  0
LINE
  5
40
  8
0
  6
BYBLOCK
 62
     9
 10
7944.832108
 20
28220.0
 30
0.0
 11
8921.544206
 21
28220.0
 31
0.0
  0
LINE
  5
41
  8
0
  6
BYBLOCK
 62
     9
 10
8920.544206
 20
28680.0
 30
0.0
 11
8920.544206
 21
28518.75
 31
0.0
  0
LINE
  5
42
  8
0
  6
BYBLOCK
 62
     9
 10
8920.544206
 20
28240.0
 30
0.0
 11
8920.544206
 21
28401.25
 31
0.0
  0
SOLID
  5
43
  8
0
  6
BYBLOCK
 62
     9
 10
8917.210872
 20
28680.0
 30
0.0
 11
8923.877539
 21
28680.0
 31
0.0
 12
8920.544206
 22
28700.0
 32
0.0
 13
8920.544206
 23
28700.0
 33
0.0
  0
SOLID
  5
44
  8
0
  6
BYBLOCK
 62
     9
 10
8917.210872
 20
28240.0
 30
0.0
 11
8923.877539
 21
28240.0
 31
0.0
 12
8920.544206
 22
28220.0
 32
0.0
 13
8920.544206
 23
28220.0
 33
0.0
  0
TEXT
  5
45
  8
0
  6
BYBLOCK
 62
    11
 10
8938.044206
 20
28416.25
 30
0.0
 40
35.0
  1
480
 50
90.0
  0
POINT
  5
46
  8
DEFPOINTS
  6
BYBLOCK
 62
     0
 10
8868.000676
 20
28700.0
 30
0.0
  0
POINT
  5
47
  8
DEFPOINTS
  6
BYBLOCK
 62
     0
 10
7934.832108
 20
28220.0
 30
0.0
  0
POINT
  5
48
  8
DEFPOINTS
  6
BYBLOCK
 62
     0
 10
8920.544206
 20
28220.0
 30
0.0
  0
ENDBLK
  5
4A
  8
0
  0
ENDSEC
  0
SECTION
  2
ENTITIES
  0
DIMENSION
  5
20
  8
TEAM-MAS
  2
*D0
 10
874.000676
 20
746.75095
 30
0.0
 11
0.000676
 21
746.75095
 31
0.0
 12
-8000.0
 22
-28000.0
 32
0.0
 70
   128
 13
-873.999324
 23
694.0
 33
0.0
 14
874.000676
 24
694.0
 34
0.0
1001
ACAD
1000
DSTYLE
1002
{
1070
    40
1040
1.0
1002
}
  0
DIMENSION
  5
2F
  8
TEAM-MAS
  2
*D2
 10
971.491023
 20
0.0
 30
0.0
 11
971.491023
 21
350.0
 31
0.0
 12
-8000.0
 22
-28000.0
 32
0.0
 13
868.000676
 23
700.0
 33
0.0
 14
0.0
 24
0.0
 34
0.0
 50
270.0
1001
ACAD
1000
DSTYLE
1002
{
1070
    40
1040
1.0
1002
}
  0
DIMENSION
  5
3D
  8
TEAM-MAS
  2
*D3
 10
920.544206
 20
220.0
 30
0.0
 11
920.544206
 21
460.0
 31
0.0
 12
-8000.0
 22
-28000.0
 32
0.0
 13
868.000676
 23
700.0
 33
0.0
 14
-65.167892
 24
220.0
 34
0.0
 50
270.0
1001
ACAD
1000
DSTYLE
1002
{
1070
    40
1040
1.0
1002
}
  0
POLYLINE
  5
4B
  8
TEAM-HIDE
 66
     1
 10
0.0
 20
0.0
 30
0.0
 70
     1
  0
VERTEX
  5
18D
  8
TEAM-HIDE
 10
-79.736214
 20
651.4939
 30
0.0
  0
VERTEX
  5
18E
  8
TEAM-HIDE
 10
79.737566
 20
651.4939
 30
0.0
  0
VERTEX
  5
18F
  8
TEAM-HIDE
 10
79.737566
 20
700.0
 30
0.0
  0
VERTEX
  5
190
  8
TEAM-HIDE
 10
-79.736214
 20
700.0
 30
0.0
  0
SEQEND
  5
191
  8
TEAM-HIDE
  0
LINE
  5
4E
  8
TEAM-DET1
 10
-744.9052
 20
650.0
 30
0.0
 11
740.058685
 21
650.0
 31
0.0
  0
ARC
  5
50
  8
TEAM-BODY
 10
36.128562
 20
2221.767434
 30
0.0
 40
2000.760283
 50
269.280374
 51
280.908392
  0
LINE
  5
52
  8
TEAM-BODY
 10
868.000676
 20
700.0
 30
0.0
 11
-867.999324
 21
700.0
 31
0.0
  0
DIMENSION
  5
53
  8
TEAM-MAS
  2
*D1
 10
-38.0
 20
155.556898
 30
0.0
 11
-199.521238
 21
156.028811
 31
0.0
 12
-8000.0
 22
-28000.0
 32
0.0
 70
   128
 13
-90.0
 23
192.685052
 33
0.0
 14
-38.0
 24
192.685052
 34
0.0
1001
ACAD
1000
DSTYLE
1002
{
1070
    78
1070
     0
1070
    40
1040
1.0
1002
}
  0
POLYLINE
  5
62
  8
TEAM-HIDE
 66
     1
 10
0.0
 20
0.0
 30
0.0
  0
VERTEX
  5
192
  8
TEAM-HIDE
 10
-316.116137
 20
237.518355
 30
0.0
 42
-0.00232
  0
VERTEX
  5
193
  8
TEAM-HIDE
 10
-404.856268
 20
254.937865
 30
0.0
 42
-0.32235
  0
VERTEX
  5
194
  8
TEAM-HIDE
 10
-485.390098
 20
328.637123
 30
0.0
 42
-0.01683
  0
VERTEX
  5
195
  8
TEAM-HIDE
 10
-607.243216
 20
650.0
 30
0.0
 42
-0.01683
  0
SEQEND
  5
196
  8
TEAM-HIDE
  0
ARC
  5
63
  8
TEAM-BODY
 10
-867.999324
 20
694.0
 30
0.0
 40
6.0
 50
90.0
 51
180.0
  0
ARC
  5
64
  8
TEAM-BODY
 10
-867.999324
 20
656.0
 30
0.0
 40
6.0
 50
180.0
 51
270.0
  0
LINE
  5
65
  8
TEAM-BODY
 10
-873.999324
 20
694.0
 30
0.0
 11
-873.999324
 21
656.0
 31
0.0
  0
LINE
  5
66
  8
TEAM-DET3
 10
-780.310548
 20
530.310401
 30
0.0
 11
-780.310548
 21
520.386136
 31
0.0
  0
LINE
  5
68
  8
TEAM-DET3
 10
-812.310548
 20
530.310401
 30
0.0
 11
-814.310548
 21
532.430297
 31
0.0
  0
LINE
  5
69
  8
TEAM-DET3
 10
-780.310548
 20
530.310401
 30
0.0
 11
-778.310548
 21
532.430297
 31
0.0
  0
LINE
  5
6A
  8
TEAM-DET3
 10
-778.310548
 20
547.761137
 30
0.0
 11
-778.310548
 21
532.430297
 31
0.0
  0
ARC
  5
6B
  8
TEAM-DET3
 10
-812.310548
 20
551.87185
 30
0.0
 40
4.571429
 50
94.660419
 51
244.05552
  0
ARC
  5
6C
  8
TEAM-DET3
 10
-780.310548
 20
551.87185
 30
0.0
 40
4.571429
 50
295.94448
 51
85.339581
  0
LINE
  5
6D
  8
TEAM-DET3
 10
-779.93912
 20
556.957564
 30
0.0
 11
-779.93912
 21
556.428165
 31
0.0
  0
LINE
  5
6E
  8
TEAM-DET3
 10
-780.310548
 20
520.386136
 30
0.0
 11
-812.310548
 21
520.386136
 31
0.0
  0
LINE
  5
6F
  8
TEAM-DET3
 10
-780.310548
 20
530.310401
 30
0.0
 11
-812.310548
 21
530.310401
 31
0.0
  0
LINE
  5
70
  8
TEAM-DET3
 10
-812.310548
 20
530.310401
 30
0.0
 11
-812.310548
 21
520.386136
 31
0.0
  0
LINE
  5
71
  8
TEAM-DET3
 10
-778.310548
 20
532.430297
 30
0.0
 11
-814.310548
 21
532.430297
 31
0.0
  0
LINE
  5
72
  8
TEAM-DET3
 10
-778.310548
 20
547.761137
 30
0.0
 11
-814.310548
 21
547.761137
 31
0.0
  0
LINE
  5
73
  8
TEAM-DET3
 10
-814.310548
 20
547.761137
 30
0.0
 11
-814.310548
 21
532.430297
 31
0.0
  0
LINE
  5
74
  8
TEAM-DET3
 10
-812.681977
 20
556.957564
 30
0.0
 11
-812.681977
 21
556.428165
 31
0.0
  0
LINE
  5
75
  8
TEAM-DET3
 10
-779.93912
 20
556.957564
 30
0.0
 11
-812.681977
 21
556.957564
 31
0.0
  0
LINE
  5
76
  8
TEAM-DET3
 10
-779.93912
 20
556.428165
 30
0.0
 11
-812.681977
 21
556.428165
 31
0.0
  0
LINE
  5
77
  8
TEAM-DET3
 10
-822.528289
 20
619.790231
 30
0.0
 11
-796.310548
 21
619.790231
 31
0.0
  0
LINE
  5
78
  8
TEAM-DET3
 10
-770.092808
 20
619.790231
 30
0.0
 11
-796.310548
 21
619.790231
 31
0.0
  0
POLYLINE
  5
79
  8
TEAM-DET3
 66
     1
 10
0.0
 20
0.0
 30
0.0
 70
     1
  0
VERTEX
  5
197
  8
TEAM-DET3
 10
-811.310548
 20
556.957564
 30
0.0
  0
VERTEX
  5
198
  8
TEAM-DET3
 10
-781.310548
 20
556.957564
 30
0.0
  0
VERTEX
  5
199
  8
TEAM-DET3
 10
-781.310548
 20
616.449455
 30
0.0
  0
VERTEX
  5
19A
  8
TEAM-DET3
 10
-811.310548
 20
616.449455
 30
0.0
  0
SEQEND
  5
19B
  8
TEAM-DET3
  0
LINE
  5
7A
  8
TEAM-DET3
 10
-774.530719
 20
616.449455
 30
0.0
 11
-796.310548
 21
616.449455
 31
0.0
  0
LINE
  5
7B
  8
TEAM-DET3
 10
-818.090378
 20
616.449455
 30
0.0
 11
-796.310548
 21
616.449455
 31
0.0
  0
LINE
  5
7C
  8
TEAM-DET3
 10
-796.310548
 20
610.0
 30
0.0
 11
-787.674892
 21
616.449455
 31
0.0
  0
LINE
  5
7D
  8
TEAM-DET3
 10
-796.310548
 20
610.0
 30
0.0
 11
-804.946204
 21
616.449455
 31
0.0
  0
LINE
  5
7E
  8
TEAM-DET1
 10
-867.999324
 20
650.0
 30
0.0
 11
-836.310548
 21
650.0
 31
0.0
  0
POLYLINE
  5
7F
  8
TEAM-BODY
 66
     1
 10
0.0
 20
0.0
 30
0.0
  0
VERTEX
  5
19C
  8
TEAM-BODY
 10
-756.310548
 20
661.97847
 30
0.0
  0
VERTEX
  5
19D
  8
TEAM-BODY
 10
-756.310548
 20
650.0
 30
0.0
 42
-1.0
  0
VERTEX
  5
19E
  8
TEAM-BODY
 10
-836.310548
 20
650.0
 30
0.0
  0
VERTEX
  5
19F
  8
TEAM-BODY
 10
-836.310548
 20
690.484063
 30
0.0
  0
SEQEND
  5
1A0
  8
TEAM-BODY
  0
ARC
  5
80
  8
TEAM-BODY
 10
-1187.780915
 20
-422.417339
 30
0.0
 40
1167.082238
 50
72.473129
 51
74.097516
  0
LINE
  5
81
  8
TEAM-DET1
 10
-796.310548
 20
610.0
 30
0.0
 11
-710.410325
 21
610.0
 31
0.0
  0
LINE
  5
82
  8
TEAM-AXE
 10
-796.310548
 20
619.790231
 30
0.0
 11
-796.310548
 21
393.939491
 31
0.0
  0
LINE
  5
85
  8
TEAM-DET3
 10
-779.93912
 20
454.176964
 30
0.0
 11
-812.681977
 21
454.176964
 31
0.0
  0
LINE
  5
86
  8
TEAM-DET3
 10
-779.93912
 20
454.706364
 30
0.0
 11
-812.681977
 21
454.706364
 31
0.0
  0
LINE
  5
87
  8
TEAM-DET3
 10
-812.681977
 20
454.706364
 30
0.0
 11
-812.681977
 21
454.176964
 31
0.0
  0
LINE
  5
88
  8
TEAM-DET3
 10
-814.310548
 20
445.509937
 30
0.0
 11
-814.310548
 21
430.179096
 31
0.0
  0
LINE
  5
89
  8
TEAM-DET3
 10
-778.310548
 20
445.509937
 30
0.0
 11
-814.310548
 21
445.509937
 31
0.0
  0
LINE
  5
8A
  8
TEAM-DET3
 10
-778.310548
 20
430.179096
 30
0.0
 11
-814.310548
 21
430.179096
 31
0.0
  0
LINE
  5
8B
  8
TEAM-DET3
 10
-812.310548
 20
428.059201
 30
0.0
 11
-812.310548
 21
418.134935
 31
0.0
  0
LINE
  5
8C
  8
TEAM-DET3
 10
-780.310548
 20
428.059201
 30
0.0
 11
-812.310548
 21
428.059201
 31
0.0
  0
LINE
  5
8D
  8
TEAM-DET3
 10
-780.310548
 20
418.134935
 30
0.0
 11
-812.310548
 21
418.134935
 31
0.0
  0
LINE
  5
8E
  8
TEAM-DET3
 10
-779.93912
 20
454.706364
 30
0.0
 11
-779.93912
 21
454.176964
 31
0.0
  0
ARC
  5
8F
  8
TEAM-DET3
 10
-780.310548
 20
449.62065
 30
0.0
 40
4.571429
 50
295.94448
 51
85.339581
  0
ARC
  5
90
  8
TEAM-DET3
 10
-812.310548
 20
449.62065
 30
0.0
 40
4.571429
 50
94.660419
 51
244.05552
  0
LINE
  5
91
  8
TEAM-DET3
 10
-778.310548
 20
445.509937
 30
0.0
 11
-778.310548
 21
430.179096
 31
0.0
  0
LINE
  5
92
  8
TEAM-DET3
 10
-780.310548
 20
428.059201
 30
0.0
 11
-778.310548
 21
430.179096
 31
0.0
  0
LINE
  5
93
  8
TEAM-DET3
 10
-812.310548
 20
428.059201
 30
0.0
 11
-814.310548
 21
430.179096
 31
0.0
  0
LINE
  5
94
  8
TEAM-DET3
 10
-780.310548
 20
428.059201
 30
0.0
 11
-780.310548
 21
418.134935
 31
0.0
  0
POLYLINE
  5
95
  8
TEAM-DET3
 66
     1
 10
0.0
 20
0.0
 30
0.0
 70
     1
  0
VERTEX
  5
1A1
  8
TEAM-DET3
 10
-811.310548
 20
393.939491
 30
0.0
  0
VERTEX
  5
1A2
  8
TEAM-DET3
 10
-781.310548
 20
393.939491
 30
0.0
  0
VERTEX
  5
1A3
  8
TEAM-DET3
 10
-781.310548
 20
418.134935
 30
0.0
  0
VERTEX
  5
1A4
  8
TEAM-DET3
 10
-811.310548
 20
418.134935
 30
0.0
  0
SEQEND
  5
1A5
  8
TEAM-DET3
  0
POLYLINE
  5
96
  8
TEAM-DET3
 66
     1
 10
0.0
 20
0.0
 30
0.0
 70
     1
  0
VERTEX
  5
1A6
  8
TEAM-DET3
 10
-811.310548
 20
454.706364
 30
0.0
  0
VERTEX
  5
1A7
  8
TEAM-DET3
 10
-781.310548
 20
454.706364
 30
0.0
  0
VERTEX
  5
1A8
  8
TEAM-DET3
 10
-781.310548
 20
520.386136
 30
0.0
  0
VERTEX
  5
1A9
  8
TEAM-DET3
 10
-811.310548
 20
520.386136
 30
0.0
  0
SEQEND
  5
1AA
  8
TEAM-DET3
  0
POLYLINE
  5
97
  8
TEAM-DET1
 66
     1
 10
0.0
 20
0.0
 30
0.0
 70
     1
  0
VERTEX
  5
1AB
  8
TEAM-DET1
 10
39.628728
 20
700.0
 30
0.0
  0
VERTEX
  5
1AC
  8
TEAM-DET1
 10
-39.627376
 20
700.0
 30
0.0
  0
VERTEX
  5
1AD
  8
TEAM-DET1
 10
-39.627376
 20
720.856945
 30
0.0
  0
VERTEX
  5
1AE
  8
TEAM-DET1
 10
39.628728
 20
720.856945
 30
0.0
  0
SEQEND
  5
1AF
  8
TEAM-DET1
  0
CIRCLE
  5
98
  8
TEAM-INSP
 10
0.0
 20
0.0
 30
0.0
 40
10.0
  0
ARC
  5
9A
  8
TEAM-BODY
 10
-867.999324
 20
694.0
 30
0.0
 40
6.0
 50
90.0
 51
180.0
  0
ARC
  5
9B
  8
TEAM-BODY
 10
-867.999324
 20
656.0
 30
0.0
 40
6.0
 50
180.0
 51
270.0
  0
LINE
  5
9C
  8
TEAM-BODY
 10
-873.999324
 20
694.0
 30
0.0
 11
-873.999324
 21
656.0
 31
0.0
  0
ARC
  5
9D
  8
TEAM-BODY
 10
-460.818036
 20
365.389383
 30
0.0
 40
119.991948
 50
200.561396
 51
253.593277
  0
LINE
  5
9E
  8
TEAM-BODY
 10
-494.710244
 20
250.283406
 30
0.0
 11
-139.0
 21
220.0
 31
0.0
  0
ARC
  5
9F
  8
TEAM-BODY
 10
-1260.517924
 20
170.476378
 30
0.0
 40
704.130233
 50
12.530766
 51
44.268944
  0
LINE
  5
A0
  8
TEAM-KAN
 10
-38.0
 20
192.685052
 30
0.0
 11
-90.0
 21
192.685052
 31
0.0
  0
LINE
  5
A2
  8
TEAM-KAN
 10
-38.0
 20
192.685052
 30
0.0
 11
-38.0
 21
196.726504
 31
0.0
  0
LINE
  5
A3
  8
TEAM-AXE
 10
-64.0
 20
177.004764
 30
0.0
 11
-64.0
 21
218.36534
 31
0.0
  0
LINE
  5
A4
  8
TEAM-KAN
 10
-90.0
 20
192.685052
 30
0.0
 11
-90.0
 21
196.726504
 31
0.0
  0
LINE
  5
A5
  8
TEAM-DET1
 10
-90.0
 20
196.726504
 30
0.0
 11
-139.0
 21
220.0
 31
0.0
  0
TEXT
  5
A6
  8
TEAM-TXT
 10
-438.834408
 20
597.75601
 30
0.0
 40
30.0
  1
team 121026
 41
0.8
 51
15.0
  7
TEAM
  0
LINE
  5
A9
  8
TEAM-DET1
 10
-867.999324
 20
650.0
 30
0.0
 11
-836.310548
 21
650.0
 31
0.0
  0
LINE
  5
AA
  8
TEAM-BODY
 10
8.664216
 20
220.0
 30
0.0
 11
-139.0
 21
220.0
 31
0.0
  0
LINE
  5
AB
  8
TEAM-DET1
 10
11.0
 20
221.164958
 30
0.0
 11
-38.0
 21
196.726504
 31
0.0
  0
LINE
  5
AC
  8
TEAM-DET1
 10
836.3119
 20
650.0
 30
0.0
 11
868.000676
 21
650.0
 31
0.0
  0
POLYLINE
  5
AD
  8
TEAM-DET3
 66
     1
 10
0.0
 20
0.0
 30
0.0
 70
     1
  0
VERTEX
  5
1B0
  8
TEAM-DET3
 10
811.3119
 20
454.706364
 30
0.0
  0
VERTEX
  5
1B1
  8
TEAM-DET3
 10
781.3119
 20
454.706364
 30
0.0
  0
VERTEX
  5
1B2
  8
TEAM-DET3
 10
781.3119
 20
520.386136
 30
0.0
  0
VERTEX
  5
1B3
  8
TEAM-DET3
 10
811.3119
 20
520.386136
 30
0.0
  0
SEQEND
  5
1B4
  8
TEAM-DET3
  0
POLYLINE
  5
AE
  8
TEAM-DET3
 66
     1
 10
0.0
 20
0.0
 30
0.0
 70
     1
  0
VERTEX
  5
1B5
  8
TEAM-DET3
 10
811.3119
 20
393.939491
 30
0.0
  0
VERTEX
  5
1B6
  8
TEAM-DET3
 10
781.3119
 20
393.939491
 30
0.0
  0
VERTEX
  5
1B7
  8
TEAM-DET3
 10
781.3119
 20
418.134935
 30
0.0
  0
VERTEX
  5
1B8
  8
TEAM-DET3
 10
811.3119
 20
418.134935
 30
0.0
  0
SEQEND
  5
1B9
  8
TEAM-DET3
  0
LINE
  5
AF
  8
TEAM-DET3
 10
780.3119
 20
428.059201
 30
0.0
 11
780.3119
 21
418.134935
 31
0.0
  0
LINE
  5
B0
  8
TEAM-DET3
 10
812.3119
 20
428.059201
 30
0.0
 11
814.3119
 21
430.179096
 31
0.0
  0
LINE
  5
B1
  8
TEAM-DET3
 10
780.3119
 20
428.059201
 30
0.0
 11
778.3119
 21
430.179096
 31
0.0
  0
LINE
  5
B2
  8
TEAM-DET3
 10
778.3119
 20
445.509937
 30
0.0
 11
778.3119
 21
430.179096
 31
0.0
  0
ARC
  5
B3
  8
TEAM-DET3
 10
812.3119
 20
449.62065
 30
0.0
 40
4.571429
 50
295.94448
 51
85.339581
  0
ARC
  5
B4
  8
TEAM-DET3
 10
780.3119
 20
449.62065
 30
0.0
 40
4.571429
 50
94.660419
 51
244.05552
  0
LINE
  5
B5
  8
TEAM-DET3
 10
779.940472
 20
454.706364
 30
0.0
 11
779.940472
 21
454.176964
 31
0.0
  0
LINE
  5
B6
  8
TEAM-DET3
 10
780.3119
 20
418.134935
 30
0.0
 11
812.3119
 21
418.134935
 31
0.0
  0
LINE
  5
B7
  8
TEAM-DET3
 10
780.3119
 20
428.059201
 30
0.0
 11
812.3119
 21
428.059201
 31
0.0
  0
LINE
  5
B8
  8
TEAM-DET3
 10
812.3119
 20
428.059201
 30
0.0
 11
812.3119
 21
418.134935
 31
0.0
  0
LINE
  5
B9
  8
TEAM-DET3
 10
778.3119
 20
430.179096
 30
0.0
 11
814.3119
 21
430.179096
 31
0.0
  0
LINE
  5
BA
  8
TEAM-DET3
 10
778.3119
 20
445.509937
 30
0.0
 11
814.3119
 21
445.509937
 31
0.0
  0
LINE
  5
BB
  8
TEAM-DET3
 10
814.3119
 20
445.509937
 30
0.0
 11
814.3119
 21
430.179096
 31
0.0
  0
LINE
  5
BC
  8
TEAM-DET3
 10
812.683329
 20
454.706364
 30
0.0
 11
812.683329
 21
454.176964
 31
0.0
  0
LINE
  5
BD
  8
TEAM-DET3
 10
779.940472
 20
454.706364
 30
0.0
 11
812.683329
 21
454.706364
 31
0.0
  0
LINE
  5
BE
  8
TEAM-DET3
 10
779.940472
 20
454.176964
 30
0.0
 11
812.683329
 21
454.176964
 31
0.0
  0
LINE
  5
BF
  8
TEAM-AXE
 10
796.3119
 20
619.790231
 30
0.0
 11
796.3119
 21
393.939491
 31
0.0
  0
LINE
  5
C0
  8
TEAM-DET1
 10
796.3119
 20
610.0
 30
0.0
 11
691.598307
 21
610.0
 31
0.0
  0
ARC
  5
C1
  8
TEAM-BODY
 10
1187.782267
 20
-422.417339
 30
0.0
 40
1167.082238
 50
105.902484
 51
107.526871
  0
POLYLINE
  5
C2
  8
TEAM-BODY
 66
     1
 10
0.0
 20
0.0
 30
0.0
  0
VERTEX
  5
1BA
  8
TEAM-BODY
 10
756.3119
 20
661.97847
 30
0.0
  0
VERTEX
  5
1BB
  8
TEAM-BODY
 10
756.3119
 20
650.0
 30
0.0
 42
1.0
  0
VERTEX
  5
1BC
  8
TEAM-BODY
 10
836.3119
 20
650.0
 30
0.0
  0
VERTEX
  5
1BD
  8
TEAM-BODY
 10
836.3119
 20
690.484063
 30
0.0
  0
SEQEND
  5
1BE
  8
TEAM-BODY
  0
LINE
  5
C3
  8
TEAM-DET1
 10
868.000676
 20
650.0
 30
0.0
 11
836.3119
 21
650.0
 31
0.0
  0
LINE
  5
C4
  8
TEAM-DET3
 10
796.3119
 20
610.0
 30
0.0
 11
804.947557
 21
616.449455
 31
0.0
  0
LINE
  5
C5
  8
TEAM-DET3
 10
796.3119
 20
610.0
 30
0.0
 11
787.676244
 21
616.449455
 31
0.0
  0
LINE
  5
C6
  8
TEAM-DET3
 10
818.09173
 20
616.449455
 30
0.0
 11
796.3119
 21
616.449455
 31
0.0
  0
LINE
  5
C7
  8
TEAM-DET3
 10
774.532071
 20
616.449455
 30
0.0
 11
796.3119
 21
616.449455
 31
0.0
  0
POLYLINE
  5
C8
  8
TEAM-DET3
 66
     1
 10
0.0
 20
0.0
 30
0.0
 70
     1
  0
VERTEX
  5
1BF
  8
TEAM-DET3
 10
811.3119
 20
556.957564
 30
0.0
  0
VERTEX
  5
1C0
  8
TEAM-DET3
 10
781.3119
 20
556.957564
 30
0.0
  0
VERTEX
  5
1C1
  8
TEAM-DET3
 10
781.3119
 20
616.449455
 30
0.0
  0
VERTEX
  5
1C2
  8
TEAM-DET3
 10
811.3119
 20
616.449455
 30
0.0
  0
SEQEND
  5
1C3
  8
TEAM-DET3
  0
LINE
  5
C9
  8
TEAM-DET3
 10
770.09416
 20
619.790231
 30
0.0
 11
796.3119
 21
619.790231
 31
0.0
  0
LINE
  5
CA
  8
TEAM-DET3
 10
822.529641
 20
619.790231
 30
0.0
 11
796.3119
 21
619.790231
 31
0.0
  0
LINE
  5
CB
  8
TEAM-DET3
 10
779.940472
 20
556.428165
 30
0.0
 11
812.683329
 21
556.428165
 31
0.0
  0
LINE
  5
CC
  8
TEAM-DET3
 10
779.940472
 20
556.957564
 30
0.0
 11
812.683329
 21
556.957564
 31
0.0
  0
LINE
  5
CD
  8
TEAM-DET3
 10
812.683329
 20
556.957564
 30
0.0
 11
812.683329
 21
556.428165
 31
0.0
  0
LINE
  5
CE
  8
TEAM-DET3
 10
814.3119
 20
547.761137
 30
0.0
 11
814.3119
 21
532.430297
 31
0.0
  0
LINE
  5
CF
  8
TEAM-DET3
 10
778.3119
 20
547.761137
 30
0.0
 11
814.3119
 21
547.761137
 31
0.0
  0
LINE
  5
D0
  8
TEAM-DET3
 10
778.3119
 20
532.430297
 30
0.0
 11
814.3119
 21
532.430297
 31
0.0
  0
LINE
  5
D1
  8
TEAM-DET3
 10
812.3119
 20
530.310401
 30
0.0
 11
812.3119
 21
520.386136
 31
0.0
  0
LINE
  5
D2
  8
TEAM-DET3
 10
780.3119
 20
530.310401
 30
0.0
 11
812.3119
 21
530.310401
 31
0.0
  0
LINE
  5
D3
  8
TEAM-DET3
 10
780.3119
 20
520.386136
 30
0.0
 11
812.3119
 21
520.386136
 31
0.0
  0
LINE
  5
D4
  8
TEAM-DET3
 10
779.940472
 20
556.957564
 30
0.0
 11
779.940472
 21
556.428165
 31
0.0
  0
ARC
  5
D5
  8
TEAM-DET3
 10
780.3119
 20
551.87185
 30
0.0
 40
4.571429
 50
94.660419
 51
244.05552
  0
ARC
  5
D6
  8
TEAM-DET3
 10
812.3119
 20
551.87185
 30
0.0
 40
4.571429
 50
295.94448
 51
85.339581
  0
LINE
  5
D7
  8
TEAM-DET3
 10
778.3119
 20
547.761137
 30
0.0
 11
778.3119
 21
532.430297
 31
0.0
  0
LINE
  5
D8
  8
TEAM-DET3
 10
780.3119
 20
530.310401
 30
0.0
 11
778.3119
 21
532.430297
 31
0.0
  0
LINE
  5
D9
  8
TEAM-DET3
 10
812.3119
 20
530.310401
 30
0.0
 11
814.3119
 21
532.430297
 31
0.0
  0
LINE
  5
DA
  8
TEAM-DET3
 10
780.3119
 20
530.310401
 30
0.0
 11
780.3119
 21
520.386136
 31
0.0
  0
LINE
  5
DB
  8
TEAM-BODY
 10
874.000676
 20
694.0
 30
0.0
 11
874.000676
 21
656.0
 31
0.0
  0
ARC
  5
DC
  8
TEAM-BODY
 10
868.000676
 20
656.0
 30
0.0
 40
6.0
 50
270.0
 51
0.0
  0
ARC
  5
DD
  8
TEAM-BODY
 10
868.000676
 20
694.0
 30
0.0
 40
6.0
 50
0.0
 51
90.0
  0
LINE
  5
DE
  8
TEAM-BODY
 10
874.000676
 20
694.0
 30
0.0
 11
874.000676
 21
656.0
 31
0.0
  0
ARC
  5
DF
  8
TEAM-BODY
 10
868.000676
 20
656.0
 30
0.0
 40
6.0
 50
270.0
 51
0.0
  0
ARC
  5
E0
  8
TEAM-BODY
 10
868.000676
 20
694.0
 30
0.0
 40
6.0
 50
0.0
 51
90.0
  0
ARC
  5
E1
  8
TEAM-BODY
 10
404.297802
 20
349.9912
 30
0.0
 40
93.47685
 50
276.732193
 51
348.188933
  0
ARC
  5
E2
  8
TEAM-BODY
 10
1196.658186
 20
47.47029
 30
0.0
 40
755.992828
 50
125.624751
 51
157.984636
  0
ENDSEC
  0
EOF
