  0
SECTION
  2
HEADER
  9
$ACADVER
  1
AC1009
  9
$INSBASE
 10
0.0
 20
0.0
 30
0.0
  9
$EXTMIN
 10
-1099.638954
 20
-599.644941
 30
0.0
  9
$EXTMAX
 10
1104.81167
 20
600.173747
 30
0.000005
  9
$LIMMIN
 10
-1099.638954
 20
-599.644941
  9
$LIMMAX
 10
1104.81167
 20
600.173747
  9
$ORTHOMODE
 70
     1
  9
$REGENMODE
 70
     1
  9
$FILLMODE
 70
     1
  9
$QTEXTMODE
 70
     0
  9
$MIRRTEXT
 70
     0
  9
$DRAGMODE
 70
     2
  9
$LTSCALE
 40
50.0
  9
$OSMODE
 70
     7
  9
$ATTMODE
 70
     1
  9
$TEXTSIZE
 40
200.0
  9
$TRACEWID
 40
1.0
  9
$TEXTSTYLE
  7
STANDARD
  9
$CLAYER
  8
TEAM-MAS
  9
$CELTYPE
  6
BYLAYER
  9
$CECOLOR
 62
   256
  9
$DIMSCALE
 40
0.0
  9
$DIMASZ
 40
20.0
  9
$DIMEXO
 40
10.0
  9
$DIMDLI
 40
1.0
  9
$DIMRND
 40
0.0
  9
$DIMDLE
 40
0.0
  9
$DIMEXE
 40
1.0
  9
$DIMTP
 40
0.0
  9
$DIMTM
 40
0.0
  9
$DIMTXT
 40
35.0
  9
$DIMCEN
 40
1.0
  9
$DIMTSZ
 40
0.0
  9
$DIMTOL
 70
     0
  9
$DIMLIM
 70
     0
  9
$DIMTIH
 70
     0
  9
$DIMTOH
 70
     0
  9
$DIMSE1
 70
     0
  9
$DIMSE2
 70
     0
  9
$DIMTAD
 70
     0
  9
$DIMZIN
 70
     0
  9
$DIMBLK
  1

  9
$DIMASO
 70
     1
  9
$DIMSHO
 70
     0
  9
$DIMPOST
  1

  9
$DIMAPOST
  1

  9
$DIMALT
 70
     0
  9
$DIMALTD
 70
     2
  9
$DIMALTF
 40
25.4
  9
$DIMLFAC
 40
1.0
  9
$DIMTOFL
 70
     0
  9
$DIMTVP
 40
0.0
  9
$DIMTIX
 70
     0
  9
$DIMSOXD
 70
     0
  9
$DIMSAH
 70
     0
  9
$DIMBLK1
  1

  9
$DIMBLK2
  1

  9
$DIMSTYLE
  2
TEAM
  9
$DIMCLRD
 70
     9
  9
$DIMCLRE
 70
     9
  9
$DIMCLRT
 70
    11
  9
$DIMTFAC
 40
1.0
  9
$DIMGAP
 40
7.0
  9
$LUNITS
 70
     2
  9
$LUPREC
 70
     1
  9
$SKETCHINC
 40
1.0
  9
$FILLETRAD
 40
9.5
  9
$AUNITS
 70
     0
  9
$AUPREC
 70
     0
  9
$MENU
  1
ROPLANS
  9
$ELEVATION
 40
0.0
  9
$PELEVATION
 40
0.0
  9
$THICKNESS
 40
0.0
  9
$LIMCHECK
 70
     0
  9
$BLIPMODE
 70
     1
  9
$CHAMFERA
 40
0.0
  9
$CHAMFERB
 40
0.0
  9
$SKPOLY
 70
     0
  9
$TDCREATE
 40
2450392.957851
  9
$TDUPDATE
 40
2455944.717343
  9
$TDINDWG
 40
3.569992
  9
$TDUSRTIMER
 40
3.569992
  9
$USRTIMER
 70
     1
  9
$ANGBASE
 50
0.0
  9
$ANGDIR
 70
     0
  9
$PDMODE
 70
     0
  9
$PDSIZE
 40
0.0
  9
$PLINEWID
 40
0.0
  9
$COORDS
 70
     2
  9
$SPLFRAME
 70
     0
  9
$SPLINETYPE
 70
     6
  9
$SPLINESEGS
 70
     8
  9
$ATTDIA
 70
     0
  9
$ATTREQ
 70
     0
  9
$HANDLING
 70
     1
  9
$HANDSEED
  5
2D7
  9
$SURFTAB1
 70
    24
  9
$SURFTAB2
 70
    24
  9
$SURFTYPE
 70
     6
  9
$SURFU
 70
     6
  9
$SURFV
 70
     6
  9
$UCSNAME
  2

  9
$UCSORG
 10
0.0
 20
0.0
 30
0.0
  9
$UCSXDIR
 10
1.0
 20
0.0
 30
0.0
  9
$UCSYDIR
 10
0.0
 20
1.0
 30
0.0
  9
$PUCSNAME
  2

  9
$PUCSORG
 10
0.0
 20
0.0
 30
0.0
  9
$PUCSXDIR
 10
1.0
 20
0.0
 30
0.0
  9
$PUCSYDIR
 10
0.0
 20
1.0
 30
0.0
  9
$USERI1
 70
     0
  9
$USERI2
 70
     0
  9
$USERI3
 70
     0
  9
$USERI4
 70
     0
  9
$USERI5
 70
     0
  9
$USERR1
 40
0.0
  9
$USERR2
 40
0.0
  9
$USERR3
 40
0.0
  9
$USERR4
 40
0.0
  9
$USERR5
 40
0.0
  9
$WORLDVIEW
 70
     1
  9
$SHADEDGE
 70
     0
  9
$SHADEDIF
 70
    70
  9
$TILEMODE
 70
     1
  9
$MAXACTVP
 70
    16
  9
$PLIMCHECK
 70
     0
  9
$PEXTMIN
 10
-0.805942
 20
0.005011
 30
0.0
  9
$PEXTMAX
 10
20.250094
 20
11.356329
 30
0.0
  9
$PLIMMIN
 10
0.0
 20
0.0
  9
$PLIMMAX
 10
12.0
 20
9.0
  9
$UNITMODE
 70
     0
  9
$VISRETAIN
 70
     0
  9
$PLINEGEN
 70
     0
  9
$PSLTSCALE
 70
     0
  0
ENDSEC
  0
SECTION
  2
TABLES
  0
TABLE
  2
VPORT
 70
     2
  0
VPORT
  2
*ACTIVE
 70
     0
 10
0.0
 20
0.0
 11
1.0
 21
1.0
 12
2.586358
 22
0.264403
 13
0.0
 23
0.0
 14
1.0
 24
1.0
 15
50.0
 25
50.0
 16
0.0
 26
0.0
 36
1.0
 17
0.0
 27
0.0
 37
0.0
 40
1207.341062
 41
1.903766
 42
50.0
 43
0.0
 44
0.0
 50
0.0
 51
0.0
 71
     0
 72
   100
 73
     1
 74
     1
 75
     0
 76
     0
 77
     0
 78
     0
  0
ENDTAB
  0
TABLE
  2
LTYPE
 70
     2
  0
LTYPE
  2
CONTINUOUS
 70
     0
  3
Solid Line
 72
    65
 73
     0
 40
0.0
  0
LTYPE
  2
31
 70
     0
  3

 72
    65
 73
     4
 40
2.1
 49
1.5
 49
-0.3
 49
0.0
 49
-0.3
  0
ENDTAB
  0
TABLE
  2
LAYER
 70
     8
  0
LAYER
  2
0
 70
     0
 62
     7
  6
CONTINUOUS
  0
LAYER
  2
DEFPOINTS
 70
     0
 62
     7
  6
CONTINUOUS
  0
LAYER
  2
TEAM-BODY
 70
     0
 62
     2
  6
CONTINUOUS
  0
LAYER
  2
TEAM-AXE
 70
     0
 62
    10
  6
31
  0
LAYER
  2
TEAM-MAS
 70
     0
 62
     9
  6
CONTINUOUS
  0
LAYER
  2
TEAM-TXT
 70
     0
 62
    11
  6
CONTINUOUS
  0
LAYER
  2
TEAM-DET1
 70
     0
 62
     4
  6
CONTINUOUS
  0
LAYER
  2
TEAM-INSP
 70
     0
 62
     5
  6
CONTINUOUS
  0
ENDTAB
  0
TABLE
  2
STYLE
 70
     2
  0
STYLE
  2
STANDARD
 70
     0
 40
0.0
 41
1.0
 50
0.0
 71
     0
 42
200.0
  3
txt
  4

  0
STYLE
  2
TEAM
 70
     0
 40
0.0
 41
0.8
 50
15.0
 71
     0
 42
7.0
  3
ROMANS.shx
  4

  0
ENDTAB
  0
TABLE
  2
VIEW
 70
     0
  0
ENDTAB
  0
TABLE
  2
UCS
 70
     0
  0
ENDTAB
  0
TABLE
  2
APPID
 70
     1
  0
APPID
  2
ACAD
 70
     0
  0
ENDTAB
  0
TABLE
  2
DIMSTYLE
 70
     1
  0
DIMSTYLE
  2
TEAM
 70
     0
  3

  4

  5

  6

  7

 40
0.0
 41
20.0
 42
10.0
 43
1.0
 44
1.0
 45
0.0
 46
0.0
 47
0.0
 48
0.0
140
35.0
141
1.0
142
0.0
143
25.4
144
1.0
145
0.0
146
1.0
147
7.0
 71
     0
 72
     0
 73
     0
 74
     0
 75
     0
 76
     0
 77
     0
 78
     0
170
     0
171
     2
172
     0
173
     0
174
     0
175
     0
176
     9
177
     9
178
    11
  0
ENDTAB
  0
ENDSEC
  0
SECTION
  2
BLOCKS
  0
BLOCK
  8
0
  2
$MODEL_SPACE
 70
     0
 10
0.0
 20
0.0
 30
0.0
  3
$MODEL_SPACE
  1

  0
ENDBLK
  5
219
  8
0
  0
BLOCK
 67
     1
  8
0
  2
$PAPER_SPACE
 70
     0
 10
0.0
 20
0.0
 30
0.0
  3
$PAPER_SPACE
  1

  0
ENDBLK
  5
217
 67
     1
  8
0
  0
BLOCK
  8
0
  2
*D0
 70
     1
 10
0.0
 20
0.0
 30
0.0
  3
*D0
  1

  0
LINE
  5
22
  8
0
  6
BYBLOCK
 62
     9
 10
1037.5
 20
247.5
 30
0.0
 11
1037.5
 21
583.613338
 31
0.0
  0
LINE
  5
23
  8
0
  6
BYBLOCK
 62
     9
 10
-1037.5
 20
247.5
 30
0.0
 11
-1037.5
 21
583.613338
 31
0.0
  0
LINE
  5
24
  8
0
  6
BYBLOCK
 62
     9
 10
1017.5
 20
582.613338
 30
0.0
 11
68.25
 21
582.613338
 31
0.0
  0
LINE
  5
25
  8
0
  6
BYBLOCK
 62
     9
 10
-1017.5
 20
582.613338
 30
0.0
 11
-68.25
 21
582.613338
 31
0.0
  0
SOLID
  5
26
  8
0
  6
BYBLOCK
 62
     9
 10
1017.5
 20
585.946672
 30
0.0
 11
1017.5
 21
579.280005
 31
0.0
 12
1037.5
 22
582.613338
 32
0.0
 13
1037.5
 23
582.613338
 33
0.0
  0
SOLID
  5
27
  8
0
  6
BYBLOCK
 62
     9
 10
-1017.5
 20
585.946672
 30
0.0
 11
-1017.5
 21
579.280005
 31
0.0
 12
-1037.5
 22
582.613338
 32
0.0
 13
-1037.5
 23
582.613338
 33
0.0
  0
TEXT
  5
28
  8
0
  6
BYBLOCK
 62
    11
 10
-61.25
 20
565.113338
 30
0.0
 40
35.0
  1
2075
  0
POINT
  5
29
  8
DEFPOINTS
  6
BYBLOCK
 62
     0
 10
1037.5
 20
237.5
 30
0.0
  0
POINT
  5
2B
  8
DEFPOINTS
  6
BYBLOCK
 62
     0
 10
-1037.5
 20
237.5
 30
0.0
  0
POINT
  5
2C
  8
DEFPOINTS
  6
BYBLOCK
 62
     0
 10
-1037.5
 20
582.613338
 30
0.0
  0
ENDBLK
  5
2E
  8
0
  0
BLOCK
  8
0
  2
*D1
 70
     1
 10
0.0
 20
0.0
 30
0.0
  3
*D1
  1

  0
LINE
  5
4C
  8
0
  6
BYBLOCK
 62
     9
 10
-1037.5
 20
-247.5
 30
0.0
 11
-1037.5
 21
-572.982503
 31
0.0
  0
LINE
  5
4D
  8
0
  6
BYBLOCK
 62
     9
 10
119.5
 20
-170.5
 30
0.0
 11
119.5
 21
-572.982503
 31
0.0
  0
LINE
  5
4E
  8
0
  6
BYBLOCK
 62
     9
 10
-1017.5
 20
-571.982503
 30
0.0
 11
-541.833333
 21
-571.982503
 31
0.0
  0
LINE
  5
4F
  8
0
  6
BYBLOCK
 62
     9
 10
99.5
 20
-571.982503
 30
0.0
 11
-376.166667
 21
-571.982503
 31
0.0
  0
SOLID
  5
50
  8
0
  6
BYBLOCK
 62
     9
 10
-1017.5
 20
-568.64917
 30
0.0
 11
-1017.5
 21
-575.315837
 31
0.0
 12
-1037.5
 22
-571.982503
 32
0.0
 13
-1037.5
 23
-571.982503
 33
0.0
  0
SOLID
  5
51
  8
0
  6
BYBLOCK
 62
     9
 10
99.5
 20
-568.64917
 30
0.0
 11
99.5
 21
-575.315837
 31
0.0
 12
119.5
 22
-571.982503
 32
0.0
 13
119.5
 23
-571.982503
 33
0.0
  0
TEXT
  5
52
  8
0
  6
BYBLOCK
 62
    11
 10
-534.833333
 20
-589.482503
 30
0.0
 40
35.0
  1
1157.5
  0
POINT
  5
53
  8
DEFPOINTS
  6
BYBLOCK
 62
     0
 10
-1037.5
 20
-237.5
 30
0.0
  0
POINT
  5
54
  8
DEFPOINTS
  6
BYBLOCK
 62
     0
 10
119.5
 20
-160.5
 30
0.0
  0
POINT
  5
55
  8
DEFPOINTS
  6
BYBLOCK
 62
     0
 10
119.5
 20
-571.982503
 30
0.0
  0
ENDBLK
  5
57
  8
0
  0
BLOCK
  8
0
  2
*D2
 70
     1
 10
0.0
 20
0.0
 30
0.0
  3
*D2
  1

  0
LINE
  5
3E
  8
0
  6
BYBLOCK
 62
     9
 10
-747.5
 20
-537.5
 30
0.0
 11
-1074.829491
 21
-537.5
 31
0.0
  0
LINE
  5
3F
  8
0
  6
BYBLOCK
 62
     9
 10
109.5
 20
-160.5
 30
0.0
 11
-1074.829491
 21
-160.5
 31
0.0
  0
LINE
  5
40
  8
0
  6
BYBLOCK
 62
     9
 10
-1073.829491
 20
-517.5
 30
0.0
 11
-1073.829491
 21
-426.0
 31
0.0
  0
LINE
  5
41
  8
0
  6
BYBLOCK
 62
     9
 10
-1073.829491
 20
-180.5
 30
0.0
 11
-1073.829491
 21
-272.0
 31
0.0
  0
SOLID
  5
42
  8
0
  6
BYBLOCK
 62
     9
 10
-1077.162824
 20
-517.5
 30
0.0
 11
-1070.496158
 21
-517.5
 31
0.0
 12
-1073.829491
 22
-537.5
 32
0.0
 13
-1073.829491
 23
-537.5
 33
0.0
  0
SOLID
  5
43
  8
0
  6
BYBLOCK
 62
     9
 10
-1077.162824
 20
-180.5
 30
0.0
 11
-1070.496158
 21
-180.5
 31
0.0
 12
-1073.829491
 22
-160.5
 32
0.0
 13
-1073.829491
 23
-160.5
 33
0.0
  0
TEXT
  5
44
  8
0
  6
BYBLOCK
 62
    11
 10
-1056.329491
 20
-419.0
 30
0.0
 40
35.0
  1
377.5
 50
90.0
  0
POINT
  5
45
  8
DEFPOINTS
  6
BYBLOCK
 62
     0
 10
-737.5
 20
-537.5
 30
0.0
  0
POINT
  5
46
  8
DEFPOINTS
  6
BYBLOCK
 62
     0
 10
119.5
 20
-160.5
 30
0.0
  0
POINT
  5
47
  8
DEFPOINTS
  6
BYBLOCK
 62
     0
 10
-1073.829491
 20
-160.5
 30
0.0
  0
ENDBLK
  5
49
  8
0
  0
BLOCK
  8
0
  2
*D3
 70
     1
 10
0.0
 20
0.0
 30
0.0
  3
*D3
  1

  0
LINE
  5
6B
  8
0
  6
BYBLOCK
 62
     9
 10
747.5
 20
537.5
 30
0.0
 11
1088.15329
 21
537.5
 31
0.0
  0
LINE
  5
6C
  8
0
  6
BYBLOCK
 62
     9
 10
747.5
 20
-537.5
 30
0.0
 11
1088.15329
 21
-537.5
 31
0.0
  0
LINE
  5
6D
  8
0
  6
BYBLOCK
 62
     9
 10
1087.15329
 20
517.5
 30
0.0
 11
1087.15329
 21
62.416667
 31
0.0
  0
LINE
  5
6E
  8
0
  6
BYBLOCK
 62
     9
 10
1087.15329
 20
-517.5
 30
0.0
 11
1087.15329
 21
-62.416667
 31
0.0
  0
SOLID
  5
6F
  8
0
  6
BYBLOCK
 62
     9
 10
1083.819957
 20
517.5
 30
0.0
 11
1090.486624
 21
517.5
 31
0.0
 12
1087.15329
 22
537.5
 32
0.0
 13
1087.15329
 23
537.5
 33
0.0
  0
SOLID
  5
70
  8
0
  6
BYBLOCK
 62
     9
 10
1083.819957
 20
-517.5
 30
0.0
 11
1090.486624
 21
-517.5
 31
0.0
 12
1087.15329
 22
-537.5
 32
0.0
 13
1087.15329
 23
-537.5
 33
0.0
  0
TEXT
  5
71
  8
0
  6
BYBLOCK
 62
    11
 10
1104.65329
 20
-55.416667
 30
0.0
 40
35.0
  1
1075
 50
90.0
  0
POINT
  5
72
  8
DEFPOINTS
  6
BYBLOCK
 62
     0
 10
737.5
 20
537.5
 30
0.0
  0
POINT
  5
73
  8
DEFPOINTS
  6
BYBLOCK
 62
     0
 10
737.5
 20
-537.5
 30
0.0
  0
POINT
  5
74
  8
DEFPOINTS
  6
BYBLOCK
 62
     0
 10
1087.15329
 20
-537.5
 30
0.0
  0
ENDBLK
  5
76
  8
0
  0
ENDSEC
  0
SECTION
  2
ENTITIES
  0
DIMENSION
  5
20
  8
TEAM-MAS
  2
*D0
 10
-1037.5
 20
582.613338
 30
0.0
 11
0.0
 21
582.613338
 31
0.0
 13
1037.5
 23
237.5
 33
0.0
 14
-1037.5
 24
237.5
 34
0.0
1001
ACAD
1000
DSTYLE
1002
{
1070
    40
1040
1.0
1002
}
  0
POLYLINE
  5
2F
  8
TEAM-BODY
 66
     1
 10
0.0
 20
0.0
 30
0.0
  0
VERTEX
  5
21F
  8
TEAM-BODY
 10
597.5
 20
0.0
 30
0.0
  0
VERTEX
  5
220
  8
TEAM-BODY
 10
597.5
 20
197.5
 30
0.0
 42
0.457422
  0
VERTEX
  5
221
  8
TEAM-BODY
 10
547.5
 20
237.5
 30
0.0
  0
VERTEX
  5
222
  8
TEAM-BODY
 10
-347.5
 20
237.5
 30
0.0
 42
0.457422
  0
VERTEX
  5
223
  8
TEAM-BODY
 10
-397.5
 20
197.5
 30
0.0
  0
VERTEX
  5
224
  8
TEAM-BODY
 10
-397.5
 20
0.0
 30
0.0
  0
SEQEND
  5
225
  8
TEAM-BODY
  0
POLYLINE
  5
31
  8
TEAM-BODY
 66
     1
 10
0.0
 20
0.0
 30
0.0
  0
VERTEX
  5
226
  8
TEAM-BODY
 10
917.5
 20
0.0
 30
0.0
  0
VERTEX
  5
227
  8
TEAM-BODY
 10
917.5
 20
257.5
 30
0.0
 42
0.414214
  0
VERTEX
  5
228
  8
TEAM-BODY
 10
757.5
 20
417.5
 30
0.0
  0
VERTEX
  5
229
  8
TEAM-BODY
 10
-757.5
 20
417.5
 30
0.0
 42
0.414214
  0
VERTEX
  5
22A
  8
TEAM-BODY
 10
-917.5
 20
257.5
 30
0.0
  0
VERTEX
  5
22B
  8
TEAM-BODY
 10
-917.5
 20
0.0
 30
0.0
  0
SEQEND
  5
22C
  8
TEAM-BODY
  0
POLYLINE
  5
32
  8
TEAM-BODY
 66
     1
 10
0.0
 20
0.0
 30
0.0
  0
VERTEX
  5
22D
  8
TEAM-BODY
 10
1037.5
 20
0.0
 30
0.0
  0
VERTEX
  5
22E
  8
TEAM-BODY
 10
1037.5
 20
237.5
 30
0.0
 42
0.414214
  0
VERTEX
  5
22F
  8
TEAM-BODY
 10
737.5
 20
537.5
 30
0.0
  0
VERTEX
  5
230
  8
TEAM-BODY
 10
-737.5
 20
537.5
 30
0.0
 42
0.414214
  0
VERTEX
  5
231
  8
TEAM-BODY
 10
-1037.5
 20
237.5
 30
0.0
  0
VERTEX
  5
232
  8
TEAM-BODY
 10
-1037.5
 20
0.0
 30
0.0
  0
SEQEND
  5
233
  8
TEAM-BODY
  0
POLYLINE
  5
33
  8
TEAM-BODY
 66
     1
 10
0.0
 20
0.0
 30
0.0
  0
VERTEX
  5
234
  8
TEAM-BODY
 10
997.5
 20
0.0
 30
0.0
  0
VERTEX
  5
235
  8
TEAM-BODY
 10
997.5
 20
237.5
 30
0.0
 42
0.414214
  0
VERTEX
  5
236
  8
TEAM-BODY
 10
737.5
 20
497.5
 30
0.0
  0
VERTEX
  5
237
  8
TEAM-BODY
 10
-737.5
 20
497.5
 30
0.0
 42
0.414214
  0
VERTEX
  5
238
  8
TEAM-BODY
 10
-997.5
 20
237.5
 30
0.0
  0
VERTEX
  5
239
  8
TEAM-BODY
 10
-997.5
 20
0.0
 30
0.0
  0
SEQEND
  5
23A
  8
TEAM-BODY
  0
POLYLINE
  5
34
  8
TEAM-BODY
 66
     1
 10
0.0
 20
0.0
 30
0.0
  0
VERTEX
  5
23B
  8
TEAM-BODY
 10
-917.5
 20
0.0
 30
0.0
  0
VERTEX
  5
23C
  8
TEAM-BODY
 10
-917.5
 20
-267.5
 30
0.0
 42
0.427353
  0
VERTEX
  5
23D
  8
TEAM-BODY
 10
-757.5
 20
-417.5
 30
0.0
  0
VERTEX
  5
23E
  8
TEAM-BODY
 10
757.5
 20
-417.5
 30
0.0
 42
0.427353
  0
VERTEX
  5
23F
  8
TEAM-BODY
 10
917.5
 20
-267.5
 30
0.0
  0
VERTEX
  5
240
  8
TEAM-BODY
 10
917.5
 20
0.0
 30
0.0
  0
SEQEND
  5
241
  8
TEAM-BODY
  0
POLYLINE
  5
35
  8
TEAM-BODY
 66
     1
 10
0.0
 20
0.0
 30
0.0
  0
VERTEX
  5
242
  8
TEAM-BODY
 10
-997.5
 20
0.0
 30
0.0
  0
VERTEX
  5
243
  8
TEAM-BODY
 10
-997.5
 20
-237.5
 30
0.0
 42
0.414214
  0
VERTEX
  5
244
  8
TEAM-BODY
 10
-737.5
 20
-497.5
 30
0.0
  0
VERTEX
  5
245
  8
TEAM-BODY
 10
737.5
 20
-497.5
 30
0.0
 42
0.414214
  0
VERTEX
  5
246
  8
TEAM-BODY
 10
997.5
 20
-237.5
 30
0.0
  0
VERTEX
  5
247
  8
TEAM-BODY
 10
997.5
 20
0.0
 30
0.0
  0
SEQEND
  5
248
  8
TEAM-BODY
  0
LINE
  5
36
  8
TEAM-AXE
 10
1037.5
 20
0.0
 30
0.0
 11
-1037.5
 21
0.0
 31
0.0
  0
POLYLINE
  5
39
  8
TEAM-BODY
 66
     1
 10
0.0
 20
0.0
 30
0.0
  0
VERTEX
  5
249
  8
TEAM-BODY
 10
-1037.5
 20
0.0
 30
0.0
  0
VERTEX
  5
24A
  8
TEAM-BODY
 10
-1037.5
 20
-237.5
 30
0.0
 42
0.414214
  0
VERTEX
  5
24B
  8
TEAM-BODY
 10
-737.5
 20
-537.5
 30
0.0
  0
VERTEX
  5
24C
  8
TEAM-BODY
 10
737.5
 20
-537.5
 30
0.0
 42
0.414214
  0
VERTEX
  5
24D
  8
TEAM-BODY
 10
1037.5
 20
-237.5
 30
0.0
  0
VERTEX
  5
24E
  8
TEAM-BODY
 10
1037.5
 20
0.0
 30
0.0
  0
SEQEND
  5
24F
  8
TEAM-BODY
  0
POLYLINE
  5
3A
  8
TEAM-BODY
 66
     1
 10
0.0
 20
0.0
 30
0.0
  0
VERTEX
  5
250
  8
TEAM-BODY
 10
-397.5
 20
0.0
 30
0.0
  0
VERTEX
  5
251
  8
TEAM-BODY
 10
-397.5
 20
-197.5
 30
0.0
 42
0.414214
  0
VERTEX
  5
252
  8
TEAM-BODY
 10
-347.5
 20
-247.5
 30
0.0
  0
VERTEX
  5
253
  8
TEAM-BODY
 10
547.5
 20
-247.5
 30
0.0
 42
0.414214
  0
VERTEX
  5
254
  8
TEAM-BODY
 10
597.5
 20
-197.5
 30
0.0
  0
VERTEX
  5
255
  8
TEAM-BODY
 10
597.5
 20
0.0
 30
0.0
  0
SEQEND
  5
256
  8
TEAM-BODY
  0
LINE
  5
3B
  8
TEAM-AXE
 10
0.0
 20
-537.5
 30
0.0
 11
0.0
 21
537.5
 31
0.0
  0
DIMENSION
  5
3C
  8
TEAM-MAS
  2
*D2
 10
-1073.829491
 20
-160.5
 30
0.0
 11
-1073.829491
 21
-349.0
 31
0.0
  1
<>.5
 13
-737.5
 23
-537.5
 33
0.0
 14
119.5
 24
-160.5
 34
0.0
 50
270.0
1001
ACAD
1000
DSTYLE
1002
{
1070
    40
1040
1.0
1002
}
  0
DIMENSION
  5
4A
  8
TEAM-MAS
  2
*D1
 10
119.5
 20
-571.982503
 30
0.0
 11
-459.0
 21
-571.982503
 31
0.0
  1
<>.5
 13
-1037.5
 23
-237.5
 33
0.0
 14
119.5
 24
-160.5
 34
0.0
1001
ACAD
1000
DSTYLE
1002
{
1070
    40
1040
1.0
1002
}
  0
POLYLINE
  5
58
  8
TEAM-DET1
 66
     1
 10
0.0
 20
0.0
 30
0.0
 70
     1
  0
VERTEX
  5
257
  8
TEAM-DET1
 10
-980.940842
 20
-79.73689
 30
0.0
  0
VERTEX
  5
258
  8
TEAM-DET1
 10
-980.940842
 20
79.73689
 30
0.0
  0
VERTEX
  5
259
  8
TEAM-DET1
 10
-932.434742
 20
79.73689
 30
0.0
  0
VERTEX
  5
25A
  8
TEAM-DET1
 10
-932.434742
 20
-79.73689
 30
0.0
  0
SEQEND
  5
25B
  8
TEAM-DET1
  0
POLYLINE
  5
5A
  8
TEAM-DET1
 66
     1
 10
0.0
 20
0.0
 30
0.0
 70
     1
  0
VERTEX
  5
25C
  8
TEAM-DET1
 10
-956.687792
 20
-52.0
 30
0.0
  0
VERTEX
  5
25D
  8
TEAM-DET1
 10
-954.888796
 20
-51.359792
 30
0.0
  0
VERTEX
  5
25E
  8
TEAM-DET1
 10
-953.134096
 20
-49.454938
 30
0.0
  0
VERTEX
  5
25F
  8
TEAM-DET1
 10
-951.4669
 20
-46.332338
 30
0.0
  0
VERTEX
  5
260
  8
TEAM-DET1
 10
-949.92826
 20
-42.068882
 30
0.0
  0
VERTEX
  5
261
  8
TEAM-DET1
 10
-948.556064
 20
-36.769552
 30
0.0
  0
VERTEX
  5
262
  8
TEAM-DET1
 10
-947.384096
 20
-30.564832
 30
0.0
  0
VERTEX
  5
263
  8
TEAM-DET1
 10
-946.441216
 20
-23.607506
 30
0.0
  0
VERTEX
  5
264
  8
TEAM-DET1
 10
-945.750642
 20
-16.068882
 30
0.0
  0
VERTEX
  5
265
  8
TEAM-DET1
 10
-945.329376
 20
-8.134592
 30
0.0
  0
VERTEX
  5
266
  8
TEAM-DET1
 10
-945.187792
 20
0.0
 30
0.0
  0
VERTEX
  5
267
  8
TEAM-DET1
 10
-945.329376
 20
8.134592
 30
0.0
  0
VERTEX
  5
268
  8
TEAM-DET1
 10
-945.750642
 20
16.068884
 30
0.0
  0
VERTEX
  5
269
  8
TEAM-DET1
 10
-946.441216
 20
23.607506
 30
0.0
  0
VERTEX
  5
26A
  8
TEAM-DET1
 10
-947.384096
 20
30.564834
 30
0.0
  0
VERTEX
  5
26B
  8
TEAM-DET1
 10
-948.556064
 20
36.769554
 30
0.0
  0
VERTEX
  5
26C
  8
TEAM-DET1
 10
-949.92826
 20
42.068884
 30
0.0
  0
VERTEX
  5
26D
  8
TEAM-DET1
 10
-951.4669
 20
46.33234
 30
0.0
  0
VERTEX
  5
26E
  8
TEAM-DET1
 10
-953.134096
 20
49.45494
 30
0.0
  0
VERTEX
  5
26F
  8
TEAM-DET1
 10
-954.888796
 20
51.359794
 30
0.0
  0
VERTEX
  5
270
  8
TEAM-DET1
 10
-956.687792
 20
52.0
 30
0.0
  0
VERTEX
  5
271
  8
TEAM-DET1
 10
-958.486788
 20
51.359794
 30
0.0
  0
VERTEX
  5
272
  8
TEAM-DET1
 10
-960.241486
 20
49.45494
 30
0.0
  0
VERTEX
  5
273
  8
TEAM-DET1
 10
-961.908682
 20
46.33234
 30
0.0
  0
VERTEX
  5
274
  8
TEAM-DET1
 10
-963.447322
 20
42.068884
 30
0.0
  0
VERTEX
  5
275
  8
TEAM-DET1
 10
-964.81952
 20
36.769554
 30
0.0
  0
VERTEX
  5
276
  8
TEAM-DET1
 10
-965.991486
 20
30.564834
 30
0.0
  0
VERTEX
  5
277
  8
TEAM-DET1
 10
-966.934366
 20
23.607506
 30
0.0
  0
VERTEX
  5
278
  8
TEAM-DET1
 10
-967.624942
 20
16.068884
 30
0.0
  0
VERTEX
  5
279
  8
TEAM-DET1
 10
-968.046208
 20
8.134592
 30
0.0
  0
VERTEX
  5
27A
  8
TEAM-DET1
 10
-968.187792
 20
0.0
 30
0.0
  0
VERTEX
  5
27B
  8
TEAM-DET1
 10
-968.046208
 20
-8.134592
 30
0.0
  0
VERTEX
  5
27C
  8
TEAM-DET1
 10
-967.624942
 20
-16.068882
 30
0.0
  0
VERTEX
  5
27D
  8
TEAM-DET1
 10
-966.934366
 20
-23.607506
 30
0.0
  0
VERTEX
  5
27E
  8
TEAM-DET1
 10
-965.991486
 20
-30.564832
 30
0.0
  0
VERTEX
  5
27F
  8
TEAM-DET1
 10
-964.81952
 20
-36.769552
 30
0.0
  0
VERTEX
  5
280
  8
TEAM-DET1
 10
-963.447322
 20
-42.068882
 30
0.0
  0
VERTEX
  5
281
  8
TEAM-DET1
 10
-961.908682
 20
-46.332338
 30
0.0
  0
VERTEX
  5
282
  8
TEAM-DET1
 10
-960.241486
 20
-49.454938
 30
0.0
  0
VERTEX
  5
283
  8
TEAM-DET1
 10
-958.486788
 20
-51.359792
 30
0.0
  0
SEQEND
  5
284
  8
TEAM-DET1
  0
POLYLINE
  5
5B
  8
TEAM-BODY
 66
     1
 10
0.0
 20
0.0
 30
0.0
  0
VERTEX
  5
285
  8
TEAM-BODY
 10
119.5
 20
-235.5
 30
0.0
  0
VERTEX
  5
286
  8
TEAM-BODY
 10
194.5
 20
-235.5
 30
0.0
  0
VERTEX
  5
287
  8
TEAM-BODY
 10
194.5
 20
-85.5
 30
0.0
  0
VERTEX
  5
288
  8
TEAM-BODY
 10
119.5
 20
-85.5
 30
0.0
  0
SEQEND
  5
289
  8
TEAM-BODY
  0
POLYLINE
  5
5C
  8
TEAM-BODY
 66
     1
 10
0.0
 20
0.0
 30
0.0
  0
VERTEX
  5
28A
  8
TEAM-BODY
 10
119.5
 20
-235.5
 30
0.0
  0
VERTEX
  5
28B
  8
TEAM-BODY
 10
44.5
 20
-235.5
 30
0.0
  0
VERTEX
  5
28C
  8
TEAM-BODY
 10
44.5
 20
-85.5
 30
0.0
  0
VERTEX
  5
28D
  8
TEAM-BODY
 10
119.5
 20
-85.5
 30
0.0
  0
SEQEND
  5
28E
  8
TEAM-BODY
  0
LINE
  5
5D
  8
TEAM-AXE
 10
119.5
 20
-85.5
 30
0.0
 11
119.5
 21
-235.5
 31
0.0
  0
LINE
  5
5E
  8
TEAM-AXE
 10
194.5
 20
-160.5
 30
0.0
 11
44.5
 21
-160.5
 31
0.0
  0
POLYLINE
  5
5F
  8
TEAM-DET1
 66
     1
 10
0.0
 20
0.0
 30
0.0
 70
     1
  0
VERTEX
  5
28F
  8
TEAM-DET1
 10
-79.73689
 20
-540.567896
 30
0.0
  0
VERTEX
  5
290
  8
TEAM-DET1
 10
79.73689
 20
-540.567896
 30
0.0
  0
VERTEX
  5
291
  8
TEAM-DET1
 10
79.73689
 20
-527.590896
 30
0.0
  0
VERTEX
  5
292
  8
TEAM-DET1
 10
-79.73689
 20
-527.590896
 30
0.0
  0
SEQEND
  5
293
  8
TEAM-DET1
  0
POLYLINE
  5
60
  8
TEAM-DET1
 66
     1
 10
0.0
 20
0.0
 30
0.0
 70
     1
  0
VERTEX
  5
294
  8
TEAM-DET1
 10
-79.73689
 20
-527.590896
 30
0.0
  0
VERTEX
  5
295
  8
TEAM-DET1
 10
79.73689
 20
-527.590896
 30
0.0
  0
VERTEX
  5
296
  8
TEAM-DET1
 10
79.73689
 20
-514.613897
 30
0.0
  0
VERTEX
  5
297
  8
TEAM-DET1
 10
-79.73689
 20
-514.613897
 30
0.0
  0
SEQEND
  5
298
  8
TEAM-DET1
  0
POLYLINE
  5
61
  8
TEAM-DET1
 66
     1
 10
0.0
 20
0.0
 30
0.0
 70
     1
  0
VERTEX
  5
299
  8
TEAM-DET1
 10
-79.73689
 20
-514.613897
 30
0.0
  0
VERTEX
  5
29A
  8
TEAM-DET1
 10
79.73689
 20
-514.613897
 30
0.0
  0
VERTEX
  5
29B
  8
TEAM-DET1
 10
79.73689
 20
-501.636897
 30
0.0
  0
VERTEX
  5
29C
  8
TEAM-DET1
 10
-79.73689
 20
-501.636897
 30
0.0
  0
SEQEND
  5
29D
  8
TEAM-DET1
  0
POLYLINE
  5
62
  8
TEAM-DET1
 66
     1
 10
0.0
 20
0.0
 30
0.0
 70
     1
  0
VERTEX
  5
29E
  8
TEAM-DET1
 10
-79.73689
 20
-501.636897
 30
0.0
  0
VERTEX
  5
29F
  8
TEAM-DET1
 10
79.73689
 20
-501.636897
 30
0.0
  0
VERTEX
  5
2A0
  8
TEAM-DET1
 10
79.73689
 20
-488.659898
 30
0.0
  0
VERTEX
  5
2A1
  8
TEAM-DET1
 10
-79.73689
 20
-488.659898
 30
0.0
  0
SEQEND
  5
2A2
  8
TEAM-DET1
  0
POLYLINE
  5
63
  8
TEAM-DET1
 66
     1
 10
0.0
 20
0.0
 30
0.0
 70
     1
  0
VERTEX
  5
2A3
  8
TEAM-DET1
 10
-79.73689
 20
-488.659898
 30
0.0
  0
VERTEX
  5
2A4
  8
TEAM-DET1
 10
79.73689
 20
-488.659898
 30
0.0
  0
VERTEX
  5
2A5
  8
TEAM-DET1
 10
79.73689
 20
-475.682898
 30
0.0
  0
VERTEX
  5
2A6
  8
TEAM-DET1
 10
-79.73689
 20
-475.682898
 30
0.0
  0
SEQEND
  5
2A7
  8
TEAM-DET1
  0
CIRCLE
  5
64
  8
TEAM-INSP
 10
0.0
 20
0.0
 30
0.0
 40
10.0
  0
TEXT
  5
66
  8
TEAM-TXT
 10
-654.925599
 20
261.43036
 30
0.0
 40
30.0
  1
team 121031
 41
0.8
 51
15.0
  7
TEAM
  0
DIMENSION
  5
69
  8
TEAM-MAS
  2
*D3
 10
1087.15329
 20
-537.5
 30
0.0
 11
1087.15329
 21
0.0
 31
0.0
 13
737.5
 23
537.5
 33
0.0
 14
737.5
 24
-537.5
 34
0.0
 50
270.0
1001
ACAD
1000
DSTYLE
1002
{
1070
    40
1040
1.0
1002
}
  0
POLYLINE
  5
77
  8
TEAM-DET1
 66
     1
 10
0.0
 20
0.0
 30
0.0
 70
     1
  0
VERTEX
  5
2A8
  8
TEAM-DET1
 10
958.611153
 20
-52.0
 30
0.0
  0
VERTEX
  5
2A9
  8
TEAM-DET1
 10
956.812157
 20
-51.359792
 30
0.0
  0
VERTEX
  5
2AA
  8
TEAM-DET1
 10
955.057457
 20
-49.454938
 30
0.0
  0
VERTEX
  5
2AB
  8
TEAM-DET1
 10
953.390261
 20
-46.332338
 30
0.0
  0
VERTEX
  5
2AC
  8
TEAM-DET1
 10
951.851621
 20
-42.068882
 30
0.0
  0
VERTEX
  5
2AD
  8
TEAM-DET1
 10
950.479425
 20
-36.769552
 30
0.0
  0
VERTEX
  5
2AE
  8
TEAM-DET1
 10
949.307457
 20
-30.564832
 30
0.0
  0
VERTEX
  5
2AF
  8
TEAM-DET1
 10
948.364577
 20
-23.607506
 30
0.0
  0
VERTEX
  5
2B0
  8
TEAM-DET1
 10
947.674003
 20
-16.068882
 30
0.0
  0
VERTEX
  5
2B1
  8
TEAM-DET1
 10
947.252737
 20
-8.134592
 30
0.0
  0
VERTEX
  5
2B2
  8
TEAM-DET1
 10
947.111153
 20
0.0
 30
0.0
  0
VERTEX
  5
2B3
  8
TEAM-DET1
 10
947.252737
 20
8.134592
 30
0.0
  0
VERTEX
  5
2B4
  8
TEAM-DET1
 10
947.674003
 20
16.068884
 30
0.0
  0
VERTEX
  5
2B5
  8
TEAM-DET1
 10
948.364577
 20
23.607506
 30
0.0
  0
VERTEX
  5
2B6
  8
TEAM-DET1
 10
949.307457
 20
30.564834
 30
0.0
  0
VERTEX
  5
2B7
  8
TEAM-DET1
 10
950.479425
 20
36.769554
 30
0.0
  0
VERTEX
  5
2B8
  8
TEAM-DET1
 10
951.851621
 20
42.068884
 30
0.0
  0
VERTEX
  5
2B9
  8
TEAM-DET1
 10
953.390261
 20
46.33234
 30
0.0
  0
VERTEX
  5
2BA
  8
TEAM-DET1
 10
955.057457
 20
49.45494
 30
0.0
  0
VERTEX
  5
2BB
  8
TEAM-DET1
 10
956.812157
 20
51.359794
 30
0.0
  0
VERTEX
  5
2BC
  8
TEAM-DET1
 10
958.611153
 20
52.0
 30
0.0
  0
VERTEX
  5
2BD
  8
TEAM-DET1
 10
960.410149
 20
51.359794
 30
0.0
  0
VERTEX
  5
2BE
  8
TEAM-DET1
 10
962.164847
 20
49.45494
 30
0.0
  0
VERTEX
  5
2BF
  8
TEAM-DET1
 10
963.832043
 20
46.33234
 30
0.0
  0
VERTEX
  5
2C0
  8
TEAM-DET1
 10
965.370683
 20
42.068884
 30
0.0
  0
VERTEX
  5
2C1
  8
TEAM-DET1
 10
966.742881
 20
36.769554
 30
0.0
  0
VERTEX
  5
2C2
  8
TEAM-DET1
 10
967.914847
 20
30.564834
 30
0.0
  0
VERTEX
  5
2C3
  8
TEAM-DET1
 10
968.857727
 20
23.607506
 30
0.0
  0
VERTEX
  5
2C4
  8
TEAM-DET1
 10
969.548303
 20
16.068884
 30
0.0
  0
VERTEX
  5
2C5
  8
TEAM-DET1
 10
969.969569
 20
8.134592
 30
0.0
  0
VERTEX
  5
2C6
  8
TEAM-DET1
 10
970.111153
 20
0.0
 30
0.0
  0
VERTEX
  5
2C7
  8
TEAM-DET1
 10
969.969569
 20
-8.134592
 30
0.0
  0
VERTEX
  5
2C8
  8
TEAM-DET1
 10
969.548303
 20
-16.068882
 30
0.0
  0
VERTEX
  5
2C9
  8
TEAM-DET1
 10
968.857727
 20
-23.607506
 30
0.0
  0
VERTEX
  5
2CA
  8
TEAM-DET1
 10
967.914847
 20
-30.564832
 30
0.0
  0
VERTEX
  5
2CB
  8
TEAM-DET1
 10
966.742881
 20
-36.769552
 30
0.0
  0
VERTEX
  5
2CC
  8
TEAM-DET1
 10
965.370683
 20
-42.068882
 30
0.0
  0
VERTEX
  5
2CD
  8
TEAM-DET1
 10
963.832043
 20
-46.332338
 30
0.0
  0
VERTEX
  5
2CE
  8
TEAM-DET1
 10
962.164847
 20
-49.454938
 30
0.0
  0
VERTEX
  5
2CF
  8
TEAM-DET1
 10
960.410149
 20
-51.359792
 30
0.0
  0
SEQEND
  5
2D0
  8
TEAM-DET1
  0
POLYLINE
  5
78
  8
TEAM-DET1
 66
     1
 10
0.0
 20
0.0
 30
0.0
 70
     1
  0
VERTEX
  5
2D1
  8
TEAM-DET1
 10
982.864203
 20
-79.73689
 30
0.0
  0
VERTEX
  5
2D2
  8
TEAM-DET1
 10
982.864203
 20
79.73689
 30
0.0
  0
VERTEX
  5
2D3
  8
TEAM-DET1
 10
934.358103
 20
79.73689
 30
0.0
  0
VERTEX
  5
2D4
  8
TEAM-DET1
 10
934.358103
 20
-79.73689
 30
0.0
  0
SEQEND
  5
2D5
  8
TEAM-DET1
  0
ENDSEC
  0
EOF
