  0
SECTION
  2
HEADER
  9
$ACADVER
  1
AC1009
  9
$INSBASE
 10
0.0
 20
0.0
 30
0.0
  9
$EXTMIN
 10
-401.271884
 20
-10.031055
 30
-0.000003
  9
$EXTMAX
 10
500.685393
 20
667.110752
 30
0.000007
  9
$LIMMIN
 10
-401.271884
 20
-10.031055
  9
$LIMMAX
 10
500.685393
 20
667.110752
  9
$ORTHOMODE
 70
     1
  9
$REGENMODE
 70
     1
  9
$FILLMODE
 70
     1
  9
$QTEXTMODE
 70
     0
  9
$MIRRTEXT
 70
     0
  9
$DRAGMODE
 70
     2
  9
$LTSCALE
 40
50.0
  9
$OSMODE
 70
     7
  9
$ATTMODE
 70
     1
  9
$TEXTSIZE
 40
200.0
  9
$TRACEWID
 40
1.0
  9
$TEXTSTYLE
  7
STANDARD
  9
$CLAYER
  8
TEAM-MAS
  9
$CELTYPE
  6
BYLAYER
  9
$CECOLOR
 62
   256
  9
$DIMSCALE
 40
0.0
  9
$DIMASZ
 40
20.0
  9
$DIMEXO
 40
10.0
  9
$DIMDLI
 40
1.0
  9
$DIMRND
 40
0.0
  9
$DIMDLE
 40
0.0
  9
$DIMEXE
 40
1.0
  9
$DIMTP
 40
0.0
  9
$DIMTM
 40
0.0
  9
$DIMTXT
 40
35.0
  9
$DIMCEN
 40
1.0
  9
$DIMTSZ
 40
0.0
  9
$DIMTOL
 70
     0
  9
$DIMLIM
 70
     0
  9
$DIMTIH
 70
     0
  9
$DIMTOH
 70
     0
  9
$DIMSE1
 70
     0
  9
$DIMSE2
 70
     0
  9
$DIMTAD
 70
     0
  9
$DIMZIN
 70
     0
  9
$DIMBLK
  1

  9
$DIMASO
 70
     1
  9
$DIMSHO
 70
     0
  9
$DIMPOST
  1

  9
$DIMAPOST
  1

  9
$DIMALT
 70
     0
  9
$DIMALTD
 70
     2
  9
$DIMALTF
 40
25.4
  9
$DIMLFAC
 40
1.0
  9
$DIMTOFL
 70
     0
  9
$DIMTVP
 40
0.0
  9
$DIMTIX
 70
     0
  9
$DIMSOXD
 70
     0
  9
$DIMSAH
 70
     0
  9
$DIMBLK1
  1

  9
$DIMBLK2
  1

  9
$DIMSTYLE
  2
TEAM
  9
$DIMCLRD
 70
     9
  9
$DIMCLRE
 70
     9
  9
$DIMCLRT
 70
    11
  9
$DIMTFAC
 40
1.0
  9
$DIMGAP
 40
7.0
  9
$LUNITS
 70
     2
  9
$LUPREC
 70
     1
  9
$SKETCHINC
 40
1.0
  9
$FILLETRAD
 40
5.0
  9
$AUNITS
 70
     0
  9
$AUPREC
 70
     0
  9
$MENU
  1
ROPLANS
  9
$ELEVATION
 40
0.0
  9
$PELEVATION
 40
0.0
  9
$THICKNESS
 40
0.0
  9
$LIMCHECK
 70
     0
  9
$BLIPMODE
 70
     1
  9
$CHAMFERA
 40
0.0
  9
$CHAMFERB
 40
0.0
  9
$SKPOLY
 70
     0
  9
$TDCREATE
 40
2450392.957851
  9
$TDUPDATE
 40
2456004.599416
  9
$TDINDWG
 40
2.546599
  9
$TDUSRTIMER
 40
2.546599
  9
$USRTIMER
 70
     1
  9
$ANGBASE
 50
0.0
  9
$ANGDIR
 70
     0
  9
$PDMODE
 70
     0
  9
$PDSIZE
 40
0.0
  9
$PLINEWID
 40
0.0
  9
$COORDS
 70
     2
  9
$SPLFRAME
 70
     0
  9
$SPLINETYPE
 70
     6
  9
$SPLINESEGS
 70
     8
  9
$ATTDIA
 70
     0
  9
$ATTREQ
 70
     0
  9
$HANDLING
 70
     1
  9
$HANDSEED
  5
21B
  9
$SURFTAB1
 70
    36
  9
$SURFTAB2
 70
    36
  9
$SURFTYPE
 70
     6
  9
$SURFU
 70
     6
  9
$SURFV
 70
     6
  9
$UCSNAME
  2

  9
$UCSORG
 10
0.0
 20
0.0
 30
0.0
  9
$UCSXDIR
 10
1.0
 20
0.0
 30
0.0
  9
$UCSYDIR
 10
0.0
 20
1.0
 30
0.0
  9
$PUCSNAME
  2

  9
$PUCSORG
 10
0.0
 20
0.0
 30
0.0
  9
$PUCSXDIR
 10
1.0
 20
0.0
 30
0.0
  9
$PUCSYDIR
 10
0.0
 20
1.0
 30
0.0
  9
$USERI1
 70
     0
  9
$USERI2
 70
     0
  9
$USERI3
 70
     0
  9
$USERI4
 70
     0
  9
$USERI5
 70
     0
  9
$USERR1
 40
0.0
  9
$USERR2
 40
0.0
  9
$USERR3
 40
0.0
  9
$USERR4
 40
0.0
  9
$USERR5
 40
0.0
  9
$WORLDVIEW
 70
     1
  9
$SHADEDGE
 70
     0
  9
$SHADEDIF
 70
    70
  9
$TILEMODE
 70
     1
  9
$MAXACTVP
 70
    16
  9
$PLIMCHECK
 70
     0
  9
$PEXTMIN
 10
-0.805942
 20
0.005011
 30
0.0
  9
$PEXTMAX
 10
20.250094
 20
11.356329
 30
0.0
  9
$PLIMMIN
 10
0.0
 20
0.0
  9
$PLIMMAX
 10
12.0
 20
9.0
  9
$UNITMODE
 70
     0
  9
$VISRETAIN
 70
     0
  9
$PLINEGEN
 70
     0
  9
$PSLTSCALE
 70
     0
  0
ENDSEC
  0
SECTION
  2
TABLES
  0
TABLE
  2
VPORT
 70
     2
  0
VPORT
  2
*ACTIVE
 70
     0
 10
0.0
 20
0.0
 11
1.0
 21
1.0
 12
49.706754
 22
328.539848
 13
0.0
 23
0.0
 14
1.0
 24
1.0
 15
50.0
 25
50.0
 16
0.0
 26
0.0
 36
1.0
 17
0.0
 27
0.0
 37
0.0
 40
681.38721
 41
1.903766
 42
50.0
 43
0.0
 44
0.0
 50
0.0
 51
0.0
 71
     0
 72
   100
 73
     1
 74
     1
 75
     0
 76
     0
 77
     0
 78
     0
  0
ENDTAB
  0
TABLE
  2
LTYPE
 70
     2
  0
LTYPE
  2
CONTINUOUS
 70
     0
  3
Solid Line
 72
    65
 73
     0
 40
0.0
  0
LTYPE
  2
22
 70
     0
  3

 72
    65
 73
     2
 40
1.4
 49
1.2
 49
-0.2
  0
ENDTAB
  0
TABLE
  2
LAYER
 70
     9
  0
LAYER
  2
0
 70
     0
 62
     7
  6
CONTINUOUS
  0
LAYER
  2
DEFPOINTS
 70
     0
 62
     7
  6
CONTINUOUS
  0
LAYER
  2
TEAM-BODY
 70
     0
 62
     2
  6
CONTINUOUS
  0
LAYER
  2
TEAM-MAS
 70
     0
 62
     9
  6
CONTINUOUS
  0
LAYER
  2
TEAM-TXT
 70
     0
 62
    11
  6
CONTINUOUS
  0
LAYER
  2
TEAM-HIDE
 70
     0
 62
     8
  6
22
  0
LAYER
  2
TEAM-KAN
 70
     0
 62
     6
  6
CONTINUOUS
  0
LAYER
  2
TEAM-DET3
 70
     0
 62
    14
  6
CONTINUOUS
  0
LAYER
  2
TEAM-INSP
 70
     0
 62
     5
  6
CONTINUOUS
  0
ENDTAB
  0
TABLE
  2
STYLE
 70
     2
  0
STYLE
  2
STANDARD
 70
     0
 40
0.0
 41
1.0
 50
0.0
 71
     0
 42
200.0
  3
txt
  4

  0
STYLE
  2
TEAM
 70
     0
 40
0.0
 41
0.8
 50
15.0
 71
     0
 42
7.0
  3
ROMANS.shx
  4

  0
ENDTAB
  0
TABLE
  2
VIEW
 70
     0
  0
ENDTAB
  0
TABLE
  2
UCS
 70
     0
  0
ENDTAB
  0
TABLE
  2
APPID
 70
     1
  0
APPID
  2
ACAD
 70
     0
  0
ENDTAB
  0
TABLE
  2
DIMSTYLE
 70
     1
  0
DIMSTYLE
  2
TEAM
 70
     0
  3

  4

  5

  6

  7

 40
0.0
 41
20.0
 42
10.0
 43
1.0
 44
1.0
 45
0.0
 46
0.0
 47
0.0
 48
0.0
140
35.0
141
1.0
142
0.0
143
25.4
144
1.0
145
0.0
146
1.0
147
7.0
 71
     0
 72
     0
 73
     0
 74
     0
 75
     0
 76
     0
 77
     0
 78
     0
170
     0
171
     2
172
     0
173
     0
174
     0
175
     0
176
     9
177
     9
178
    11
  0
ENDTAB
  0
ENDSEC
  0
SECTION
  2
BLOCKS
  0
BLOCK
  8
0
  2
$MODEL_SPACE
 70
     0
 10
0.0
 20
0.0
 30
0.0
  3
$MODEL_SPACE
  1

  0
ENDBLK
  5
1C7
  8
0
  0
BLOCK
 67
     1
  8
0
  2
$PAPER_SPACE
 70
     0
 10
0.0
 20
0.0
 30
0.0
  3
$PAPER_SPACE
  1

  0
ENDBLK
  5
1C5
 67
     1
  8
0
  0
BLOCK
  8
0
  2
*D0
 70
     1
 10
0.0
 20
0.0
 30
0.0
  3
*D0
  1

  0
LINE
  5
42
  8
0
  6
BYBLOCK
 62
     9
 10
8404.505006
 20
44600.0
 30
0.0
 11
8436.469917
 21
44600.0
 31
0.0
  0
LINE
  5
43
  8
0
  6
BYBLOCK
 62
     9
 10
8010.005
 20
44129.99714
 30
0.0
 11
8436.469917
 21
44129.99714
 31
0.0
  0
LINE
  5
44
  8
0
  6
BYBLOCK
 62
     9
 10
8435.469917
 20
44580.0
 30
0.0
 11
8435.469917
 21
44450.74857
 31
0.0
  0
LINE
  5
45
  8
0
  6
BYBLOCK
 62
     9
 10
8435.469917
 20
44149.99714
 30
0.0
 11
8435.469917
 21
44279.24857
 31
0.0
  0
SOLID
  5
46
  8
0
  6
BYBLOCK
 62
     9
 10
8432.136583
 20
44580.0
 30
0.0
 11
8438.80325
 21
44580.0
 31
0.0
 12
8435.469917
 22
44600.0
 32
0.0
 13
8435.469917
 23
44600.0
 33
0.0
  0
SOLID
  5
47
  8
0
  6
BYBLOCK
 62
     9
 10
8432.136583
 20
44149.99714
 30
0.0
 11
8438.80325
 21
44149.99714
 31
0.0
 12
8435.469917
 22
44129.99714
 32
0.0
 13
8435.469917
 23
44129.99714
 33
0.0
  0
TEXT
  5
48
  8
0
  6
BYBLOCK
 62
    11
 10
8452.969917
 20
44286.24857
 30
0.0
 40
35.0
  1
470.00
 50
90.0
  0
POINT
  5
49
  8
DEFPOINTS
  6
BYBLOCK
 62
     0
 10
8394.505006
 20
44600.0
 30
0.0
  0
POINT
  5
4A
  8
DEFPOINTS
  6
BYBLOCK
 62
     0
 10
8000.005
 20
44129.99714
 30
0.0
  0
POINT
  5
4B
  8
DEFPOINTS
  6
BYBLOCK
 62
     0
 10
8435.469917
 20
44129.99714
 30
0.0
  0
ENDBLK
  5
4D
  8
0
  0
BLOCK
  8
0
  2
*D1
 70
     1
 10
0.0
 20
0.0
 30
0.0
  3
*D1
  1

  0
LINE
  5
50
  8
0
  6
BYBLOCK
 62
     9
 10
8404.000006
 20
44620.0
 30
0.0
 11
8484.157294
 21
44620.0
 31
0.0
  0
LINE
  5
51
  8
0
  6
BYBLOCK
 62
     9
 10
8010.0
 20
44000.0
 30
0.0
 11
8484.157294
 21
44000.0
 31
0.0
  0
LINE
  5
52
  8
0
  6
BYBLOCK
 62
     9
 10
8483.157294
 20
44600.0
 30
0.0
 11
8483.157294
 21
44465.75
 31
0.0
  0
LINE
  5
53
  8
0
  6
BYBLOCK
 62
     9
 10
8483.157294
 20
44020.0
 30
0.0
 11
8483.157294
 21
44154.25
 31
0.0
  0
SOLID
  5
54
  8
0
  6
BYBLOCK
 62
     9
 10
8479.82396
 20
44600.0
 30
0.0
 11
8486.490627
 21
44600.0
 31
0.0
 12
8483.157294
 22
44620.0
 32
0.0
 13
8483.157294
 23
44620.0
 33
0.0
  0
SOLID
  5
55
  8
0
  6
BYBLOCK
 62
     9
 10
8479.82396
 20
44020.0
 30
0.0
 11
8486.490627
 21
44020.0
 31
0.0
 12
8483.157294
 22
44000.0
 32
0.0
 13
8483.157294
 23
44000.0
 33
0.0
  0
TEXT
  5
56
  8
0
  6
BYBLOCK
 62
    11
 10
8500.657294
 20
44161.25
 30
0.0
 40
35.0
  1
620.00-685
 50
90.0
  0
POINT
  5
57
  8
DEFPOINTS
  6
BYBLOCK
 62
     0
 10
8394.000006
 20
44620.0
 30
0.0
  0
POINT
  5
58
  8
DEFPOINTS
  6
BYBLOCK
 62
     0
 10
8000.0
 20
44000.0
 30
0.0
  0
POINT
  5
59
  8
DEFPOINTS
  6
BYBLOCK
 62
     0
 10
8483.157294
 20
44000.0
 30
0.0
  0
ENDBLK
  5
5B
  8
0
  0
BLOCK
  8
0
  2
*D2
 70
     1
 10
0.0
 20
0.0
 30
0.0
  3
*D2
  1

  0
LINE
  5
6D
  8
0
  6
BYBLOCK
 62
     9
 10
8026.0
 20
44109.219994
 30
0.0
 11
8026.0
 21
44076.225433
 31
0.0
  0
LINE
  5
6E
  8
0
  6
BYBLOCK
 62
     9
 10
7974.0
 20
44109.219994
 30
0.0
 11
7974.0
 21
44076.225433
 31
0.0
  0
LINE
  5
6F
  8
0
  6
BYBLOCK
 62
     9
 10
8046.0
 20
44077.225433
 30
0.0
 11
8066.0
 21
44077.225433
 31
0.0
  0
LINE
  5
70
  8
0
  6
BYBLOCK
 62
     9
 10
7954.0
 20
44077.225433
 30
0.0
 11
7934.0
 21
44077.225433
 31
0.0
  0
TEXT
  5
71
  8
0
  6
BYBLOCK
 62
    11
 10
8057.101161
 20
44059.725433
 30
0.0
 40
35.0
  1
52.00
  0
LINE
  5
72
  8
0
  6
BYBLOCK
 62
     9
 10
8026.0
 20
44077.225433
 30
0.0
 11
7974.0
 21
44077.225433
 31
0.0
  0
SOLID
  5
73
  8
0
  6
BYBLOCK
 62
     9
 10
8046.0
 20
44080.558767
 30
0.0
 11
8046.0
 21
44073.8921
 31
0.0
 12
8026.0
 22
44077.225433
 32
0.0
 13
8026.0
 23
44077.225433
 33
0.0
  0
SOLID
  5
74
  8
0
  6
BYBLOCK
 62
     9
 10
7954.0
 20
44080.558767
 30
0.0
 11
7954.0
 21
44073.8921
 31
0.0
 12
7974.0
 22
44077.225433
 32
0.0
 13
7974.0
 23
44077.225433
 33
0.0
  0
POINT
  5
75
  8
DEFPOINTS
  6
BYBLOCK
 62
     0
 10
8026.0
 20
44119.219994
 30
0.0
  0
POINT
  5
76
  8
DEFPOINTS
  6
BYBLOCK
 62
     0
 10
7974.0
 20
44119.219994
 30
0.0
  0
POINT
  5
77
  8
DEFPOINTS
  6
BYBLOCK
 62
     0
 10
7974.0
 20
44077.225433
 30
0.0
  0
ENDBLK
  5
79
  8
0
  0
BLOCK
  8
0
  2
*D3
 70
     1
 10
0.0
 20
0.0
 30
0.0
  3
*D3
  1

  0
LINE
  5
27
  8
0
  6
BYBLOCK
 62
     9
 10
8400.000006
 20
44604.0
 30
0.0
 11
8400.000006
 21
44630.573033
 31
0.0
  0
LINE
  5
28
  8
0
  6
BYBLOCK
 62
     9
 10
7599.999994
 20
44604.0
 30
0.0
 11
7599.999994
 21
44630.573033
 31
0.0
  0
LINE
  5
29
  8
0
  6
BYBLOCK
 62
     9
 10
8380.000006
 20
44629.573033
 30
0.0
 11
8082.833333
 21
44629.573033
 31
0.0
  0
LINE
  5
2A
  8
0
  6
BYBLOCK
 62
     9
 10
7619.999994
 20
44629.573033
 30
0.0
 11
7917.166667
 21
44629.573033
 31
0.0
  0
SOLID
  5
2B
  8
0
  6
BYBLOCK
 62
     9
 10
8380.000006
 20
44632.906366
 30
0.0
 11
8380.000006
 21
44626.239699
 31
0.0
 12
8400.000006
 22
44629.573033
 32
0.0
 13
8400.000006
 23
44629.573033
 33
0.0
  0
SOLID
  5
2C
  8
0
  6
BYBLOCK
 62
     9
 10
7619.999994
 20
44632.906366
 30
0.0
 11
7619.999994
 21
44626.239699
 31
0.0
 12
7599.999994
 22
44629.573033
 32
0.0
 13
7599.999994
 23
44629.573033
 33
0.0
  0
TEXT
  5
2D
  8
0
  6
BYBLOCK
 62
    11
 10
7924.166667
 20
44612.073033
 30
0.0
 40
35.0
  1
800.00
  0
POINT
  5
2E
  8
DEFPOINTS
  6
BYBLOCK
 62
     0
 10
8400.000006
 20
44594.0
 30
0.0
  0
POINT
  5
30
  8
DEFPOINTS
  6
BYBLOCK
 62
     0
 10
7599.999994
 20
44594.0
 30
0.0
  0
POINT
  5
31
  8
DEFPOINTS
  6
BYBLOCK
 62
     0
 10
7599.999994
 20
44629.573033
 30
0.0
  0
ENDBLK
  5
33
  8
0
  0
ENDSEC
  0
SECTION
  2
ENTITIES
  0
ARC
  5
20
  8
TEAM-BODY
 10
4660.584832
 20
1077.014618
 30
0.0
 40
4982.414613
 50
185.262883
 51
189.883527
  0
TEXT
  5
22
  8
TEAM-TXT
 10
-289.687372
 20
522.75601
 30
0.0
 40
30.0
  1
team 121043
 41
0.8
 51
15.0
  7
TEAM
  0
DIMENSION
  5
25
  8
TEAM-MAS
  2
*D3
 10
-400.000006
 20
649.573033
 30
0.0
 11
0.0
 21
629.573033
 31
0.0
 12
-8000.0
 22
-43980.0
 32
0.0
 13
400.000006
 23
614.0
 33
0.0
 14
-400.000006
 24
614.0
 34
0.0
1001
ACAD
1000
DSTYLE
1002
{
1070
    40
1040
1.0
1002
}
  0
LINE
  5
34
  8
TEAM-BODY
 10
-394.000006
 20
620.0
 30
0.0
 11
394.000006
 21
620.0
 31
0.0
  0
LINE
  5
35
  8
TEAM-HIDE
 10
-360.8761
 20
-0.00016
 30
0.0
 11
360.8761
 21
-0.00016
 31
0.0
  0
POLYLINE
  5
38
  8
TEAM-DET3
 66
     1
 10
0.0
 20
0.0
 30
0.0
  0
VERTEX
  5
1CD
  8
TEAM-DET3
 10
-275.8761
 20
124.99984
 30
0.0
  0
VERTEX
  5
1CE
  8
TEAM-DET3
 10
-275.8761
 20
149.99984
 30
0.0
  0
VERTEX
  5
1CF
  8
TEAM-DET3
 10
275.8761
 20
149.99984
 30
0.0
  0
VERTEX
  5
1D0
  8
TEAM-DET3
 10
275.8761
 20
124.99984
 30
0.0
  0
SEQEND
  5
1D1
  8
TEAM-DET3
  0
LINE
  5
3A
  8
TEAM-DET3
 10
-275.8761
 20
124.99984
 30
0.0
 11
275.8761
 21
124.99984
 31
0.0
  0
LINE
  5
3B
  8
TEAM-BODY
 10
-400.000006
 20
614.0
 30
0.0
 11
-400.000006
 21
581.0
 31
0.0
  0
ARC
  5
3C
  8
TEAM-BODY
 10
-394.000006
 20
581.0
 30
0.0
 40
6.0
 50
180.0
 51
270.0
  0
ARC
  5
3D
  8
TEAM-BODY
 10
-394.000006
 20
614.0
 30
0.0
 40
6.0
 50
90.0
 51
180.0
  0
LINE
  5
3E
  8
TEAM-BODY
 10
-296.474448
 20
575.0
 30
0.0
 11
-394.000006
 21
575.0
 31
0.0
  0
ARC
  5
3F
  8
TEAM-BODY
 10
-4660.584832
 20
1077.014618
 30
0.0
 40
4982.414613
 50
350.116473
 51
354.737117
  0
DIMENSION
  5
40
  8
TEAM-MAS
  2
*D0
 10
435.469917
 20
149.99714
 30
0.0
 11
435.469917
 21
364.99857
 31
0.0
 12
-8000.0
 22
-43980.0
 32
0.0
 13
394.505006
 23
620.0
 33
0.0
 14
0.005
 24
149.99714
 34
0.0
 50
90.0
1001
ACAD
1000
DSTYLE
1002
{
1070
    40
1040
1.0
1002
}
  0
DIMENSION
  5
4E
  8
TEAM-MAS
  2
*D1
 10
483.157294
 20
0.0
 30
0.0
 11
483.157294
 21
310.0
 31
0.0
 12
-8000.0
 22
-44000.0
 32
0.0
  1
<>-685
 13
394.000006
 23
620.0
 33
0.0
 14
0.0
 24
0.0
 34
0.0
 50
90.0
1001
ACAD
1000
DSTYLE
1002
{
1070
    40
1040
1.0
1002
}
  0
ARC
  5
5C
  8
TEAM-BODY
 10
169.370003
 20
237.119995
 30
0.0
 40
80.000001
 50
271.4997
 51
348.9622
  0
ARC
  5
5D
  8
TEAM-KAN
 10
-24.147355
 20
163.453922
 30
0.0
 40
24.304642
 50
237.816095
 51
265.628333
  0
ARC
  5
5F
  8
TEAM-KAN
 10
-65.576052
 20
115.717585
 30
0.0
 40
39.354925
 50
43.646085
 51
60.576871
  0
ARC
  5
60
  8
TEAM-KAN
 10
73.376569
 20
100.486642
 30
0.0
 40
56.452745
 50
118.716087
 51
131.326352
  0
ARC
  5
61
  8
TEAM-KAN
 10
25.143398
 20
157.313257
 30
0.0
 40
18.113529
 50
272.710569
 51
307.192542
  0
LINE
  5
62
  8
TEAM-KAN
 10
26.0
 20
139.219994
 30
0.0
 11
-26.0
 21
139.219994
 31
0.0
  0
LINE
  5
63
  8
TEAM-KAN
 10
26.0
 20
139.219994
 30
0.0
 11
26.0
 21
142.219994
 31
0.0
  0
LINE
  5
64
  8
TEAM-KAN
 10
-26.0
 20
139.219994
 30
0.0
 11
-26.0
 21
142.219994
 31
0.0
  0
LINE
  5
65
  8
TEAM-BODY
 10
-44.388301
 20
149.99714
 30
0.0
 11
44.398301
 21
149.99714
 31
0.0
  0
ARC
  5
66
  8
TEAM-BODY
 10
-169.370003
 20
237.119995
 30
0.0
 40
80.000001
 50
191.0378
 51
268.5003
  0
ARC
  5
67
  8
TEAM-BODY
 10
-45.693279
 20
1250.716923
 30
0.0
 40
1100.720557
 50
263.465403
 51
270.067928
  0
CIRCLE
  5
68
  8
TEAM-INSP
 10
0.0
 20
0.0
 30
0.0
 40
10.0
  0
ARC
  5
6A
  8
TEAM-BODY
 10
45.714333
 20
1268.10865
 30
0.0
 40
1118.112285
 50
269.932562
 51
276.483522
  0
DIMENSION
  5
6B
  8
TEAM-INSP
  2
*D2
 10
-26.0
 20
97.225433
 30
0.0
 11
121.267828
 21
97.225433
 31
0.0
 12
-8000.0
 22
-43980.0
 32
0.0
 70
   128
 13
26.0
 23
139.219994
 33
0.0
 14
-26.0
 24
139.219994
 34
0.0
1001
ACAD
1000
DSTYLE
1002
{
1070
    40
1040
1.0
1002
}
  0
LINE
  5
7A
  8
TEAM-BODY
 10
400.000006
 20
614.0
 30
0.0
 11
400.000006
 21
581.0
 31
0.0
  0
ARC
  5
7B
  8
TEAM-BODY
 10
394.000006
 20
581.0
 30
0.0
 40
6.0
 50
270.0
 51
0.0
  0
ARC
  5
7C
  8
TEAM-BODY
 10
394.000006
 20
614.0
 30
0.0
 40
6.0
 50
0.0
 51
90.0
  0
LINE
  5
7D
  8
TEAM-BODY
 10
394.000006
 20
575.0
 30
0.0
 11
296.474448
 21
575.0
 31
0.0
  0
LINE
  5
7E
  8
TEAM-DET3
 10
-263.0
 20
0.0
 30
0.0
 11
-237.0
 21
0.0
 31
0.0
  0
LINE
  5
7F
  8
TEAM-DET3
 10
-263.0
 20
9.99984
 30
0.0
 11
-237.0
 21
9.99984
 31
0.0
  0
LINE
  5
80
  8
TEAM-DET3
 10
-237.0
 20
9.99984
 30
0.0
 11
-237.0
 21
0.0
 31
0.0
  0
LINE
  5
81
  8
TEAM-DET3
 10
-263.0
 20
9.99984
 30
0.0
 11
-263.0
 21
0.0
 31
0.0
  0
LINE
  5
82
  8
TEAM-DET3
 10
-263.0
 20
9.99984
 30
0.0
 11
-237.0
 21
9.99984
 31
0.0
  0
LINE
  5
83
  8
TEAM-DET3
 10
-255.87671
 20
9.99984
 30
0.0
 11
-255.87671
 21
0.0
 31
0.0
  0
LINE
  5
84
  8
TEAM-DET3
 10
-243.87671
 20
0.0
 30
0.0
 11
-243.87671
 21
9.99984
 31
0.0
  0
LINE
  5
85
  8
TEAM-DET3
 10
-258.87671
 20
51.99984
 30
0.0
 11
-240.87671
 21
51.99984
 31
0.0
  0
LINE
  5
86
  8
TEAM-DET3
 10
-260.87671
 20
13.99984
 30
0.0
 11
-238.87671
 21
13.99984
 31
0.0
  0
LINE
  5
87
  8
TEAM-DET3
 10
-259.87671
 20
40.99984
 30
0.0
 11
-239.87671
 21
40.99984
 31
0.0
  0
LINE
  5
88
  8
TEAM-DET3
 10
-258.87671
 20
47.99984
 30
0.0
 11
-240.87671
 21
47.99984
 31
0.0
  0
LINE
  5
89
  8
TEAM-DET3
 10
-238.87671
 20
13.99984
 30
0.0
 11
-239.87671
 21
40.99984
 31
0.0
  0
LINE
  5
8A
  8
TEAM-DET3
 10
-240.87671
 20
40.99984
 30
0.0
 11
-240.87671
 21
51.99984
 31
0.0
  0
LINE
  5
8B
  8
TEAM-DET3
 10
-258.87671
 20
51.99984
 30
0.0
 11
-258.87671
 21
40.99984
 31
0.0
  0
LINE
  5
8C
  8
TEAM-DET3
 10
-263.0
 20
9.99984
 30
0.0
 11
-260.87671
 21
13.99984
 31
0.0
  0
LINE
  5
8D
  8
TEAM-DET3
 10
-237.0
 20
9.99984
 30
0.0
 11
-238.87671
 21
13.99984
 31
0.0
  0
LINE
  5
8E
  8
TEAM-DET3
 10
-259.87671
 20
40.99984
 30
0.0
 11
-260.87671
 21
13.99984
 31
0.0
  0
LINE
  5
8F
  8
TEAM-DET3
 10
-254.734932
 20
51.99984
 30
0.0
 11
-254.734932
 21
47.99984
 31
0.0
  0
LINE
  5
90
  8
TEAM-DET3
 10
-245.018488
 20
51.99984
 30
0.0
 11
-245.018488
 21
47.99984
 31
0.0
  0
LINE
  5
91
  8
TEAM-DET3
 10
-249.87671
 20
40.99984
 30
0.0
 11
-249.87671
 21
13.99984
 31
0.0
  0
LINE
  5
92
  8
TEAM-DET3
 10
-254.643281
 20
40.99984
 30
0.0
 11
-255.643281
 21
13.99984
 31
0.0
  0
LINE
  5
93
  8
TEAM-DET3
 10
-245.110139
 20
40.99984
 30
0.0
 11
-244.110139
 21
13.99984
 31
0.0
  0
LINE
  5
94
  8
TEAM-DET3
 10
245.110139
 20
40.99984
 30
0.0
 11
244.110139
 21
13.99984
 31
0.0
  0
LINE
  5
95
  8
TEAM-DET3
 10
254.643281
 20
40.99984
 30
0.0
 11
255.643281
 21
13.99984
 31
0.0
  0
LINE
  5
96
  8
TEAM-DET3
 10
249.87671
 20
40.99984
 30
0.0
 11
249.87671
 21
13.99984
 31
0.0
  0
LINE
  5
97
  8
TEAM-DET3
 10
245.018488
 20
51.99984
 30
0.0
 11
245.018488
 21
47.99984
 31
0.0
  0
LINE
  5
98
  8
TEAM-DET3
 10
254.734932
 20
51.99984
 30
0.0
 11
254.734932
 21
47.99984
 31
0.0
  0
LINE
  5
99
  8
TEAM-DET3
 10
259.87671
 20
40.99984
 30
0.0
 11
260.87671
 21
13.99984
 31
0.0
  0
LINE
  5
9A
  8
TEAM-DET3
 10
237.0
 20
9.99984
 30
0.0
 11
238.87671
 21
13.99984
 31
0.0
  0
LINE
  5
9B
  8
TEAM-DET3
 10
263.0
 20
9.99984
 30
0.0
 11
260.87671
 21
13.99984
 31
0.0
  0
LINE
  5
9C
  8
TEAM-DET3
 10
258.87671
 20
51.99984
 30
0.0
 11
258.87671
 21
40.99984
 31
0.0
  0
LINE
  5
9D
  8
TEAM-DET3
 10
240.87671
 20
40.99984
 30
0.0
 11
240.87671
 21
51.99984
 31
0.0
  0
LINE
  5
9E
  8
TEAM-DET3
 10
238.87671
 20
13.99984
 30
0.0
 11
239.87671
 21
40.99984
 31
0.0
  0
LINE
  5
9F
  8
TEAM-DET3
 10
258.87671
 20
47.99984
 30
0.0
 11
240.87671
 21
47.99984
 31
0.0
  0
LINE
  5
A0
  8
TEAM-DET3
 10
259.87671
 20
40.99984
 30
0.0
 11
239.87671
 21
40.99984
 31
0.0
  0
LINE
  5
A1
  8
TEAM-DET3
 10
260.87671
 20
13.99984
 30
0.0
 11
238.87671
 21
13.99984
 31
0.0
  0
LINE
  5
A2
  8
TEAM-DET3
 10
258.87671
 20
51.99984
 30
0.0
 11
240.87671
 21
51.99984
 31
0.0
  0
LINE
  5
A3
  8
TEAM-DET3
 10
243.87671
 20
0.0
 30
0.0
 11
243.87671
 21
9.99984
 31
0.0
  0
LINE
  5
A4
  8
TEAM-DET3
 10
255.87671
 20
9.99984
 30
0.0
 11
255.87671
 21
0.0
 31
0.0
  0
LINE
  5
A5
  8
TEAM-DET3
 10
263.0
 20
9.99984
 30
0.0
 11
237.0
 21
9.99984
 31
0.0
  0
LINE
  5
A6
  8
TEAM-DET3
 10
263.0
 20
9.99984
 30
0.0
 11
263.0
 21
0.0
 31
0.0
  0
LINE
  5
A7
  8
TEAM-DET3
 10
237.0
 20
9.99984
 30
0.0
 11
237.0
 21
0.0
 31
0.0
  0
LINE
  5
A8
  8
TEAM-DET3
 10
263.0
 20
9.99984
 30
0.0
 11
237.0
 21
9.99984
 31
0.0
  0
LINE
  5
A9
  8
TEAM-DET3
 10
263.0
 20
0.0
 30
0.0
 11
237.0
 21
0.0
 31
0.0
  0
CIRCLE
  5
AA
  8
TEAM-DET3
 10
0.0
 20
137.49984
 30
0.0
 40
6.0
  0
POINT
  5
AB
  8
TEAM-DET3
 10
6.0
 20
137.49984
 30
0.0
  0
POINT
  5
AC
  8
TEAM-DET3
 10
3.0
 20
142.695992
 30
0.0
  0
POINT
  5
AD
  8
TEAM-DET3
 10
-3.0
 20
142.695992
 30
0.0
  0
POINT
  5
AE
  8
TEAM-DET3
 10
-6.0
 20
137.49984
 30
0.0
  0
POINT
  5
AF
  8
TEAM-DET3
 10
-3.0
 20
132.303688
 30
0.0
  0
POINT
  5
B0
  8
TEAM-DET3
 10
3.0
 20
132.303688
 30
0.0
  0
POLYLINE
  5
B1
  8
TEAM-DET3
 66
     1
 10
0.0
 20
0.0
 30
0.0
  0
VERTEX
  5
1D2
  8
TEAM-DET3
 10
-3.0
 20
142.695992
 30
0.0
  0
VERTEX
  5
1D3
  8
TEAM-DET3
 10
3.0
 20
142.695992
 30
0.0
  0
VERTEX
  5
1D4
  8
TEAM-DET3
 10
6.0
 20
137.49984
 30
0.0
  0
VERTEX
  5
1D5
  8
TEAM-DET3
 10
3.0
 20
132.303688
 30
0.0
  0
VERTEX
  5
1D6
  8
TEAM-DET3
 10
-3.0
 20
132.303688
 30
0.0
  0
VERTEX
  5
1D7
  8
TEAM-DET3
 10
-6.0
 20
137.49984
 30
0.0
  0
VERTEX
  5
1D8
  8
TEAM-DET3
 10
-3.0
 20
142.695992
 30
0.0
  0
SEQEND
  5
1D9
  8
TEAM-DET3
  0
POLYLINE
  5
B2
  8
TEAM-DET3
 66
     1
 10
0.0
 20
0.0
 30
0.0
  0
VERTEX
  5
1DA
  8
TEAM-DET3
 10
-252.87671
 20
142.695992
 30
0.0
  0
VERTEX
  5
1DB
  8
TEAM-DET3
 10
-246.87671
 20
142.695992
 30
0.0
  0
VERTEX
  5
1DC
  8
TEAM-DET3
 10
-243.87671
 20
137.49984
 30
0.0
  0
VERTEX
  5
1DD
  8
TEAM-DET3
 10
-246.87671
 20
132.303688
 30
0.0
  0
VERTEX
  5
1DE
  8
TEAM-DET3
 10
-252.87671
 20
132.303688
 30
0.0
  0
VERTEX
  5
1DF
  8
TEAM-DET3
 10
-255.87671
 20
137.49984
 30
0.0
  0
VERTEX
  5
1E0
  8
TEAM-DET3
 10
-252.87671
 20
142.695992
 30
0.0
  0
SEQEND
  5
1E1
  8
TEAM-DET3
  0
POINT
  5
B3
  8
TEAM-DET3
 10
-246.87671
 20
132.303688
 30
0.0
  0
POINT
  5
B4
  8
TEAM-DET3
 10
-252.87671
 20
132.303688
 30
0.0
  0
POINT
  5
B5
  8
TEAM-DET3
 10
-255.87671
 20
137.49984
 30
0.0
  0
POINT
  5
B6
  8
TEAM-DET3
 10
-252.87671
 20
142.695992
 30
0.0
  0
POINT
  5
B7
  8
TEAM-DET3
 10
-246.87671
 20
142.695992
 30
0.0
  0
POINT
  5
B8
  8
TEAM-DET3
 10
-243.87671
 20
137.49984
 30
0.0
  0
CIRCLE
  5
B9
  8
TEAM-DET3
 10
-249.87671
 20
137.49984
 30
0.0
 40
6.0
  0
POLYLINE
  5
BA
  8
TEAM-DET3
 66
     1
 10
0.0
 20
0.0
 30
0.0
  0
VERTEX
  5
1E2
  8
TEAM-DET3
 10
246.87671
 20
142.695992
 30
0.0
  0
VERTEX
  5
1E3
  8
TEAM-DET3
 10
252.87671
 20
142.695992
 30
0.0
  0
VERTEX
  5
1E4
  8
TEAM-DET3
 10
255.87671
 20
137.49984
 30
0.0
  0
VERTEX
  5
1E5
  8
TEAM-DET3
 10
252.87671
 20
132.303688
 30
0.0
  0
VERTEX
  5
1E6
  8
TEAM-DET3
 10
246.87671
 20
132.303688
 30
0.0
  0
VERTEX
  5
1E7
  8
TEAM-DET3
 10
243.87671
 20
137.49984
 30
0.0
  0
VERTEX
  5
1E8
  8
TEAM-DET3
 10
246.87671
 20
142.695992
 30
0.0
  0
SEQEND
  5
1E9
  8
TEAM-DET3
  0
POINT
  5
BB
  8
TEAM-DET3
 10
252.87671
 20
132.303688
 30
0.0
  0
POINT
  5
BC
  8
TEAM-DET3
 10
246.87671
 20
132.303688
 30
0.0
  0
POINT
  5
BD
  8
TEAM-DET3
 10
243.87671
 20
137.49984
 30
0.0
  0
POINT
  5
BE
  8
TEAM-DET3
 10
246.87671
 20
142.695992
 30
0.0
  0
POINT
  5
BF
  8
TEAM-DET3
 10
252.87671
 20
142.695992
 30
0.0
  0
POINT
  5
C0
  8
TEAM-DET3
 10
255.87671
 20
137.49984
 30
0.0
  0
CIRCLE
  5
C1
  8
TEAM-DET3
 10
249.87671
 20
137.49984
 30
0.0
 40
6.0
  0
LINE
  5
C2
  8
TEAM-DET3
 10
243.87671
 20
51.99984
 30
0.0
 11
243.87671
 21
124.99984
 31
0.0
  0
LINE
  5
C3
  8
TEAM-DET3
 10
244.81605
 20
51.99984
 30
0.0
 11
244.81605
 21
124.99984
 31
0.0
  0
LINE
  5
C4
  8
TEAM-DET3
 10
255.87671
 20
124.99984
 30
0.0
 11
255.87671
 21
51.99984
 31
0.0
  0
LINE
  5
C5
  8
TEAM-DET3
 10
254.93617
 20
124.99984
 30
0.0
 11
254.93617
 21
51.99984
 31
0.0
  0
LINE
  5
C6
  8
TEAM-DET3
 10
-244.81605
 20
51.99984
 30
0.0
 11
-244.81605
 21
124.99984
 31
0.0
  0
LINE
  5
C7
  8
TEAM-DET3
 10
-243.87671
 20
51.99984
 30
0.0
 11
-243.87671
 21
124.99984
 31
0.0
  0
LINE
  5
C8
  8
TEAM-DET3
 10
-254.93617
 20
124.99984
 30
0.0
 11
-254.93617
 21
51.99984
 31
0.0
  0
LINE
  5
C9
  8
TEAM-DET3
 10
-255.87671
 20
124.99984
 30
0.0
 11
-255.87671
 21
51.99984
 31
0.0
  0
CIRCLE
  5
CA
  8
TEAM-DET3
 10
-189.87671
 20
137.49984
 30
0.0
 40
6.0
  0
POINT
  5
CB
  8
TEAM-DET3
 10
-183.87671
 20
137.49984
 30
0.0
  0
POINT
  5
CC
  8
TEAM-DET3
 10
-186.87671
 20
142.695992
 30
0.0
  0
POINT
  5
CD
  8
TEAM-DET3
 10
-192.87671
 20
142.695992
 30
0.0
  0
POINT
  5
CE
  8
TEAM-DET3
 10
-195.87671
 20
137.49984
 30
0.0
  0
POINT
  5
CF
  8
TEAM-DET3
 10
-192.87671
 20
132.303688
 30
0.0
  0
POINT
  5
D0
  8
TEAM-DET3
 10
-186.87671
 20
132.303688
 30
0.0
  0
POLYLINE
  5
D1
  8
TEAM-DET3
 66
     1
 10
0.0
 20
0.0
 30
0.0
  0
VERTEX
  5
1EA
  8
TEAM-DET3
 10
-192.87671
 20
142.695992
 30
0.0
  0
VERTEX
  5
1EB
  8
TEAM-DET3
 10
-186.87671
 20
142.695992
 30
0.0
  0
VERTEX
  5
1EC
  8
TEAM-DET3
 10
-183.87671
 20
137.49984
 30
0.0
  0
VERTEX
  5
1ED
  8
TEAM-DET3
 10
-186.87671
 20
132.303688
 30
0.0
  0
VERTEX
  5
1EE
  8
TEAM-DET3
 10
-192.87671
 20
132.303688
 30
0.0
  0
VERTEX
  5
1EF
  8
TEAM-DET3
 10
-195.87671
 20
137.49984
 30
0.0
  0
VERTEX
  5
1F0
  8
TEAM-DET3
 10
-192.87671
 20
142.695992
 30
0.0
  0
SEQEND
  5
1F1
  8
TEAM-DET3
  0
CIRCLE
  5
D2
  8
TEAM-DET3
 10
189.87671
 20
137.49984
 30
0.0
 40
6.0
  0
POINT
  5
D3
  8
TEAM-DET3
 10
195.87671
 20
137.49984
 30
0.0
  0
POINT
  5
D4
  8
TEAM-DET3
 10
192.87671
 20
142.695992
 30
0.0
  0
POINT
  5
D5
  8
TEAM-DET3
 10
186.87671
 20
142.695992
 30
0.0
  0
POINT
  5
D6
  8
TEAM-DET3
 10
183.87671
 20
137.49984
 30
0.0
  0
POINT
  5
D7
  8
TEAM-DET3
 10
186.87671
 20
132.303688
 30
0.0
  0
POINT
  5
D8
  8
TEAM-DET3
 10
192.87671
 20
132.303688
 30
0.0
  0
POLYLINE
  5
D9
  8
TEAM-DET3
 66
     1
 10
0.0
 20
0.0
 30
0.0
  0
VERTEX
  5
1F2
  8
TEAM-DET3
 10
186.87671
 20
142.695992
 30
0.0
  0
VERTEX
  5
1F3
  8
TEAM-DET3
 10
192.87671
 20
142.695992
 30
0.0
  0
VERTEX
  5
1F4
  8
TEAM-DET3
 10
195.87671
 20
137.49984
 30
0.0
  0
VERTEX
  5
1F5
  8
TEAM-DET3
 10
192.87671
 20
132.303688
 30
0.0
  0
VERTEX
  5
1F6
  8
TEAM-DET3
 10
186.87671
 20
132.303688
 30
0.0
  0
VERTEX
  5
1F7
  8
TEAM-DET3
 10
183.87671
 20
137.49984
 30
0.0
  0
VERTEX
  5
1F8
  8
TEAM-DET3
 10
186.87671
 20
142.695992
 30
0.0
  0
SEQEND
  5
1F9
  8
TEAM-DET3
  0
CIRCLE
  5
DA
  8
TEAM-DET3
 10
105.0
 20
137.49984
 30
0.0
 40
6.0
  0
POINT
  5
DB
  8
TEAM-DET3
 10
111.0
 20
137.49984
 30
0.0
  0
POINT
  5
DC
  8
TEAM-DET3
 10
108.0
 20
142.695992
 30
0.0
  0
POINT
  5
DD
  8
TEAM-DET3
 10
102.0
 20
142.695992
 30
0.0
  0
POINT
  5
DE
  8
TEAM-DET3
 10
99.0
 20
137.49984
 30
0.0
  0
POINT
  5
DF
  8
TEAM-DET3
 10
102.0
 20
132.303688
 30
0.0
  0
POINT
  5
E0
  8
TEAM-DET3
 10
108.0
 20
132.303688
 30
0.0
  0
POLYLINE
  5
E1
  8
TEAM-DET3
 66
     1
 10
0.0
 20
0.0
 30
0.0
  0
VERTEX
  5
1FA
  8
TEAM-DET3
 10
102.0
 20
142.695992
 30
0.0
  0
VERTEX
  5
1FB
  8
TEAM-DET3
 10
108.0
 20
142.695992
 30
0.0
  0
VERTEX
  5
1FC
  8
TEAM-DET3
 10
111.0
 20
137.49984
 30
0.0
  0
VERTEX
  5
1FD
  8
TEAM-DET3
 10
108.0
 20
132.303688
 30
0.0
  0
VERTEX
  5
1FE
  8
TEAM-DET3
 10
102.0
 20
132.303688
 30
0.0
  0
VERTEX
  5
1FF
  8
TEAM-DET3
 10
99.0
 20
137.49984
 30
0.0
  0
VERTEX
  5
200
  8
TEAM-DET3
 10
102.0
 20
142.695992
 30
0.0
  0
SEQEND
  5
201
  8
TEAM-DET3
  0
CIRCLE
  5
E2
  8
TEAM-DET3
 10
-105.0
 20
137.49984
 30
0.0
 40
6.0
  0
POINT
  5
E3
  8
TEAM-DET3
 10
-99.0
 20
137.49984
 30
0.0
  0
POINT
  5
E4
  8
TEAM-DET3
 10
-102.0
 20
142.695992
 30
0.0
  0
POINT
  5
E5
  8
TEAM-DET3
 10
-108.0
 20
142.695992
 30
0.0
  0
POINT
  5
E6
  8
TEAM-DET3
 10
-111.0
 20
137.49984
 30
0.0
  0
POINT
  5
E7
  8
TEAM-DET3
 10
-108.0
 20
132.303688
 30
0.0
  0
POINT
  5
E8
  8
TEAM-DET3
 10
-102.0
 20
132.303688
 30
0.0
  0
POLYLINE
  5
E9
  8
TEAM-DET3
 66
     1
 10
0.0
 20
0.0
 30
0.0
  0
VERTEX
  5
202
  8
TEAM-DET3
 10
-108.0
 20
142.695992
 30
0.0
  0
VERTEX
  5
203
  8
TEAM-DET3
 10
-102.0
 20
142.695992
 30
0.0
  0
VERTEX
  5
204
  8
TEAM-DET3
 10
-99.0
 20
137.49984
 30
0.0
  0
VERTEX
  5
205
  8
TEAM-DET3
 10
-102.0
 20
132.303688
 30
0.0
  0
VERTEX
  5
206
  8
TEAM-DET3
 10
-108.0
 20
132.303688
 30
0.0
  0
VERTEX
  5
207
  8
TEAM-DET3
 10
-111.0
 20
137.49984
 30
0.0
  0
VERTEX
  5
208
  8
TEAM-DET3
 10
-108.0
 20
142.695992
 30
0.0
  0
SEQEND
  5
209
  8
TEAM-DET3
  0
POLYLINE
  5
EA
  8
TEAM-DET3
 66
     1
 10
0.0
 20
0.0
 30
0.0
  0
VERTEX
  5
20A
  8
TEAM-DET3
 10
131.87671
 20
142.695992
 30
0.0
  0
VERTEX
  5
20B
  8
TEAM-DET3
 10
137.87671
 20
142.695992
 30
0.0
  0
VERTEX
  5
20C
  8
TEAM-DET3
 10
140.87671
 20
137.49984
 30
0.0
  0
VERTEX
  5
20D
  8
TEAM-DET3
 10
137.87671
 20
132.303688
 30
0.0
  0
VERTEX
  5
20E
  8
TEAM-DET3
 10
131.87671
 20
132.303688
 30
0.0
  0
VERTEX
  5
20F
  8
TEAM-DET3
 10
128.87671
 20
137.49984
 30
0.0
  0
VERTEX
  5
210
  8
TEAM-DET3
 10
131.87671
 20
142.695992
 30
0.0
  0
SEQEND
  5
211
  8
TEAM-DET3
  0
POINT
  5
EB
  8
TEAM-DET3
 10
137.87671
 20
132.303688
 30
0.0
  0
POINT
  5
EC
  8
TEAM-DET3
 10
131.87671
 20
132.303688
 30
0.0
  0
POINT
  5
ED
  8
TEAM-DET3
 10
128.87671
 20
137.49984
 30
0.0
  0
POINT
  5
EE
  8
TEAM-DET3
 10
131.87671
 20
142.695992
 30
0.0
  0
POINT
  5
EF
  8
TEAM-DET3
 10
137.87671
 20
142.695992
 30
0.0
  0
POINT
  5
F0
  8
TEAM-DET3
 10
140.87671
 20
137.49984
 30
0.0
  0
CIRCLE
  5
F1
  8
TEAM-DET3
 10
134.87671
 20
137.49984
 30
0.0
 40
6.0
  0
POLYLINE
  5
F2
  8
TEAM-DET3
 66
     1
 10
0.0
 20
0.0
 30
0.0
  0
VERTEX
  5
212
  8
TEAM-DET3
 10
-137.87671
 20
142.695992
 30
0.0
  0
VERTEX
  5
213
  8
TEAM-DET3
 10
-131.87671
 20
142.695992
 30
0.0
  0
VERTEX
  5
214
  8
TEAM-DET3
 10
-128.87671
 20
137.49984
 30
0.0
  0
VERTEX
  5
215
  8
TEAM-DET3
 10
-131.87671
 20
132.303688
 30
0.0
  0
VERTEX
  5
216
  8
TEAM-DET3
 10
-137.87671
 20
132.303688
 30
0.0
  0
VERTEX
  5
217
  8
TEAM-DET3
 10
-140.87671
 20
137.49984
 30
0.0
  0
VERTEX
  5
218
  8
TEAM-DET3
 10
-137.87671
 20
142.695992
 30
0.0
  0
SEQEND
  5
219
  8
TEAM-DET3
  0
POINT
  5
F3
  8
TEAM-DET3
 10
-131.87671
 20
132.303688
 30
0.0
  0
POINT
  5
F4
  8
TEAM-DET3
 10
-137.87671
 20
132.303688
 30
0.0
  0
POINT
  5
F5
  8
TEAM-DET3
 10
-140.87671
 20
137.49984
 30
0.0
  0
POINT
  5
F6
  8
TEAM-DET3
 10
-137.87671
 20
142.695992
 30
0.0
  0
POINT
  5
F7
  8
TEAM-DET3
 10
-131.87671
 20
142.695992
 30
0.0
  0
POINT
  5
F8
  8
TEAM-DET3
 10
-128.87671
 20
137.49984
 30
0.0
  0
CIRCLE
  5
F9
  8
TEAM-DET3
 10
-134.87671
 20
137.49984
 30
0.0
 40
6.0
  0
ENDSEC
  0
EOF
