  0
SECTION
  2
HEADER
  9
$ACADVER
  1
AC1009
  9
$INSBASE
 10
0.0
 20
0.0
 30
0.0
  9
$EXTMIN
 10
-950.619118
 20
-10.010209
 30
-0.000003
  9
$EXTMAX
 10
899.208665
 20
678.061829
 30
0.000007
  9
$LIMMIN
 10
-950.619118
 20
-10.010209
  9
$LIMMAX
 10
899.208665
 20
678.061829
  9
$ORTHOMODE
 70
     1
  9
$REGENMODE
 70
     1
  9
$FILLMODE
 70
     1
  9
$QTEXTMODE
 70
     0
  9
$MIRRTEXT
 70
     0
  9
$DRAGMODE
 70
     2
  9
$LTSCALE
 40
50.0
  9
$OSMODE
 70
     7
  9
$ATTMODE
 70
     1
  9
$TEXTSIZE
 40
200.0
  9
$TRACEWID
 40
1.0
  9
$TEXTSTYLE
  7
STANDARD
  9
$CLAYER
  8
TEAM-MAS
  9
$CELTYPE
  6
BYLAYER
  9
$CECOLOR
 62
   256
  9
$DIMSCALE
 40
0.0
  9
$DIMASZ
 40
20.0
  9
$DIMEXO
 40
10.0
  9
$DIMDLI
 40
1.0
  9
$DIMRND
 40
0.0
  9
$DIMDLE
 40
0.0
  9
$DIMEXE
 40
1.0
  9
$DIMTP
 40
0.0
  9
$DIMTM
 40
0.0
  9
$DIMTXT
 40
35.0
  9
$DIMCEN
 40
1.0
  9
$DIMTSZ
 40
0.0
  9
$DIMTOL
 70
     0
  9
$DIMLIM
 70
     0
  9
$DIMTIH
 70
     0
  9
$DIMTOH
 70
     0
  9
$DIMSE1
 70
     0
  9
$DIMSE2
 70
     0
  9
$DIMTAD
 70
     0
  9
$DIMZIN
 70
     0
  9
$DIMBLK
  1

  9
$DIMASO
 70
     1
  9
$DIMSHO
 70
     0
  9
$DIMPOST
  1

  9
$DIMAPOST
  1

  9
$DIMALT
 70
     0
  9
$DIMALTD
 70
     2
  9
$DIMALTF
 40
25.4
  9
$DIMLFAC
 40
1.0
  9
$DIMTOFL
 70
     0
  9
$DIMTVP
 40
0.0
  9
$DIMTIX
 70
     0
  9
$DIMSOXD
 70
     0
  9
$DIMSAH
 70
     0
  9
$DIMBLK1
  1

  9
$DIMBLK2
  1

  9
$DIMSTYLE
  2
TEAM
  9
$DIMCLRD
 70
     9
  9
$DIMCLRE
 70
     9
  9
$DIMCLRT
 70
    11
  9
$DIMTFAC
 40
1.0
  9
$DIMGAP
 40
7.0
  9
$LUNITS
 70
     2
  9
$LUPREC
 70
     1
  9
$SKETCHINC
 40
1.0
  9
$FILLETRAD
 40
5.0
  9
$AUNITS
 70
     0
  9
$AUPREC
 70
     0
  9
$MENU
  1
ROPLANS
  9
$ELEVATION
 40
0.0
  9
$PELEVATION
 40
0.0
  9
$THICKNESS
 40
0.0
  9
$LIMCHECK
 70
     0
  9
$BLIPMODE
 70
     1
  9
$CHAMFERA
 40
0.0
  9
$CHAMFERB
 40
0.0
  9
$SKPOLY
 70
     0
  9
$TDCREATE
 40
2450392.957851
  9
$TDUPDATE
 40
2456004.599416
  9
$TDINDWG
 40
2.546599
  9
$TDUSRTIMER
 40
2.546599
  9
$USRTIMER
 70
     1
  9
$ANGBASE
 50
0.0
  9
$ANGDIR
 70
     0
  9
$PDMODE
 70
     0
  9
$PDSIZE
 40
0.0
  9
$PLINEWID
 40
0.0
  9
$COORDS
 70
     2
  9
$SPLFRAME
 70
     0
  9
$SPLINETYPE
 70
     6
  9
$SPLINESEGS
 70
     8
  9
$ATTDIA
 70
     0
  9
$ATTREQ
 70
     0
  9
$HANDLING
 70
     1
  9
$HANDSEED
  5
1AA
  9
$SURFTAB1
 70
    36
  9
$SURFTAB2
 70
    36
  9
$SURFTYPE
 70
     6
  9
$SURFU
 70
     6
  9
$SURFV
 70
     6
  9
$UCSNAME
  2

  9
$UCSORG
 10
0.0
 20
0.0
 30
0.0
  9
$UCSXDIR
 10
1.0
 20
0.0
 30
0.0
  9
$UCSYDIR
 10
0.0
 20
1.0
 30
0.0
  9
$PUCSNAME
  2

  9
$PUCSORG
 10
0.0
 20
0.0
 30
0.0
  9
$PUCSXDIR
 10
1.0
 20
0.0
 30
0.0
  9
$PUCSYDIR
 10
0.0
 20
1.0
 30
0.0
  9
$USERI1
 70
     0
  9
$USERI2
 70
     0
  9
$USERI3
 70
     0
  9
$USERI4
 70
     0
  9
$USERI5
 70
     0
  9
$USERR1
 40
0.0
  9
$USERR2
 40
0.0
  9
$USERR3
 40
0.0
  9
$USERR4
 40
0.0
  9
$USERR5
 40
0.0
  9
$WORLDVIEW
 70
     1
  9
$SHADEDGE
 70
     0
  9
$SHADEDIF
 70
    70
  9
$TILEMODE
 70
     1
  9
$MAXACTVP
 70
    16
  9
$PLIMCHECK
 70
     0
  9
$PEXTMIN
 10
-0.805942
 20
0.005011
 30
0.0
  9
$PEXTMAX
 10
20.250094
 20
11.356329
 30
0.0
  9
$PLIMMIN
 10
0.0
 20
0.0
  9
$PLIMMAX
 10
12.0
 20
9.0
  9
$UNITMODE
 70
     0
  9
$VISRETAIN
 70
     0
  9
$PLINEGEN
 70
     0
  9
$PSLTSCALE
 70
     0
  0
ENDSEC
  0
SECTION
  2
TABLES
  0
TABLE
  2
VPORT
 70
     2
  0
VPORT
  2
*ACTIVE
 70
     0
 10
0.0
 20
0.0
 11
1.0
 21
1.0
 12
-25.705227
 22
334.02581
 13
0.0
 23
0.0
 14
1.0
 24
1.0
 15
50.0
 25
50.0
 16
0.0
 26
0.0
 36
1.0
 17
0.0
 27
0.0
 37
0.0
 40
974.867734
 41
1.903766
 42
50.0
 43
0.0
 44
0.0
 50
0.0
 51
0.0
 71
     0
 72
   100
 73
     1
 74
     1
 75
     0
 76
     0
 77
     0
 78
     0
  0
ENDTAB
  0
TABLE
  2
LTYPE
 70
     3
  0
LTYPE
  2
CONTINUOUS
 70
     0
  3
Solid Line
 72
    65
 73
     0
 40
0.0
  0
LTYPE
  2
31
 70
     0
  3

 72
    65
 73
     4
 40
2.1
 49
1.5
 49
-0.3
 49
0.0
 49
-0.3
  0
LTYPE
  2
22
 70
     0
  3

 72
    65
 73
     2
 40
1.4
 49
1.2
 49
-0.2
  0
ENDTAB
  0
TABLE
  2
LAYER
 70
    11
  0
LAYER
  2
0
 70
     0
 62
     7
  6
CONTINUOUS
  0
LAYER
  2
DEFPOINTS
 70
     0
 62
     7
  6
CONTINUOUS
  0
LAYER
  2
TEAM-BODY
 70
     0
 62
     2
  6
CONTINUOUS
  0
LAYER
  2
TEAM-AXE
 70
     0
 62
    10
  6
31
  0
LAYER
  2
TEAM-MAS
 70
     0
 62
     9
  6
CONTINUOUS
  0
LAYER
  2
TEAM-TXT
 70
     0
 62
    11
  6
CONTINUOUS
  0
LAYER
  2
TEAM-DET1
 70
     0
 62
     4
  6
CONTINUOUS
  0
LAYER
  2
TEAM-HIDE
 70
     0
 62
     8
  6
22
  0
LAYER
  2
TEAM-KAN
 70
     0
 62
     6
  6
CONTINUOUS
  0
LAYER
  2
TEAM-DET3
 70
     0
 62
    14
  6
CONTINUOUS
  0
LAYER
  2
TEAM-INSP
 70
     0
 62
     5
  6
CONTINUOUS
  0
ENDTAB
  0
TABLE
  2
STYLE
 70
     2
  0
STYLE
  2
STANDARD
 70
     0
 40
0.0
 41
1.0
 50
0.0
 71
     0
 42
200.0
  3
txt
  4

  0
STYLE
  2
TEAM
 70
     0
 40
0.0
 41
0.8
 50
15.0
 71
     0
 42
7.0
  3
ROMANS.shx
  4

  0
ENDTAB
  0
TABLE
  2
VIEW
 70
     0
  0
ENDTAB
  0
TABLE
  2
UCS
 70
     0
  0
ENDTAB
  0
TABLE
  2
APPID
 70
     1
  0
APPID
  2
ACAD
 70
     0
  0
ENDTAB
  0
TABLE
  2
DIMSTYLE
 70
     1
  0
DIMSTYLE
  2
TEAM
 70
     0
  3

  4

  5

  6

  7

 40
0.0
 41
20.0
 42
10.0
 43
1.0
 44
1.0
 45
0.0
 46
0.0
 47
0.0
 48
0.0
140
35.0
141
1.0
142
0.0
143
25.4
144
1.0
145
0.0
146
1.0
147
7.0
 71
     0
 72
     0
 73
     0
 74
     0
 75
     0
 76
     0
 77
     0
 78
     0
170
     0
171
     2
172
     0
173
     0
174
     0
175
     0
176
     9
177
     9
178
    11
  0
ENDTAB
  0
ENDSEC
  0
SECTION
  2
BLOCKS
  0
BLOCK
  8
0
  2
$MODEL_SPACE
 70
     0
 10
0.0
 20
0.0
 30
0.0
  3
$MODEL_SPACE
  1

  0
ENDBLK
  5
17B
  8
0
  0
BLOCK
 67
     1
  8
0
  2
$PAPER_SPACE
 70
     0
 10
0.0
 20
0.0
 30
0.0
  3
$PAPER_SPACE
  1

  0
ENDBLK
  5
179
 67
     1
  8
0
  0
BLOCK
  8
0
  2
*D0
 70
     1
 10
0.0
 20
0.0
 30
0.0
  3
*D0
  1

  0
LINE
  5
44
  8
0
  6
BYBLOCK
 62
     9
 10
12854.844212
 20
44599.85
 30
0.0
 11
12882.623553
 21
44599.85
 31
0.0
  0
LINE
  5
45
  8
0
  6
BYBLOCK
 62
     9
 10
12010.008401
 20
44129.848818
 30
0.0
 11
12882.623553
 21
44129.848818
 31
0.0
  0
LINE
  5
46
  8
0
  6
BYBLOCK
 62
     9
 10
12881.623553
 20
44579.85
 30
0.0
 11
12881.623553
 21
44450.599409
 31
0.0
  0
LINE
  5
47
  8
0
  6
BYBLOCK
 62
     9
 10
12881.623553
 20
44149.848818
 30
0.0
 11
12881.623553
 21
44279.099409
 31
0.0
  0
SOLID
  5
48
  8
0
  6
BYBLOCK
 62
     9
 10
12878.290219
 20
44579.85
 30
0.0
 11
12884.956886
 21
44579.85
 31
0.0
 12
12881.623553
 22
44599.85
 32
0.0
 13
12881.623553
 23
44599.85
 33
0.0
  0
SOLID
  5
49
  8
0
  6
BYBLOCK
 62
     9
 10
12878.290219
 20
44149.848818
 30
0.0
 11
12884.956886
 21
44149.848818
 31
0.0
 12
12881.623553
 22
44129.848818
 32
0.0
 13
12881.623553
 23
44129.848818
 33
0.0
  0
TEXT
  5
4A
  8
0
  6
BYBLOCK
 62
    11
 10
12899.123553
 20
44286.099409
 30
0.0
 40
35.0
  1
470.00
 50
90.0
  0
POINT
  5
4B
  8
DEFPOINTS
  6
BYBLOCK
 62
     0
 10
12844.844212
 20
44599.85
 30
0.0
  0
POINT
  5
4C
  8
DEFPOINTS
  6
BYBLOCK
 62
     0
 10
12000.008401
 20
44129.848818
 30
0.0
  0
POINT
  5
4D
  8
DEFPOINTS
  6
BYBLOCK
 62
     0
 10
12881.623553
 20
44129.848818
 30
0.0
  0
ENDBLK
  5
4F
  8
0
  0
BLOCK
  8
0
  2
*D1
 70
     1
 10
0.0
 20
0.0
 30
0.0
  3
*D1
  1

  0
LINE
  5
22
  8
0
  6
BYBLOCK
 62
     9
 10
12850.0
 20
44564.848817
 30
0.0
 11
12850.0
 21
44637.389991
 31
0.0
  0
LINE
  5
23
  8
0
  6
BYBLOCK
 62
     9
 10
11150.0
 20
44564.848817
 30
0.0
 11
11150.0
 21
44637.389991
 31
0.0
  0
LINE
  5
24
  8
0
  6
BYBLOCK
 62
     9
 10
12830.0
 20
44636.389991
 30
0.0
 11
12094.5
 21
44636.389991
 31
0.0
  0
LINE
  5
25
  8
0
  6
BYBLOCK
 62
     9
 10
11170.0
 20
44636.389991
 30
0.0
 11
11905.5
 21
44636.389991
 31
0.0
  0
SOLID
  5
26
  8
0
  6
BYBLOCK
 62
     9
 10
12830.0
 20
44639.723324
 30
0.0
 11
12830.0
 21
44633.056658
 31
0.0
 12
12850.0
 22
44636.389991
 32
0.0
 13
12850.0
 23
44636.389991
 33
0.0
  0
SOLID
  5
27
  8
0
  6
BYBLOCK
 62
     9
 10
11170.0
 20
44639.723324
 30
0.0
 11
11170.0
 21
44633.056658
 31
0.0
 12
11150.0
 22
44636.389991
 32
0.0
 13
11150.0
 23
44636.389991
 33
0.0
  0
TEXT
  5
28
  8
0
  6
BYBLOCK
 62
    11
 10
11912.5
 20
44618.889991
 30
0.0
 40
35.0
  1
1700.00
  0
POINT
  5
29
  8
DEFPOINTS
  6
BYBLOCK
 62
     0
 10
12850.0
 20
44554.848817
 30
0.0
  0
POINT
  5
2B
  8
DEFPOINTS
  6
BYBLOCK
 62
     0
 10
11150.0
 20
44554.848817
 30
0.0
  0
POINT
  5
2C
  8
DEFPOINTS
  6
BYBLOCK
 62
     0
 10
11150.0
 20
44636.389991
 30
0.0
  0
ENDBLK
  5
2E
  8
0
  0
BLOCK
  8
0
  2
*D2
 70
     1
 10
0.0
 20
0.0
 30
0.0
  3
*D2
  1

  0
LINE
  5
34
  8
0
  6
BYBLOCK
 62
     9
 10
11150.0
 20
44619.848817
 30
0.0
 11
11094.980106
 21
44619.848817
 31
0.0
  0
LINE
  5
35
  8
0
  6
BYBLOCK
 62
     9
 10
11145.000761
 20
44574.848817
 30
0.0
 11
11094.980106
 21
44574.848817
 31
0.0
  0
LINE
  5
36
  8
0
  6
BYBLOCK
 62
     9
 10
11095.980106
 20
44639.848817
 30
0.0
 11
11095.980106
 21
44659.848817
 31
0.0
  0
LINE
  5
37
  8
0
  6
BYBLOCK
 62
     9
 10
11095.980106
 20
44554.848817
 30
0.0
 11
11095.980106
 21
44534.848817
 31
0.0
  0
TEXT
  5
38
  8
0
  6
BYBLOCK
 62
    11
 10
11084.480106
 20
44533.182151
 30
0.0
 40
35.0
  1
45.00
 50
90.0
  0
LINE
  5
39
  8
0
  6
BYBLOCK
 62
     9
 10
11095.980106
 20
44619.848817
 30
0.0
 11
11095.980106
 21
44574.848817
 31
0.0
  0
SOLID
  5
3A
  8
0
  6
BYBLOCK
 62
     9
 10
11092.646772
 20
44639.848817
 30
0.0
 11
11099.313439
 21
44639.848817
 31
0.0
 12
11095.980106
 22
44619.848817
 32
0.0
 13
11095.980106
 23
44619.848817
 33
0.0
  0
SOLID
  5
3B
  8
0
  6
BYBLOCK
 62
     9
 10
11092.646772
 20
44554.848817
 30
0.0
 11
11099.313439
 21
44554.848817
 31
0.0
 12
11095.980106
 22
44574.848817
 32
0.0
 13
11095.980106
 23
44574.848817
 33
0.0
  0
POINT
  5
3C
  8
DEFPOINTS
  6
BYBLOCK
 62
     0
 10
11160.0
 20
44619.848817
 30
0.0
  0
POINT
  5
3D
  8
DEFPOINTS
  6
BYBLOCK
 62
     0
 10
11155.000761
 20
44574.848817
 30
0.0
  0
POINT
  5
3E
  8
DEFPOINTS
  6
BYBLOCK
 62
     0
 10
11095.980106
 20
44574.848817
 30
0.0
  0
ENDBLK
  5
40
  8
0
  0
ENDSEC
  0
SECTION
  2
ENTITIES
  0
DIMENSION
  5
20
  8
TEAM-MAS
  2
*D1
 10
-850.0
 20
656.389991
 30
0.0
 11
0.0
 21
636.389991
 31
0.0
 12
-12000.0
 22
-43980.0
 32
0.0
 13
850.0
 23
574.848817
 33
0.0
 14
-850.0
 24
574.848817
 34
0.0
1001
ACAD
1000
DSTYLE
1002
{
1070
    78
1070
     0
1070
    40
1040
1.0
1002
}
  0
LINE
  5
2F
  8
TEAM-BODY
 10
-850.0
 20
574.848817
 30
0.0
 11
-792.990889
 21
574.848817
 31
0.0
  0
ARC
  5
31
  8
TEAM-BODY
 10
-839.126103
 20
609.827118
 30
0.0
 40
10.0
 50
87.155285
 51
179.0
  0
DIMENSION
  5
32
  8
TEAM-MAS
  2
*D2
 10
-904.019894
 20
574.848817
 30
0.0
 11
-933.019894
 21
597.348817
 31
0.0
 12
-12000.0
 22
-44000.0
 32
0.0
 13
-840.0
 23
619.848817
 33
0.0
 14
-844.999239
 24
574.848817
 34
0.0
 50
90.0
1001
ACAD
1000
DSTYLE
1002
{
1070
    40
1040
1.0
1002
}
  0
LINE
  5
41
  8
TEAM-BODY
 10
-850.0
 20
574.848817
 30
0.0
 11
-849.12458
 21
610.001642
 31
0.0
  0
DIMENSION
  5
42
  8
TEAM-MAS
  2
*D0
 10
881.623553
 20
149.848818
 30
0.0
 11
881.623553
 21
364.849409
 31
0.0
 12
-12000.0
 22
-43980.0
 32
0.0
 13
844.844212
 23
619.85
 33
0.0
 14
0.008401
 24
149.848818
 34
0.0
 50
90.0
1001
ACAD
1000
DSTYLE
1002
{
1070
    40
1040
1.0
1002
}
  0
LINE
  5
50
  8
TEAM-BODY
 10
619.950257
 20
337.91189
 30
0.0
 11
594.151601
 21
241.629996
 31
0.0
  0
LINE
  5
51
  8
TEAM-AXE
 10
0.0
 20
619.848817
 30
0.0
 11
0.0
 21
103.602894
 31
0.0
  0
LINE
  5
54
  8
TEAM-BODY
 10
-619.950258
 20
337.91189
 30
0.0
 11
-594.151602
 21
241.629996
 31
0.0
  0
LINE
  5
55
  8
TEAM-DET3
 10
119.313808
 20
129.939281
 30
0.0
 11
421.312999
 21
139.24036
 31
0.0
  0
LINE
  5
57
  8
TEAM-BODY
 10
500.126603
 20
167.540608
 30
0.0
 11
51.743984
 21
149.848406
 31
0.0
  0
ARC
  5
58
  8
TEAM-BODY
 10
52.233316
 20
139.860385
 30
0.0
 40
10.0
 50
92.804782
 51
120.0
  0
LINE
  5
59
  8
TEAM-DET3
 10
119.313808
 20
129.939281
 30
0.0
 11
97.595483
 21
151.657606
 31
0.0
  0
CIRCLE
  5
5A
  8
TEAM-INSP
 10
0.0
 20
0.0
 30
0.0
 40
10.0
  0
LINE
  5
5C
  8
TEAM-KAN
 10
25.09791
 20
131.699305
 30
0.0
 11
-25.097911
 21
131.699305
 31
0.0
  0
LINE
  5
5E
  8
TEAM-KAN
 10
-25.097911
 20
135.740757
 30
0.0
 11
25.09791
 21
135.740757
 31
0.0
  0
ARC
  5
5F
  8
TEAM-BODY
 10
-52.233317
 20
139.860385
 30
0.0
 40
10.0
 50
60.0
 51
87.195218
  0
LINE
  5
60
  8
TEAM-BODY
 10
-47.233317
 20
148.520639
 30
0.0
 11
-25.097911
 21
135.740757
 31
0.0
  0
LINE
  5
61
  8
TEAM-BODY
 10
-25.097911
 20
135.740757
 30
0.0
 11
-25.097911
 21
131.699305
 31
0.0
  0
LINE
  5
62
  8
TEAM-BODY
 10
25.09791
 20
135.740757
 30
0.0
 11
25.09791
 21
131.699305
 31
0.0
  0
ARC
  5
63
  8
TEAM-BODY
 10
-497.55902
 20
267.5119
 30
0.0
 40
100.0
 50
195.0
 51
268.0
  0
LINE
  5
64
  8
TEAM-DET3
 10
-421.313
 20
139.24036
 30
0.0
 11
-447.538226
 21
165.465585
 31
0.0
  0
LINE
  5
65
  8
TEAM-DET3
 10
-119.313809
 20
129.939281
 30
0.0
 11
-421.313
 21
139.24036
 31
0.0
  0
LINE
  5
66
  8
TEAM-DET3
 10
-119.313809
 20
129.939281
 30
0.0
 11
-97.595484
 21
151.657606
 31
0.0
  0
LINE
  5
67
  8
TEAM-BODY
 10
-500.126604
 20
167.540608
 30
0.0
 11
-51.743985
 21
149.848406
 31
0.0
  0
LINE
  5
68
  8
TEAM-BODY
 10
47.233316
 20
148.520639
 30
0.0
 11
25.09791
 21
135.740757
 31
0.0
  0
LINE
  5
69
  8
TEAM-BODY
 10
-51.743985
 20
149.848406
 30
0.0
 11
51.760787
 21
149.849229
 31
0.0
  0
ARC
  5
6A
  8
TEAM-BODY
 10
497.559019
 20
267.5119
 30
0.0
 40
100.0
 50
272.0
 51
345.0
  0
LINE
  5
6B
  8
TEAM-DET3
 10
421.312999
 20
139.24036
 30
0.0
 11
447.538225
 21
165.465585
 31
0.0
  0
ARC
  5
6C
  8
TEAM-DET1
 10
200.0
 20
161.001957
 30
0.0
 40
456.84686
 50
25.098154
 51
90.0
  0
LINE
  5
6E
  8
TEAM-BODY
 10
840.0
 20
619.848817
 30
0.0
 11
0.0
 21
619.848817
 31
0.0
  0
TEXT
  5
6F
  8
TEAM-TXT
 10
-726.845713
 20
570.174154
 30
0.0
 40
30.0
  1
team 121043
 41
0.8
 51
15.0
  7
TEAM
  0
ARC
  5
72
  8
TEAM-DET1
 10
-200.0
 20
161.001957
 30
0.0
 40
456.84686
 50
90.0
 51
154.901846
  0
LINE
  5
73
  8
TEAM-BODY
 10
-817.742274
 20
608.575046
 30
0.0
 11
-621.547612
 21
341.240261
 31
0.0
  0
ARC
  5
74
  8
TEAM-BODY
 10
-629.609516
 20
335.3237
 30
0.0
 40
10.0
 50
15.0
 51
36.27462
  0
ARC
  5
75
  8
TEAM-BODY
 10
-840.0
 20
592.240295
 30
0.0
 40
27.608522
 50
36.27462
 51
87.155285
  0
LINE
  5
76
  8
TEAM-BODY
 10
-840.0
 20
619.848817
 30
0.0
 11
0.0
 21
619.848817
 31
0.0
  0
LINE
  5
77
  8
TEAM-DET1
 10
-200.0
 20
617.848817
 30
0.0
 11
0.0
 21
617.848817
 31
0.0
  0
LINE
  5
78
  8
TEAM-DET1
 10
200.0
 20
617.848817
 30
0.0
 11
0.0
 21
617.848817
 31
0.0
  0
LINE
  5
79
  8
TEAM-BODY
 10
817.742273
 20
608.575046
 30
0.0
 11
621.547611
 21
341.240261
 31
0.0
  0
ARC
  5
7A
  8
TEAM-BODY
 10
629.609516
 20
335.3237
 30
0.0
 40
10.0
 50
143.72538
 51
165.0
  0
ARC
  5
7B
  8
TEAM-BODY
 10
840.0
 20
592.240295
 30
0.0
 40
27.608522
 50
92.844715
 51
143.72538
  0
LINE
  5
7C
  8
TEAM-BODY
 10
850.0
 20
574.848817
 30
0.0
 11
792.990888
 21
574.848817
 31
0.0
  0
LINE
  5
7D
  8
TEAM-BODY
 10
850.0
 20
574.848817
 30
0.0
 11
849.124579
 21
610.001642
 31
0.0
  0
ARC
  5
7E
  8
TEAM-BODY
 10
839.126102
 20
609.827118
 30
0.0
 40
10.0
 50
1.0
 51
92.844715
  0
LINE
  5
7F
  8
TEAM-HIDE
 10
-500.0
 20
-0.00016
 30
0.0
 11
500.0
 21
-0.00016
 31
0.0
  0
LINE
  5
82
  8
TEAM-DET3
 10
-383.87341
 20
134.813429
 30
0.0
 11
-383.12389
 21
134.063909
 31
0.0
  0
LINE
  5
83
  8
TEAM-DET3
 10
-384.12365
 20
135.063669
 30
0.0
 11
-383.87341
 21
134.813429
 31
0.0
  0
LINE
  5
84
  8
TEAM-DET3
 10
-394.37439
 20
134.813429
 30
0.0
 11
-395.12389
 21
134.063909
 31
0.0
  0
LINE
  5
85
  8
TEAM-DET3
 10
-394.12415
 20
135.063669
 30
0.0
 11
-394.37439
 21
134.813429
 31
0.0
  0
LINE
  5
86
  8
TEAM-DET3
 10
-383.87341
 20
134.813429
 30
0.0
 11
-383.87341
 21
130.626768
 31
0.0
  0
LINE
  5
87
  8
TEAM-DET3
 10
-394.37439
 20
134.813429
 30
0.0
 11
-394.37317
 21
130.626768
 31
0.0
  0
LINE
  5
88
  8
TEAM-DET3
 10
-383.12389
 20
130.626768
 30
0.0
 11
-383.12389
 21
134.063909
 31
0.0
  0
LINE
  5
89
  8
TEAM-DET3
 10
-395.12389
 20
134.063909
 30
0.0
 11
-395.12389
 21
130.626768
 31
0.0
  0
LINE
  5
8A
  8
TEAM-DET3
 10
-395.12389
 20
134.063909
 30
0.0
 11
-383.12389
 21
134.063909
 31
0.0
  0
LINE
  5
8B
  8
TEAM-DET3
 10
-394.12415
 20
135.063669
 30
0.0
 11
-384.12365
 21
135.063669
 31
0.0
  0
POLYLINE
  5
8C
  8
TEAM-DET3
 66
     1
 10
0.0
 20
0.0
 30
0.0
  0
VERTEX
  5
181
  8
TEAM-DET3
 10
-409.0
 20
147.99984
 30
0.0
  0
VERTEX
  5
182
  8
TEAM-DET3
 10
-409.0
 20
130.626768
 30
0.0
  0
VERTEX
  5
183
  8
TEAM-DET3
 10
-369.0
 20
130.626768
 30
0.0
  0
VERTEX
  5
184
  8
TEAM-DET3
 10
-369.0
 20
147.99984
 30
0.0
  0
SEQEND
  5
185
  8
TEAM-DET3
  0
LINE
  5
8D
  8
TEAM-DET3
 10
-415.0
 20
124.99984
 30
0.0
 11
-413.0
 21
124.99984
 31
0.0
  0
LINE
  5
8E
  8
TEAM-DET3
 10
-365.0
 20
124.99984
 30
0.0
 11
-363.0
 21
124.99984
 31
0.0
  0
POLYLINE
  5
8F
  8
TEAM-DET3
 66
     1
 10
0.0
 20
0.0
 30
0.0
  0
VERTEX
  5
186
  8
TEAM-DET3
 10
-415.0
 20
124.99984
 30
0.0
  0
VERTEX
  5
187
  8
TEAM-DET3
 10
-415.0
 20
149.99984
 30
0.0
  0
VERTEX
  5
188
  8
TEAM-DET3
 10
-363.0
 20
149.99984
 30
0.0
  0
VERTEX
  5
189
  8
TEAM-DET3
 10
-363.0
 20
124.99984
 30
0.0
  0
SEQEND
  5
18A
  8
TEAM-DET3
  0
POLYLINE
  5
90
  8
TEAM-DET3
 66
     1
 10
0.0
 20
0.0
 30
0.0
  0
VERTEX
  5
18B
  8
TEAM-DET3
 10
-413.0
 20
124.99984
 30
0.0
  0
VERTEX
  5
18C
  8
TEAM-DET3
 10
-413.0
 20
147.99984
 30
0.0
  0
VERTEX
  5
18D
  8
TEAM-DET3
 10
-365.0
 20
147.99984
 30
0.0
  0
VERTEX
  5
18E
  8
TEAM-DET3
 10
-365.0
 20
124.99984
 30
0.0
  0
SEQEND
  5
18F
  8
TEAM-DET3
  0
POLYLINE
  5
91
  8
TEAM-DET3
 66
     1
 10
0.0
 20
0.0
 30
0.0
  0
VERTEX
  5
190
  8
TEAM-DET3
 10
-413.0
 20
147.99984
 30
0.0
  0
VERTEX
  5
191
  8
TEAM-DET3
 10
-413.0
 20
126.626768
 30
0.0
  0
VERTEX
  5
192
  8
TEAM-DET3
 10
-365.0
 20
126.626768
 30
0.0
  0
VERTEX
  5
193
  8
TEAM-DET3
 10
-365.0
 20
147.99984
 30
0.0
  0
SEQEND
  5
194
  8
TEAM-DET3
  0
LINE
  5
92
  8
TEAM-DET3
 10
-419.0
 20
145.313304
 30
0.0
 11
-415.0
 21
145.313304
 31
0.0
  0
LINE
  5
93
  8
TEAM-DET3
 10
-419.0
 20
133.313304
 30
0.0
 11
-415.0
 21
133.313304
 31
0.0
  0
LINE
  5
94
  8
TEAM-DET3
 10
-363.0
 20
145.313304
 30
0.0
 11
-359.0
 21
145.313304
 31
0.0
  0
LINE
  5
95
  8
TEAM-DET3
 10
-363.0
 20
133.313304
 30
0.0
 11
-359.0
 21
133.313304
 31
0.0
  0
LINE
  5
96
  8
TEAM-DET3
 10
-419.0
 20
145.313304
 30
0.0
 11
-419.0
 21
133.313304
 31
0.0
  0
LINE
  5
97
  8
TEAM-DET3
 10
-406.0
 20
142.313304
 30
0.0
 11
-406.0
 21
136.313304
 31
0.0
  0
LINE
  5
98
  8
TEAM-DET3
 10
-372.0
 20
142.313304
 30
0.0
 11
-372.0
 21
136.313304
 31
0.0
  0
LINE
  5
99
  8
TEAM-DET3
 10
-359.0
 20
145.313304
 30
0.0
 11
-359.0
 21
133.313304
 31
0.0
  0
LINE
  5
9A
  8
TEAM-DET3
 10
-372.0
 20
142.313304
 30
0.0
 11
-369.0
 21
142.313304
 31
0.0
  0
LINE
  5
9B
  8
TEAM-DET3
 10
-363.0
 20
142.313304
 30
0.0
 11
-359.0
 21
142.313304
 31
0.0
  0
LINE
  5
9C
  8
TEAM-DET3
 10
-372.0
 20
136.313304
 30
0.0
 11
-369.0
 21
136.313304
 31
0.0
  0
LINE
  5
9D
  8
TEAM-DET3
 10
-363.0
 20
136.313304
 30
0.0
 11
-359.0
 21
136.313304
 31
0.0
  0
LINE
  5
9E
  8
TEAM-DET3
 10
-419.0
 20
142.313304
 30
0.0
 11
-415.0
 21
142.313304
 31
0.0
  0
LINE
  5
9F
  8
TEAM-DET3
 10
-409.0
 20
142.313304
 30
0.0
 11
-406.0
 21
142.313304
 31
0.0
  0
LINE
  5
A0
  8
TEAM-DET3
 10
-419.0
 20
136.313304
 30
0.0
 11
-415.0
 21
136.313304
 31
0.0
  0
LINE
  5
A1
  8
TEAM-DET3
 10
-409.0
 20
136.313304
 30
0.0
 11
-406.0
 21
136.313304
 31
0.0
  0
LINE
  5
A2
  8
TEAM-DET3
 10
-402.1239
 20
0.0
 30
0.0
 11
-376.1239
 21
0.0
 31
0.0
  0
LINE
  5
A3
  8
TEAM-DET3
 10
-402.1239
 20
9.99984
 30
0.0
 11
-376.1239
 21
9.99984
 31
0.0
  0
LINE
  5
A4
  8
TEAM-DET3
 10
-376.1239
 20
9.99984
 30
0.0
 11
-376.1239
 21
0.0
 31
0.0
  0
LINE
  5
A5
  8
TEAM-DET3
 10
-402.1239
 20
9.99984
 30
0.0
 11
-402.1239
 21
0.0
 31
0.0
  0
LINE
  5
A6
  8
TEAM-DET3
 10
-402.1239
 20
9.99984
 30
0.0
 11
-376.1239
 21
9.99984
 31
0.0
  0
LINE
  5
A7
  8
TEAM-DET3
 10
-395.00061
 20
9.99984
 30
0.0
 11
-395.00061
 21
0.0
 31
0.0
  0
LINE
  5
A8
  8
TEAM-DET3
 10
-383.00061
 20
0.0
 30
0.0
 11
-383.00061
 21
9.99984
 31
0.0
  0
LINE
  5
A9
  8
TEAM-DET3
 10
-398.00061
 20
51.99984
 30
0.0
 11
-380.00061
 21
51.99984
 31
0.0
  0
LINE
  5
AA
  8
TEAM-DET3
 10
-383.00061
 20
51.99984
 30
0.0
 11
-383.00061
 21
126.626768
 31
0.0
  0
LINE
  5
AB
  8
TEAM-DET3
 10
-395.00061
 20
126.626768
 30
0.0
 11
-395.00061
 21
51.99984
 31
0.0
  0
LINE
  5
AC
  8
TEAM-DET3
 10
-394.06007
 20
126.626768
 30
0.0
 11
-394.06007
 21
51.99984
 31
0.0
  0
LINE
  5
AD
  8
TEAM-DET3
 10
-383.93995
 20
51.99984
 30
0.0
 11
-383.93995
 21
126.626768
 31
0.0
  0
LINE
  5
AE
  8
TEAM-DET3
 10
-400.00061
 20
13.99984
 30
0.0
 11
-378.00061
 21
13.99984
 31
0.0
  0
LINE
  5
AF
  8
TEAM-DET3
 10
-399.00061
 20
40.99984
 30
0.0
 11
-379.00061
 21
40.99984
 31
0.0
  0
LINE
  5
B0
  8
TEAM-DET3
 10
-398.00061
 20
47.99984
 30
0.0
 11
-380.00061
 21
47.99984
 31
0.0
  0
LINE
  5
B1
  8
TEAM-DET3
 10
-378.00061
 20
13.99984
 30
0.0
 11
-379.00061
 21
40.99984
 31
0.0
  0
LINE
  5
B2
  8
TEAM-DET3
 10
-380.00061
 20
40.99984
 30
0.0
 11
-380.00061
 21
51.99984
 31
0.0
  0
LINE
  5
B3
  8
TEAM-DET3
 10
-398.00061
 20
51.99984
 30
0.0
 11
-398.00061
 21
40.99984
 31
0.0
  0
LINE
  5
B4
  8
TEAM-DET3
 10
-402.1239
 20
9.99984
 30
0.0
 11
-400.00061
 21
13.99984
 31
0.0
  0
LINE
  5
B5
  8
TEAM-DET3
 10
-376.1239
 20
9.99984
 30
0.0
 11
-378.00061
 21
13.99984
 31
0.0
  0
LINE
  5
B6
  8
TEAM-DET3
 10
-399.00061
 20
40.99984
 30
0.0
 11
-400.00061
 21
13.99984
 31
0.0
  0
LINE
  5
B7
  8
TEAM-DET3
 10
-393.858832
 20
51.99984
 30
0.0
 11
-393.858832
 21
47.99984
 31
0.0
  0
LINE
  5
B8
  8
TEAM-DET3
 10
-384.142388
 20
51.99984
 30
0.0
 11
-384.142388
 21
47.99984
 31
0.0
  0
LINE
  5
B9
  8
TEAM-DET3
 10
-389.00061
 20
40.99984
 30
0.0
 11
-389.00061
 21
13.99984
 31
0.0
  0
LINE
  5
BA
  8
TEAM-DET3
 10
-393.767181
 20
40.99984
 30
0.0
 11
-394.767181
 21
13.99984
 31
0.0
  0
LINE
  5
BB
  8
TEAM-DET3
 10
-384.234039
 20
40.99984
 30
0.0
 11
-383.234039
 21
13.99984
 31
0.0
  0
LINE
  5
BC
  8
TEAM-DET3
 10
384.234039
 20
40.99984
 30
0.0
 11
383.234039
 21
13.99984
 31
0.0
  0
LINE
  5
BD
  8
TEAM-DET3
 10
393.767181
 20
40.99984
 30
0.0
 11
394.767181
 21
13.99984
 31
0.0
  0
LINE
  5
BE
  8
TEAM-DET3
 10
389.00061
 20
40.99984
 30
0.0
 11
389.00061
 21
13.99984
 31
0.0
  0
LINE
  5
BF
  8
TEAM-DET3
 10
384.142388
 20
51.99984
 30
0.0
 11
384.142388
 21
47.99984
 31
0.0
  0
LINE
  5
C0
  8
TEAM-DET3
 10
393.858832
 20
51.99984
 30
0.0
 11
393.858832
 21
47.99984
 31
0.0
  0
LINE
  5
C1
  8
TEAM-DET3
 10
399.00061
 20
40.99984
 30
0.0
 11
400.00061
 21
13.99984
 31
0.0
  0
LINE
  5
C2
  8
TEAM-DET3
 10
376.1239
 20
9.99984
 30
0.0
 11
378.00061
 21
13.99984
 31
0.0
  0
LINE
  5
C3
  8
TEAM-DET3
 10
402.1239
 20
9.99984
 30
0.0
 11
400.00061
 21
13.99984
 31
0.0
  0
LINE
  5
C4
  8
TEAM-DET3
 10
398.00061
 20
51.99984
 30
0.0
 11
398.00061
 21
40.99984
 31
0.0
  0
LINE
  5
C5
  8
TEAM-DET3
 10
380.00061
 20
40.99984
 30
0.0
 11
380.00061
 21
51.99984
 31
0.0
  0
LINE
  5
C6
  8
TEAM-DET3
 10
378.00061
 20
13.99984
 30
0.0
 11
379.00061
 21
40.99984
 31
0.0
  0
LINE
  5
C7
  8
TEAM-DET3
 10
398.00061
 20
47.99984
 30
0.0
 11
380.00061
 21
47.99984
 31
0.0
  0
LINE
  5
C8
  8
TEAM-DET3
 10
399.00061
 20
40.99984
 30
0.0
 11
379.00061
 21
40.99984
 31
0.0
  0
LINE
  5
C9
  8
TEAM-DET3
 10
400.00061
 20
13.99984
 30
0.0
 11
378.00061
 21
13.99984
 31
0.0
  0
LINE
  5
CA
  8
TEAM-DET3
 10
383.93995
 20
51.99984
 30
0.0
 11
383.93995
 21
126.626768
 31
0.0
  0
LINE
  5
CB
  8
TEAM-DET3
 10
394.06007
 20
126.626768
 30
0.0
 11
394.06007
 21
51.99984
 31
0.0
  0
LINE
  5
CC
  8
TEAM-DET3
 10
395.00061
 20
126.626768
 30
0.0
 11
395.00061
 21
51.99984
 31
0.0
  0
LINE
  5
CD
  8
TEAM-DET3
 10
383.00061
 20
51.99984
 30
0.0
 11
383.00061
 21
126.626768
 31
0.0
  0
LINE
  5
CE
  8
TEAM-DET3
 10
398.00061
 20
51.99984
 30
0.0
 11
380.00061
 21
51.99984
 31
0.0
  0
LINE
  5
CF
  8
TEAM-DET3
 10
383.00061
 20
0.0
 30
0.0
 11
383.00061
 21
9.99984
 31
0.0
  0
LINE
  5
D0
  8
TEAM-DET3
 10
395.00061
 20
9.99984
 30
0.0
 11
395.00061
 21
0.0
 31
0.0
  0
LINE
  5
D1
  8
TEAM-DET3
 10
402.1239
 20
9.99984
 30
0.0
 11
376.1239
 21
9.99984
 31
0.0
  0
LINE
  5
D2
  8
TEAM-DET3
 10
402.1239
 20
9.99984
 30
0.0
 11
402.1239
 21
0.0
 31
0.0
  0
LINE
  5
D3
  8
TEAM-DET3
 10
376.1239
 20
9.99984
 30
0.0
 11
376.1239
 21
0.0
 31
0.0
  0
LINE
  5
D4
  8
TEAM-DET3
 10
402.1239
 20
9.99984
 30
0.0
 11
376.1239
 21
9.99984
 31
0.0
  0
LINE
  5
D5
  8
TEAM-DET3
 10
402.1239
 20
0.0
 30
0.0
 11
376.1239
 21
0.0
 31
0.0
  0
LINE
  5
D6
  8
TEAM-DET3
 10
409.0
 20
136.313304
 30
0.0
 11
406.0
 21
136.313304
 31
0.0
  0
LINE
  5
D7
  8
TEAM-DET3
 10
419.0
 20
136.313304
 30
0.0
 11
415.0
 21
136.313304
 31
0.0
  0
LINE
  5
D8
  8
TEAM-DET3
 10
409.0
 20
142.313304
 30
0.0
 11
406.0
 21
142.313304
 31
0.0
  0
LINE
  5
D9
  8
TEAM-DET3
 10
419.0
 20
142.313304
 30
0.0
 11
415.0
 21
142.313304
 31
0.0
  0
LINE
  5
DA
  8
TEAM-DET3
 10
363.0
 20
136.313304
 30
0.0
 11
359.0
 21
136.313304
 31
0.0
  0
LINE
  5
DB
  8
TEAM-DET3
 10
372.0
 20
136.313304
 30
0.0
 11
369.0
 21
136.313304
 31
0.0
  0
LINE
  5
DC
  8
TEAM-DET3
 10
363.0
 20
142.313304
 30
0.0
 11
359.0
 21
142.313304
 31
0.0
  0
LINE
  5
DD
  8
TEAM-DET3
 10
372.0
 20
142.313304
 30
0.0
 11
369.0
 21
142.313304
 31
0.0
  0
LINE
  5
DE
  8
TEAM-DET3
 10
359.0
 20
145.313304
 30
0.0
 11
359.0
 21
133.313304
 31
0.0
  0
LINE
  5
DF
  8
TEAM-DET3
 10
372.0
 20
142.313304
 30
0.0
 11
372.0
 21
136.313304
 31
0.0
  0
LINE
  5
E0
  8
TEAM-DET3
 10
406.0
 20
142.313304
 30
0.0
 11
406.0
 21
136.313304
 31
0.0
  0
LINE
  5
E1
  8
TEAM-DET3
 10
419.0
 20
145.313304
 30
0.0
 11
419.0
 21
133.313304
 31
0.0
  0
LINE
  5
E2
  8
TEAM-DET3
 10
363.0
 20
133.313304
 30
0.0
 11
359.0
 21
133.313304
 31
0.0
  0
LINE
  5
E3
  8
TEAM-DET3
 10
363.0
 20
145.313304
 30
0.0
 11
359.0
 21
145.313304
 31
0.0
  0
LINE
  5
E4
  8
TEAM-DET3
 10
419.0
 20
133.313304
 30
0.0
 11
415.0
 21
133.313304
 31
0.0
  0
LINE
  5
E5
  8
TEAM-DET3
 10
419.0
 20
145.313304
 30
0.0
 11
415.0
 21
145.313304
 31
0.0
  0
POLYLINE
  5
E6
  8
TEAM-DET3
 66
     1
 10
0.0
 20
0.0
 30
0.0
  0
VERTEX
  5
195
  8
TEAM-DET3
 10
413.0
 20
147.99984
 30
0.0
  0
VERTEX
  5
196
  8
TEAM-DET3
 10
413.0
 20
126.626768
 30
0.0
  0
VERTEX
  5
197
  8
TEAM-DET3
 10
365.0
 20
126.626768
 30
0.0
  0
VERTEX
  5
198
  8
TEAM-DET3
 10
365.0
 20
147.99984
 30
0.0
  0
SEQEND
  5
199
  8
TEAM-DET3
  0
POLYLINE
  5
E7
  8
TEAM-DET3
 66
     1
 10
0.0
 20
0.0
 30
0.0
  0
VERTEX
  5
19A
  8
TEAM-DET3
 10
413.0
 20
124.99984
 30
0.0
  0
VERTEX
  5
19B
  8
TEAM-DET3
 10
413.0
 20
147.99984
 30
0.0
  0
VERTEX
  5
19C
  8
TEAM-DET3
 10
365.0
 20
147.99984
 30
0.0
  0
VERTEX
  5
19D
  8
TEAM-DET3
 10
365.0
 20
124.99984
 30
0.0
  0
SEQEND
  5
19E
  8
TEAM-DET3
  0
POLYLINE
  5
E8
  8
TEAM-DET3
 66
     1
 10
0.0
 20
0.0
 30
0.0
  0
VERTEX
  5
19F
  8
TEAM-DET3
 10
415.0
 20
124.99984
 30
0.0
  0
VERTEX
  5
1A0
  8
TEAM-DET3
 10
415.0
 20
149.99984
 30
0.0
  0
VERTEX
  5
1A1
  8
TEAM-DET3
 10
363.0
 20
149.99984
 30
0.0
  0
VERTEX
  5
1A2
  8
TEAM-DET3
 10
363.0
 20
124.99984
 30
0.0
  0
SEQEND
  5
1A3
  8
TEAM-DET3
  0
LINE
  5
E9
  8
TEAM-DET3
 10
365.0
 20
124.99984
 30
0.0
 11
363.0
 21
124.99984
 31
0.0
  0
LINE
  5
EA
  8
TEAM-DET3
 10
415.0
 20
124.99984
 30
0.0
 11
413.0
 21
124.99984
 31
0.0
  0
POLYLINE
  5
EB
  8
TEAM-DET3
 66
     1
 10
0.0
 20
0.0
 30
0.0
  0
VERTEX
  5
1A4
  8
TEAM-DET3
 10
409.0
 20
147.99984
 30
0.0
  0
VERTEX
  5
1A5
  8
TEAM-DET3
 10
409.0
 20
130.626768
 30
0.0
  0
VERTEX
  5
1A6
  8
TEAM-DET3
 10
369.0
 20
130.626768
 30
0.0
  0
VERTEX
  5
1A7
  8
TEAM-DET3
 10
369.0
 20
147.99984
 30
0.0
  0
SEQEND
  5
1A8
  8
TEAM-DET3
  0
LINE
  5
EC
  8
TEAM-DET3
 10
394.12415
 20
135.063669
 30
0.0
 11
384.12365
 21
135.063669
 31
0.0
  0
LINE
  5
ED
  8
TEAM-DET3
 10
395.12389
 20
134.063909
 30
0.0
 11
383.12389
 21
134.063909
 31
0.0
  0
LINE
  5
EE
  8
TEAM-DET3
 10
395.12389
 20
134.063909
 30
0.0
 11
395.12389
 21
130.626768
 31
0.0
  0
LINE
  5
EF
  8
TEAM-DET3
 10
383.12389
 20
130.626768
 30
0.0
 11
383.12389
 21
134.063909
 31
0.0
  0
LINE
  5
F0
  8
TEAM-DET3
 10
394.37439
 20
134.813429
 30
0.0
 11
394.37317
 21
130.626768
 31
0.0
  0
LINE
  5
F1
  8
TEAM-DET3
 10
383.87341
 20
134.813429
 30
0.0
 11
383.87341
 21
130.626768
 31
0.0
  0
LINE
  5
F2
  8
TEAM-DET3
 10
394.12415
 20
135.063669
 30
0.0
 11
394.37439
 21
134.813429
 31
0.0
  0
LINE
  5
F3
  8
TEAM-DET3
 10
394.37439
 20
134.813429
 30
0.0
 11
395.12389
 21
134.063909
 31
0.0
  0
LINE
  5
F4
  8
TEAM-DET3
 10
384.12365
 20
135.063669
 30
0.0
 11
383.87341
 21
134.813429
 31
0.0
  0
LINE
  5
F5
  8
TEAM-DET3
 10
383.87341
 20
134.813429
 30
0.0
 11
383.12389
 21
134.063909
 31
0.0
  0
ENDSEC
  0
EOF
