  0
SECTION
  2
HEADER
  9
$ACADVER
  1
AC1009
  9
$INSBASE
 10
0.0
 20
0.0
 30
0.0
  9
$EXTMIN
 10
-933.069875
 20
-465.512313
 30
-0.000003
  9
$EXTMAX
 10
907.653265
 20
377.099889
 30
0.000007
  9
$LIMMIN
 10
-933.069875
 20
-465.512313
  9
$LIMMAX
 10
907.653265
 20
377.099889
  9
$ORTHOMODE
 70
     1
  9
$REGENMODE
 70
     1
  9
$FILLMODE
 70
     1
  9
$QTEXTMODE
 70
     0
  9
$MIRRTEXT
 70
     0
  9
$DRAGMODE
 70
     2
  9
$LTSCALE
 40
50.0
  9
$OSMODE
 70
     7
  9
$ATTMODE
 70
     1
  9
$TEXTSIZE
 40
200.0
  9
$TRACEWID
 40
1.0
  9
$TEXTSTYLE
  7
STANDARD
  9
$CLAYER
  8
TEAM-MAS
  9
$CELTYPE
  6
BYLAYER
  9
$CECOLOR
 62
   256
  9
$DIMSCALE
 40
0.0
  9
$DIMASZ
 40
20.0
  9
$DIMEXO
 40
10.0
  9
$DIMDLI
 40
1.0
  9
$DIMRND
 40
0.0
  9
$DIMDLE
 40
0.0
  9
$DIMEXE
 40
1.0
  9
$DIMTP
 40
0.0
  9
$DIMTM
 40
0.0
  9
$DIMTXT
 40
35.0
  9
$DIMCEN
 40
1.0
  9
$DIMTSZ
 40
0.0
  9
$DIMTOL
 70
     0
  9
$DIMLIM
 70
     0
  9
$DIMTIH
 70
     0
  9
$DIMTOH
 70
     0
  9
$DIMSE1
 70
     0
  9
$DIMSE2
 70
     0
  9
$DIMTAD
 70
     0
  9
$DIMZIN
 70
     0
  9
$DIMBLK
  1

  9
$DIMASO
 70
     1
  9
$DIMSHO
 70
     0
  9
$DIMPOST
  1

  9
$DIMAPOST
  1

  9
$DIMALT
 70
     0
  9
$DIMALTD
 70
     2
  9
$DIMALTF
 40
25.4
  9
$DIMLFAC
 40
1.0
  9
$DIMTOFL
 70
     0
  9
$DIMTVP
 40
0.0
  9
$DIMTIX
 70
     0
  9
$DIMSOXD
 70
     0
  9
$DIMSAH
 70
     0
  9
$DIMBLK1
  1

  9
$DIMBLK2
  1

  9
$DIMSTYLE
  2
TEAM
  9
$DIMCLRD
 70
     9
  9
$DIMCLRE
 70
     9
  9
$DIMCLRT
 70
    11
  9
$DIMTFAC
 40
1.0
  9
$DIMGAP
 40
7.0
  9
$LUNITS
 70
     2
  9
$LUPREC
 70
     1
  9
$SKETCHINC
 40
1.0
  9
$FILLETRAD
 40
5.0
  9
$AUNITS
 70
     0
  9
$AUPREC
 70
     0
  9
$MENU
  1
ROPLANS
  9
$ELEVATION
 40
0.0
  9
$PELEVATION
 40
0.0
  9
$THICKNESS
 40
0.0
  9
$LIMCHECK
 70
     0
  9
$BLIPMODE
 70
     1
  9
$CHAMFERA
 40
0.0
  9
$CHAMFERB
 40
0.0
  9
$SKPOLY
 70
     0
  9
$TDCREATE
 40
2450392.957851
  9
$TDUPDATE
 40
2456004.599416
  9
$TDINDWG
 40
2.546599
  9
$TDUSRTIMER
 40
2.546599
  9
$USRTIMER
 70
     1
  9
$ANGBASE
 50
0.0
  9
$ANGDIR
 70
     0
  9
$PDMODE
 70
     0
  9
$PDSIZE
 40
0.0
  9
$PLINEWID
 40
0.0
  9
$COORDS
 70
     2
  9
$SPLFRAME
 70
     0
  9
$SPLINETYPE
 70
     6
  9
$SPLINESEGS
 70
     8
  9
$ATTDIA
 70
     0
  9
$ATTREQ
 70
     0
  9
$HANDLING
 70
     1
  9
$HANDSEED
  5
134
  9
$SURFTAB1
 70
    36
  9
$SURFTAB2
 70
    36
  9
$SURFTYPE
 70
     6
  9
$SURFU
 70
     6
  9
$SURFV
 70
     6
  9
$UCSNAME
  2

  9
$UCSORG
 10
0.0
 20
0.0
 30
0.0
  9
$UCSXDIR
 10
1.0
 20
0.0
 30
0.0
  9
$UCSYDIR
 10
0.0
 20
1.0
 30
0.0
  9
$PUCSNAME
  2

  9
$PUCSORG
 10
0.0
 20
0.0
 30
0.0
  9
$PUCSXDIR
 10
1.0
 20
0.0
 30
0.0
  9
$PUCSYDIR
 10
0.0
 20
1.0
 30
0.0
  9
$USERI1
 70
     0
  9
$USERI2
 70
     0
  9
$USERI3
 70
     0
  9
$USERI4
 70
     0
  9
$USERI5
 70
     0
  9
$USERR1
 40
0.0
  9
$USERR2
 40
0.0
  9
$USERR3
 40
0.0
  9
$USERR4
 40
0.0
  9
$USERR5
 40
0.0
  9
$WORLDVIEW
 70
     1
  9
$SHADEDGE
 70
     0
  9
$SHADEDIF
 70
    70
  9
$TILEMODE
 70
     1
  9
$MAXACTVP
 70
    16
  9
$PLIMCHECK
 70
     0
  9
$PEXTMIN
 10
-0.805942
 20
0.005011
 30
0.0
  9
$PEXTMAX
 10
20.250094
 20
11.356329
 30
0.0
  9
$PLIMMIN
 10
0.0
 20
0.0
  9
$PLIMMAX
 10
12.0
 20
9.0
  9
$UNITMODE
 70
     0
  9
$VISRETAIN
 70
     0
  9
$PLINEGEN
 70
     0
  9
$PSLTSCALE
 70
     0
  0
ENDSEC
  0
SECTION
  2
TABLES
  0
TABLE
  2
VPORT
 70
     2
  0
VPORT
  2
*ACTIVE
 70
     0
 10
0.0
 20
0.0
 11
1.0
 21
1.0
 12
-12.708305
 22
-44.206212
 13
0.0
 23
0.0
 14
1.0
 24
1.0
 15
50.0
 25
50.0
 16
0.0
 26
0.0
 36
1.0
 17
0.0
 27
0.0
 37
0.0
 40
970.069545
 41
1.903766
 42
50.0
 43
0.0
 44
0.0
 50
0.0
 51
0.0
 71
     0
 72
   100
 73
     1
 74
     1
 75
     0
 76
     0
 77
     0
 78
     0
  0
ENDTAB
  0
TABLE
  2
LTYPE
 70
     2
  0
LTYPE
  2
CONTINUOUS
 70
     0
  3
Solid Line
 72
    65
 73
     0
 40
0.0
  0
LTYPE
  2
31
 70
     0
  3

 72
    65
 73
     4
 40
2.1
 49
1.5
 49
-0.3
 49
0.0
 49
-0.3
  0
ENDTAB
  0
TABLE
  2
LAYER
 70
     8
  0
LAYER
  2
0
 70
     0
 62
     7
  6
CONTINUOUS
  0
LAYER
  2
DEFPOINTS
 70
     0
 62
     7
  6
CONTINUOUS
  0
LAYER
  2
TEAM-BODY
 70
     0
 62
     2
  6
CONTINUOUS
  0
LAYER
  2
TEAM-AXE
 70
     0
 62
    10
  6
31
  0
LAYER
  2
TEAM-MAS
 70
     0
 62
     9
  6
CONTINUOUS
  0
LAYER
  2
TEAM-TXT
 70
     0
 62
    11
  6
CONTINUOUS
  0
LAYER
  2
TEAM-DET1
 70
     0
 62
     4
  6
CONTINUOUS
  0
LAYER
  2
TEAM-INSP
 70
     0
 62
     5
  6
CONTINUOUS
  0
ENDTAB
  0
TABLE
  2
STYLE
 70
     2
  0
STYLE
  2
STANDARD
 70
     0
 40
0.0
 41
1.0
 50
0.0
 71
     0
 42
200.0
  3
txt
  4

  0
STYLE
  2
TEAM
 70
     0
 40
0.0
 41
0.8
 50
15.0
 71
     0
 42
7.0
  3
ROMANS.shx
  4

  0
ENDTAB
  0
TABLE
  2
VIEW
 70
     0
  0
ENDTAB
  0
TABLE
  2
UCS
 70
     0
  0
ENDTAB
  0
TABLE
  2
APPID
 70
     1
  0
APPID
  2
ACAD
 70
     0
  0
ENDTAB
  0
TABLE
  2
DIMSTYLE
 70
     1
  0
DIMSTYLE
  2
TEAM
 70
     0
  3

  4

  5

  6

  7

 40
0.0
 41
20.0
 42
10.0
 43
1.0
 44
1.0
 45
0.0
 46
0.0
 47
0.0
 48
0.0
140
35.0
141
1.0
142
0.0
143
25.4
144
1.0
145
0.0
146
1.0
147
7.0
 71
     0
 72
     0
 73
     0
 74
     0
 75
     0
 76
     0
 77
     0
 78
     0
170
     0
171
     2
172
     0
173
     0
174
     0
175
     0
176
     9
177
     9
178
    11
  0
ENDTAB
  0
ENDSEC
  0
SECTION
  2
BLOCKS
  0
BLOCK
  8
0
  2
$MODEL_SPACE
 70
     0
 10
0.0
 20
0.0
 30
0.0
  3
$MODEL_SPACE
  1

  0
ENDBLK
  5
104
  8
0
  0
BLOCK
 67
     1
  8
0
  2
$PAPER_SPACE
 70
     0
 10
0.0
 20
0.0
 30
0.0
  3
$PAPER_SPACE
  1

  0
ENDBLK
  5
102
 67
     1
  8
0
  0
BLOCK
  8
0
  2
*D0
 70
     1
 10
0.0
 20
0.0
 30
0.0
  3
*D0
  1

  0
LINE
  5
3D
  8
0
  6
BYBLOCK
 62
     9
 10
3150.0
 20
59625.0
 30
0.0
 11
3083.484684
 21
59625.0
 31
0.0
  0
LINE
  5
3E
  8
0
  6
BYBLOCK
 62
     9
 10
3150.0
 20
60375.0
 30
0.0
 11
3083.484684
 21
60375.0
 31
0.0
  0
LINE
  5
3F
  8
0
  6
BYBLOCK
 62
     9
 10
3084.484684
 20
59645.0
 30
0.0
 11
3084.484684
 21
59914.25
 31
0.0
  0
LINE
  5
40
  8
0
  6
BYBLOCK
 62
     9
 10
3084.484684
 20
60355.0
 30
0.0
 11
3084.484684
 21
60085.75
 31
0.0
  0
SOLID
  5
41
  8
0
  6
BYBLOCK
 62
     9
 10
3081.151351
 20
59645.0
 30
0.0
 11
3087.818018
 21
59645.0
 31
0.0
 12
3084.484684
 22
59625.0
 32
0.0
 13
3084.484684
 23
59625.0
 33
0.0
  0
SOLID
  5
42
  8
0
  6
BYBLOCK
 62
     9
 10
3081.151351
 20
60355.0
 30
0.0
 11
3087.818018
 21
60355.0
 31
0.0
 12
3084.484684
 22
60375.0
 32
0.0
 13
3084.484684
 23
60375.0
 33
0.0
  0
TEXT
  5
43
  8
0
  6
BYBLOCK
 62
    11
 10
3101.984684
 20
59921.25
 30
0.0
 40
35.0
  1
750.00
 50
90.0
  0
POINT
  5
44
  8
DEFPOINTS
  6
BYBLOCK
 62
     0
 10
3160.0
 20
59625.0
 30
0.0
  0
POINT
  5
45
  8
DEFPOINTS
  6
BYBLOCK
 62
     0
 10
3160.0
 20
60375.0
 30
0.0
  0
POINT
  5
46
  8
DEFPOINTS
  6
BYBLOCK
 62
     0
 10
3084.484684
 20
60375.0
 30
0.0
  0
ENDBLK
  5
48
  8
0
  0
BLOCK
  8
0
  2
*D1
 70
     1
 10
0.0
 20
0.0
 30
0.0
  3
*D1
  1

  0
LINE
  5
22
  8
0
  6
BYBLOCK
 62
     9
 10
4850.0
 20
59990.0
 30
0.0
 11
4850.0
 21
59551.006543
 31
0.0
  0
LINE
  5
23
  8
0
  6
BYBLOCK
 62
     9
 10
3150.0
 20
59625.0
 30
0.0
 11
3150.0
 21
59551.006543
 31
0.0
  0
LINE
  5
24
  8
0
  6
BYBLOCK
 62
     9
 10
4830.0
 20
59552.006543
 30
0.0
 11
4094.5
 21
59552.006543
 31
0.0
  0
LINE
  5
25
  8
0
  6
BYBLOCK
 62
     9
 10
3170.0
 20
59552.006543
 30
0.0
 11
3905.5
 21
59552.006543
 31
0.0
  0
SOLID
  5
26
  8
0
  6
BYBLOCK
 62
     9
 10
4830.0
 20
59555.339876
 30
0.0
 11
4830.0
 21
59548.67321
 31
0.0
 12
4850.0
 22
59552.006543
 32
0.0
 13
4850.0
 23
59552.006543
 33
0.0
  0
SOLID
  5
27
  8
0
  6
BYBLOCK
 62
     9
 10
3170.0
 20
59555.339876
 30
0.0
 11
3170.0
 21
59548.67321
 31
0.0
 12
3150.0
 22
59552.006543
 32
0.0
 13
3150.0
 23
59552.006543
 33
0.0
  0
TEXT
  5
28
  8
0
  6
BYBLOCK
 62
    11
 10
3912.5
 20
59534.506543
 30
0.0
 40
35.0
  1
1700.00
  0
POINT
  5
29
  8
DEFPOINTS
  6
BYBLOCK
 62
     0
 10
4850.0
 20
60000.0
 30
0.0
  0
POINT
  5
2B
  8
DEFPOINTS
  6
BYBLOCK
 62
     0
 10
3150.0
 20
59635.0
 30
0.0
  0
POINT
  5
2C
  8
DEFPOINTS
  6
BYBLOCK
 62
     0
 10
3150.0
 20
59552.006543
 30
0.0
  0
ENDBLK
  5
2E
  8
0
  0
BLOCK
  8
0
  2
*D2
 70
     1
 10
0.0
 20
0.0
 30
0.0
  3
*D2
  1

  0
LINE
  5
62
  8
0
  6
BYBLOCK
 62
     9
 10
4850.0
 20
59990.0
 30
0.0
 11
4850.0
 21
59586.463372
 31
0.0
  0
LINE
  5
63
  8
0
  6
BYBLOCK
 62
     9
 10
4545.0
 20
59990.0
 30
0.0
 11
4545.0
 21
59586.463372
 31
0.0
  0
LINE
  5
64
  8
0
  6
BYBLOCK
 62
     9
 10
4830.0
 20
59587.463372
 30
0.0
 11
4783.25
 21
59587.463372
 31
0.0
  0
LINE
  5
65
  8
0
  6
BYBLOCK
 62
     9
 10
4565.0
 20
59587.463372
 30
0.0
 11
4611.75
 21
59587.463372
 31
0.0
  0
SOLID
  5
66
  8
0
  6
BYBLOCK
 62
     9
 10
4830.0
 20
59590.796706
 30
0.0
 11
4830.0
 21
59584.130039
 31
0.0
 12
4850.0
 22
59587.463372
 32
0.0
 13
4850.0
 23
59587.463372
 33
0.0
  0
SOLID
  5
67
  8
0
  6
BYBLOCK
 62
     9
 10
4565.0
 20
59590.796706
 30
0.0
 11
4565.0
 21
59584.130039
 31
0.0
 12
4545.0
 22
59587.463372
 32
0.0
 13
4545.0
 23
59587.463372
 33
0.0
  0
TEXT
  5
68
  8
0
  6
BYBLOCK
 62
    11
 10
4618.75
 20
59569.963372
 30
0.0
 40
35.0
  1
305.00
  0
POINT
  5
69
  8
DEFPOINTS
  6
BYBLOCK
 62
     0
 10
4850.0
 20
60000.0
 30
0.0
  0
POINT
  5
6A
  8
DEFPOINTS
  6
BYBLOCK
 62
     0
 10
4545.0
 20
60000.0
 30
0.0
  0
POINT
  5
6B
  8
DEFPOINTS
  6
BYBLOCK
 62
     0
 10
4545.0
 20
59587.463372
 30
0.0
  0
ENDBLK
  5
6D
  8
0
  0
BLOCK
  8
0
  2
*D3
 70
     1
 10
0.0
 20
0.0
 30
0.0
  3
*D3
  1

  0
LINE
  5
74
  8
0
  6
BYBLOCK
 62
     9
 10
4850.0
 20
59625.0
 30
0.0
 11
4891.11544
 21
59625.0
 31
0.0
  0
LINE
  5
75
  8
0
  6
BYBLOCK
 62
     9
 10
4555.0
 20
60000.0
 30
0.0
 11
4891.11544
 21
60000.0
 31
0.0
  0
LINE
  5
76
  8
0
  6
BYBLOCK
 62
     9
 10
4890.11544
 20
59645.0
 30
0.0
 11
4890.11544
 21
59723.833333
 31
0.0
  0
LINE
  5
77
  8
0
  6
BYBLOCK
 62
     9
 10
4890.11544
 20
59980.0
 30
0.0
 11
4890.11544
 21
59901.166667
 31
0.0
  0
SOLID
  5
78
  8
0
  6
BYBLOCK
 62
     9
 10
4886.782107
 20
59645.0
 30
0.0
 11
4893.448774
 21
59645.0
 31
0.0
 12
4890.11544
 22
59625.0
 32
0.0
 13
4890.11544
 23
59625.0
 33
0.0
  0
SOLID
  5
79
  8
0
  6
BYBLOCK
 62
     9
 10
4886.782107
 20
59980.0
 30
0.0
 11
4893.448774
 21
59980.0
 31
0.0
 12
4890.11544
 22
60000.0
 32
0.0
 13
4890.11544
 23
60000.0
 33
0.0
  0
TEXT
  5
7A
  8
0
  6
BYBLOCK
 62
    11
 10
4907.61544
 20
59730.833333
 30
0.0
 40
35.0
  1
375.00
 50
90.0
  0
POINT
  5
7B
  8
DEFPOINTS
  6
BYBLOCK
 62
     0
 10
4840.0
 20
59625.0
 30
0.0
  0
POINT
  5
7C
  8
DEFPOINTS
  6
BYBLOCK
 62
     0
 10
4545.0
 20
60000.0
 30
0.0
  0
POINT
  5
7D
  8
DEFPOINTS
  6
BYBLOCK
 62
     0
 10
4890.11544
 20
60000.0
 30
0.0
  0
ENDBLK
  5
7F
  8
0
  0
ENDSEC
  0
SECTION
  2
ENTITIES
  0
DIMENSION
  5
20
  8
TEAM-MAS
  2
*D1
 10
-850.0
 20
-447.993457
 30
0.0
 11
0.0
 21
-447.993457
 31
0.0
 12
-4000.0
 22
-60000.0
 32
0.0
 13
850.0
 23
0.0
 33
0.0
 14
-850.0
 24
-365.0
 34
0.0
1001
ACAD
1000
DSTYLE
1002
{
1070
    40
1040
1.0
1002
}
  0
LINE
  5
2F
  8
TEAM-DET1
 10
695.00158
 20
-300.0
 30
0.0
 11
-749.99842
 21
-300.0
 31
0.0
  0
LINE
  5
31
  8
TEAM-BODY
 10
840.0
 20
-375.0
 30
0.0
 11
-840.0
 21
-375.0
 31
0.0
  0
LINE
  5
33
  8
TEAM-BODY
 10
554.731808
 20
-240.0
 30
0.0
 11
-385.267483
 21
-240.0
 31
0.0
  0
LINE
  5
34
  8
TEAM-AXE
 10
-850.0
 20
0.0
 30
0.0
 11
850.0
 21
0.0
 31
0.0
  0
LINE
  5
37
  8
TEAM-BODY
 10
554.731808
 20
240.0
 30
0.0
 11
-385.267483
 21
240.0
 31
0.0
  0
LINE
  5
38
  8
TEAM-DET1
 10
-749.99842
 20
300.0
 30
0.0
 11
695.00158
 21
300.0
 31
0.0
  0
LINE
  5
39
  8
TEAM-BODY
 10
-840.0
 20
375.0
 30
0.0
 11
840.0
 21
375.0
 31
0.0
  0
LINE
  5
3A
  8
TEAM-BODY
 10
-465.267483
 20
-160.0
 30
0.0
 11
-465.267483
 21
160.0
 31
0.0
  0
DIMENSION
  5
3B
  8
TEAM-MAS
  2
*D0
 10
-915.515316
 20
375.0
 30
0.0
 11
-915.515316
 21
0.0
 31
0.0
 12
-4000.0
 22
-60000.0
 32
0.0
 13
-840.0
 23
-375.0
 33
0.0
 14
-840.0
 24
375.0
 34
0.0
 50
90.0
1001
ACAD
1000
DSTYLE
1002
{
1070
    40
1040
1.0
1002
}
  0
LINE
  5
49
  8
TEAM-DET1
 10
-774.99842
 20
275.0
 30
0.0
 11
-774.99842
 21
-275.0
 31
0.0
  0
LINE
  5
4A
  8
TEAM-BODY
 10
-850.0
 20
365.0
 30
0.0
 11
-850.0
 21
-365.0
 31
0.0
  0
ARC
  5
4B
  8
TEAM-DET1
 10
-749.99842
 20
-275.0
 30
0.0
 40
25.0
 50
180.0
 51
270.0
  0
ARC
  5
4C
  8
TEAM-BODY
 10
-840.0
 20
-365.0
 30
0.0
 40
10.0
 50
180.0
 51
270.0
  0
ARC
  5
4D
  8
TEAM-BODY
 10
-385.267483
 20
-160.0
 30
0.0
 40
80.0
 50
180.0
 51
270.0
  0
LINE
  5
4E
  8
TEAM-BODY
 10
-75.0
 20
-300.0
 30
0.0
 11
-75.0
 21
-375.0
 31
0.0
  0
CIRCLE
  5
4F
  8
TEAM-INSP
 10
0.0
 20
0.0
 30
0.0
 40
10.0
  0
ARC
  5
51
  8
TEAM-BODY
 10
-385.267483
 20
160.0
 30
0.0
 40
80.0
 50
90.0
 51
180.0
  0
ARC
  5
52
  8
TEAM-DET1
 10
-749.99842
 20
275.0
 30
0.0
 40
25.0
 50
90.0
 51
180.0
  0
ARC
  5
53
  8
TEAM-BODY
 10
-840.0
 20
365.0
 30
0.0
 40
10.0
 50
90.0
 51
180.0
  0
TEXT
  5
54
  8
TEAM-TXT
 10
-787.900595
 20
319.271702
 30
0.0
 40
30.0
  1
team 121055
 41
0.8
 51
15.0
  7
TEAM
  0
LINE
  5
57
  8
TEAM-BODY
 10
-75.0
 20
375.0
 30
0.0
 11
-75.0
 21
300.0
 31
0.0
  0
LINE
  5
58
  8
TEAM-BODY
 10
634.731808
 20
-160.0
 30
0.0
 11
634.731808
 21
160.0
 31
0.0
  0
LINE
  5
59
  8
TEAM-BODY
 10
850.0
 20
365.0
 30
0.0
 11
850.0
 21
-365.0
 31
0.0
  0
LINE
  5
5A
  8
TEAM-DET1
 10
720.00158
 20
275.0
 30
0.0
 11
720.00158
 21
-275.0
 31
0.0
  0
POLYLINE
  5
5B
  8
TEAM-DET1
 66
     1
 10
0.0
 20
0.0
 30
0.0
 70
     1
  0
VERTEX
  5
10A
  8
TEAM-DET1
 10
701.118468
 20
23.966352
 30
0.0
  0
VERTEX
  5
10B
  8
TEAM-DET1
 10
700.21897
 20
23.646248
 30
0.0
  0
VERTEX
  5
10C
  8
TEAM-DET1
 10
699.34162
 20
22.693821
 30
0.0
  0
VERTEX
  5
10D
  8
TEAM-DET1
 10
698.508022
 20
21.132521
 30
0.0
  0
VERTEX
  5
10E
  8
TEAM-DET1
 10
697.738702
 20
19.000793
 30
0.0
  0
VERTEX
  5
10F
  8
TEAM-DET1
 10
697.052604
 20
16.351128
 30
0.0
  0
VERTEX
  5
110
  8
TEAM-DET1
 10
696.46662
 20
13.248768
 30
0.0
  0
VERTEX
  5
111
  8
TEAM-DET1
 10
695.99518
 20
9.770105
 30
0.0
  0
VERTEX
  5
112
  8
TEAM-DET1
 10
695.649893
 20
6.000793
 30
0.0
  0
VERTEX
  5
113
  8
TEAM-DET1
 10
695.43926
 20
2.033648
 30
0.0
  0
VERTEX
  5
114
  8
TEAM-DET1
 10
695.368468
 20
-2.033648
 30
0.0
  0
VERTEX
  5
115
  8
TEAM-DET1
 10
695.43926
 20
-6.100944
 30
0.0
  0
VERTEX
  5
116
  8
TEAM-DET1
 10
695.649893
 20
-10.06809
 30
0.0
  0
VERTEX
  5
117
  8
TEAM-DET1
 10
695.99518
 20
-13.837401
 30
0.0
  0
VERTEX
  5
118
  8
TEAM-DET1
 10
696.46662
 20
-17.316065
 30
0.0
  0
VERTEX
  5
119
  8
TEAM-DET1
 10
697.052604
 20
-20.418425
 30
0.0
  0
VERTEX
  5
11A
  8
TEAM-DET1
 10
697.738702
 20
-23.06809
 30
0.0
  0
VERTEX
  5
11B
  8
TEAM-DET1
 10
698.508022
 20
-25.199818
 30
0.0
  0
VERTEX
  5
11C
  8
TEAM-DET1
 10
699.34162
 20
-26.761118
 30
0.0
  0
VERTEX
  5
11D
  8
TEAM-DET1
 10
700.21897
 20
-27.713545
 30
0.0
  0
VERTEX
  5
11E
  8
TEAM-DET1
 10
701.118468
 20
-28.033648
 30
0.0
  0
VERTEX
  5
11F
  8
TEAM-DET1
 10
702.017966
 20
-27.713545
 30
0.0
  0
VERTEX
  5
120
  8
TEAM-DET1
 10
702.895315
 20
-26.761118
 30
0.0
  0
VERTEX
  5
121
  8
TEAM-DET1
 10
703.728913
 20
-25.199818
 30
0.0
  0
VERTEX
  5
122
  8
TEAM-DET1
 10
704.498233
 20
-23.06809
 30
0.0
  0
VERTEX
  5
123
  8
TEAM-DET1
 10
705.184332
 20
-20.418425
 30
0.0
  0
VERTEX
  5
124
  8
TEAM-DET1
 10
705.770315
 20
-17.316065
 30
0.0
  0
VERTEX
  5
125
  8
TEAM-DET1
 10
706.241755
 20
-13.837401
 30
0.0
  0
VERTEX
  5
126
  8
TEAM-DET1
 10
706.587043
 20
-10.06809
 30
0.0
  0
VERTEX
  5
127
  8
TEAM-DET1
 10
706.797676
 20
-6.100944
 30
0.0
  0
VERTEX
  5
128
  8
TEAM-DET1
 10
706.868468
 20
-2.033648
 30
0.0
  0
VERTEX
  5
129
  8
TEAM-DET1
 10
706.797676
 20
2.033648
 30
0.0
  0
VERTEX
  5
12A
  8
TEAM-DET1
 10
706.587043
 20
6.000793
 30
0.0
  0
VERTEX
  5
12B
  8
TEAM-DET1
 10
706.241755
 20
9.770105
 30
0.0
  0
VERTEX
  5
12C
  8
TEAM-DET1
 10
705.770315
 20
13.248768
 30
0.0
  0
VERTEX
  5
12D
  8
TEAM-DET1
 10
705.184332
 20
16.351128
 30
0.0
  0
VERTEX
  5
12E
  8
TEAM-DET1
 10
704.498233
 20
19.000793
 30
0.0
  0
VERTEX
  5
12F
  8
TEAM-DET1
 10
703.728913
 20
21.132521
 30
0.0
  0
VERTEX
  5
130
  8
TEAM-DET1
 10
702.895315
 20
22.693821
 30
0.0
  0
VERTEX
  5
131
  8
TEAM-DET1
 10
702.017966
 20
23.646248
 30
0.0
  0
SEQEND
  5
132
  8
TEAM-DET1
  0
CIRCLE
  5
5C
  8
TEAM-DET1
 10
545.0
 20
0.0
 30
0.0
 40
52.0
  0
CIRCLE
  5
5D
  8
TEAM-BODY
 10
545.0
 20
0.0
 30
0.0
 40
26.0
  0
ARC
  5
5E
  8
TEAM-BODY
 10
840.0
 20
-365.0
 30
0.0
 40
10.0
 50
270.0
 51
0.0
  0
ARC
  5
5F
  8
TEAM-DET1
 10
695.00158
 20
-275.0
 30
0.0
 40
25.0
 50
270.0
 51
0.0
  0
DIMENSION
  5
60
  8
TEAM-MAS
  2
*D2
 10
545.0
 20
-412.536628
 30
0.0
 11
697.5
 21
-412.536628
 31
0.0
 12
-4000.0
 22
-60000.0
 32
0.0
 13
850.0
 23
0.0
 33
0.0
 14
545.0
 24
0.0
 34
0.0
1001
ACAD
1000
DSTYLE
1002
{
1070
    40
1040
1.0
1002
}
  0
ARC
  5
6E
  8
TEAM-BODY
 10
554.731808
 20
-160.0
 30
0.0
 40
80.0
 50
270.0
 51
0.0
  0
ARC
  5
6F
  8
TEAM-DET1
 10
695.00158
 20
275.0
 30
0.0
 40
25.0
 50
0.0
 51
90.0
  0
ARC
  5
70
  8
TEAM-BODY
 10
554.731808
 20
160.0
 30
0.0
 40
80.0
 50
0.0
 51
90.0
  0
ARC
  5
71
  8
TEAM-BODY
 10
840.0
 20
365.0
 30
0.0
 40
10.0
 50
0.0
 51
90.0
  0
DIMENSION
  5
72
  8
TEAM-MAS
  2
*D3
 10
890.11544
 20
0.0
 30
0.0
 11
890.11544
 21
-187.5
 31
0.0
 12
-4000.0
 22
-60000.0
 32
0.0
 13
840.0
 23
-375.0
 33
0.0
 14
545.0
 24
0.0
 34
0.0
 50
90.0
1001
ACAD
1000
DSTYLE
1002
{
1070
    40
1040
1.0
1002
}
  0
ENDSEC
  0
EOF
