  0
SECTION
  2
HEADER
  9
$ACADVER
  1
AC1009
  9
$INSBASE
 10
0.0
 20
0.0
 30
0.0
  9
$EXTMIN
 10
-430.120599
 20
-10.00778
 30
-0.000003
  9
$EXTMAX
 10
476.651262
 20
721.284261
 30
0.000007
  9
$LIMMIN
 10
-430.120599
 20
-10.00778
  9
$LIMMAX
 10
476.651262
 20
721.284261
  9
$ORTHOMODE
 70
     1
  9
$REGENMODE
 70
     1
  9
$FILLMODE
 70
     1
  9
$QTEXTMODE
 70
     0
  9
$MIRRTEXT
 70
     0
  9
$DRAGMODE
 70
     2
  9
$LTSCALE
 40
50.0
  9
$OSMODE
 70
     7
  9
$ATTMODE
 70
     1
  9
$TEXTSIZE
 40
200.0
  9
$TRACEWID
 40
1.0
  9
$TEXTSTYLE
  7
STANDARD
  9
$CLAYER
  8
TEAM-MAS
  9
$CELTYPE
  6
BYLAYER
  9
$CECOLOR
 62
   256
  9
$DIMSCALE
 40
0.0
  9
$DIMASZ
 40
20.0
  9
$DIMEXO
 40
10.0
  9
$DIMDLI
 40
1.0
  9
$DIMRND
 40
0.0
  9
$DIMDLE
 40
0.0
  9
$DIMEXE
 40
1.0
  9
$DIMTP
 40
0.0
  9
$DIMTM
 40
0.0
  9
$DIMTXT
 40
35.0
  9
$DIMCEN
 40
1.0
  9
$DIMTSZ
 40
0.0
  9
$DIMTOL
 70
     0
  9
$DIMLIM
 70
     0
  9
$DIMTIH
 70
     0
  9
$DIMTOH
 70
     0
  9
$DIMSE1
 70
     0
  9
$DIMSE2
 70
     0
  9
$DIMTAD
 70
     0
  9
$DIMZIN
 70
     0
  9
$DIMBLK
  1

  9
$DIMASO
 70
     1
  9
$DIMSHO
 70
     0
  9
$DIMPOST
  1

  9
$DIMAPOST
  1

  9
$DIMALT
 70
     0
  9
$DIMALTD
 70
     2
  9
$DIMALTF
 40
25.4
  9
$DIMLFAC
 40
1.0
  9
$DIMTOFL
 70
     0
  9
$DIMTVP
 40
0.0
  9
$DIMTIX
 70
     0
  9
$DIMSOXD
 70
     0
  9
$DIMSAH
 70
     0
  9
$DIMBLK1
  1

  9
$DIMBLK2
  1

  9
$DIMSTYLE
  2
TEAM
  9
$DIMCLRD
 70
     9
  9
$DIMCLRE
 70
     9
  9
$DIMCLRT
 70
    11
  9
$DIMTFAC
 40
1.0
  9
$DIMGAP
 40
7.0
  9
$LUNITS
 70
     2
  9
$LUPREC
 70
     1
  9
$SKETCHINC
 40
1.0
  9
$FILLETRAD
 40
5.0
  9
$AUNITS
 70
     0
  9
$AUPREC
 70
     0
  9
$MENU
  1
ROPLANS
  9
$ELEVATION
 40
0.0
  9
$PELEVATION
 40
0.0
  9
$THICKNESS
 40
0.0
  9
$LIMCHECK
 70
     0
  9
$BLIPMODE
 70
     1
  9
$CHAMFERA
 40
0.0
  9
$CHAMFERB
 40
0.0
  9
$SKPOLY
 70
     0
  9
$TDCREATE
 40
2450392.957851
  9
$TDUPDATE
 40
2456004.599416
  9
$TDINDWG
 40
2.546599
  9
$TDUSRTIMER
 40
2.546599
  9
$USRTIMER
 70
     1
  9
$ANGBASE
 50
0.0
  9
$ANGDIR
 70
     0
  9
$PDMODE
 70
     0
  9
$PDSIZE
 40
0.0
  9
$PLINEWID
 40
0.0
  9
$COORDS
 70
     2
  9
$SPLFRAME
 70
     0
  9
$SPLINETYPE
 70
     6
  9
$SPLINESEGS
 70
     8
  9
$ATTDIA
 70
     0
  9
$ATTREQ
 70
     0
  9
$HANDLING
 70
     1
  9
$HANDSEED
  5
22E
  9
$SURFTAB1
 70
    36
  9
$SURFTAB2
 70
    36
  9
$SURFTYPE
 70
     6
  9
$SURFU
 70
     6
  9
$SURFV
 70
     6
  9
$UCSNAME
  2

  9
$UCSORG
 10
0.0
 20
0.0
 30
0.0
  9
$UCSXDIR
 10
1.0
 20
0.0
 30
0.0
  9
$UCSYDIR
 10
0.0
 20
1.0
 30
0.0
  9
$PUCSNAME
  2

  9
$PUCSORG
 10
0.0
 20
0.0
 30
0.0
  9
$PUCSXDIR
 10
1.0
 20
0.0
 30
0.0
  9
$PUCSYDIR
 10
0.0
 20
1.0
 30
0.0
  9
$USERI1
 70
     0
  9
$USERI2
 70
     0
  9
$USERI3
 70
     0
  9
$USERI4
 70
     0
  9
$USERI5
 70
     0
  9
$USERR1
 40
0.0
  9
$USERR2
 40
0.0
  9
$USERR3
 40
0.0
  9
$USERR4
 40
0.0
  9
$USERR5
 40
0.0
  9
$WORLDVIEW
 70
     1
  9
$SHADEDGE
 70
     0
  9
$SHADEDIF
 70
    70
  9
$TILEMODE
 70
     1
  9
$MAXACTVP
 70
    16
  9
$PLIMCHECK
 70
     0
  9
$PEXTMIN
 10
-0.805942
 20
0.005011
 30
0.0
  9
$PEXTMAX
 10
20.250094
 20
11.356329
 30
0.0
  9
$PLIMMIN
 10
0.0
 20
0.0
  9
$PLIMMAX
 10
12.0
 20
9.0
  9
$UNITMODE
 70
     0
  9
$VISRETAIN
 70
     0
  9
$PLINEGEN
 70
     0
  9
$PSLTSCALE
 70
     0
  0
ENDSEC
  0
SECTION
  2
TABLES
  0
TABLE
  2
VPORT
 70
     2
  0
VPORT
  2
*ACTIVE
 70
     0
 10
0.0
 20
0.0
 11
1.0
 21
1.0
 12
23.265332
 22
355.638241
 13
0.0
 23
0.0
 14
1.0
 24
1.0
 15
50.0
 25
50.0
 16
0.0
 26
0.0
 36
1.0
 17
0.0
 27
0.0
 37
0.0
 40
735.876944
 41
1.903766
 42
50.0
 43
0.0
 44
0.0
 50
0.0
 51
0.0
 71
     0
 72
   100
 73
     1
 74
     1
 75
     0
 76
     0
 77
     0
 78
     0
  0
ENDTAB
  0
TABLE
  2
LTYPE
 70
     2
  0
LTYPE
  2
CONTINUOUS
 70
     0
  3
Solid Line
 72
    65
 73
     0
 40
0.0
  0
LTYPE
  2
22
 70
     0
  3

 72
    65
 73
     2
 40
1.4
 49
1.2
 49
-0.2
  0
ENDTAB
  0
TABLE
  2
LAYER
 70
     9
  0
LAYER
  2
0
 70
     0
 62
     7
  6
CONTINUOUS
  0
LAYER
  2
DEFPOINTS
 70
     0
 62
     7
  6
CONTINUOUS
  0
LAYER
  2
TEAM-BODY
 70
     0
 62
     2
  6
CONTINUOUS
  0
LAYER
  2
TEAM-MAS
 70
     0
 62
     9
  6
CONTINUOUS
  0
LAYER
  2
TEAM-TXT
 70
     0
 62
    11
  6
CONTINUOUS
  0
LAYER
  2
TEAM-HIDE
 70
     0
 62
     8
  6
22
  0
LAYER
  2
TEAM-KAN
 70
     0
 62
     6
  6
CONTINUOUS
  0
LAYER
  2
TEAM-DET3
 70
     0
 62
    14
  6
CONTINUOUS
  0
LAYER
  2
TEAM-INSP
 70
     0
 62
     5
  6
CONTINUOUS
  0
ENDTAB
  0
TABLE
  2
STYLE
 70
     2
  0
STYLE
  2
STANDARD
 70
     0
 40
0.0
 41
1.0
 50
0.0
 71
     0
 42
200.0
  3
txt
  4

  0
STYLE
  2
TEAM
 70
     0
 40
0.0
 41
0.8
 50
15.0
 71
     0
 42
7.0
  3
ROMANS.shx
  4

  0
ENDTAB
  0
TABLE
  2
VIEW
 70
     0
  0
ENDTAB
  0
TABLE
  2
UCS
 70
     0
  0
ENDTAB
  0
TABLE
  2
APPID
 70
     1
  0
APPID
  2
ACAD
 70
     0
  0
ENDTAB
  0
TABLE
  2
DIMSTYLE
 70
     1
  0
DIMSTYLE
  2
TEAM
 70
     0
  3

  4

  5

  6

  7

 40
0.0
 41
20.0
 42
10.0
 43
1.0
 44
1.0
 45
0.0
 46
0.0
 47
0.0
 48
0.0
140
35.0
141
1.0
142
0.0
143
25.4
144
1.0
145
0.0
146
1.0
147
7.0
 71
     0
 72
     0
 73
     0
 74
     0
 75
     0
 76
     0
 77
     0
 78
     0
170
     0
171
     2
172
     0
173
     0
174
     0
175
     0
176
     9
177
     9
178
    11
  0
ENDTAB
  0
ENDSEC
  0
SECTION
  2
BLOCKS
  0
BLOCK
  8
0
  2
$MODEL_SPACE
 70
     0
 10
0.0
 20
0.0
 30
0.0
  3
$MODEL_SPACE
  1

  0
ENDBLK
  5
1DA
  8
0
  0
BLOCK
 67
     1
  8
0
  2
$PAPER_SPACE
 70
     0
 10
0.0
 20
0.0
 30
0.0
  3
$PAPER_SPACE
  1

  0
ENDBLK
  5
1D8
 67
     1
  8
0
  0
BLOCK
  8
0
  2
*D0
 70
     1
 10
0.0
 20
0.0
 30
0.0
  3
*D0
  1

  0
LINE
  5
51
  8
0
  6
BYBLOCK
 62
     9
 10
8379.0
 20
60620.0
 30
0.0
 11
8460.095774
 21
60620.0
 31
0.0
  0
LINE
  5
52
  8
0
  6
BYBLOCK
 62
     9
 10
8010.0
 20
60000.0
 30
0.0
 11
8460.095774
 21
60000.0
 31
0.0
  0
LINE
  5
53
  8
0
  6
BYBLOCK
 62
     9
 10
8459.095774
 20
60600.0
 30
0.0
 11
8459.095774
 21
60465.75
 31
0.0
  0
LINE
  5
54
  8
0
  6
BYBLOCK
 62
     9
 10
8459.095774
 20
60020.0
 30
0.0
 11
8459.095774
 21
60154.25
 31
0.0
  0
SOLID
  5
55
  8
0
  6
BYBLOCK
 62
     9
 10
8455.76244
 20
60600.0
 30
0.0
 11
8462.429107
 21
60600.0
 31
0.0
 12
8459.095774
 22
60620.0
 32
0.0
 13
8459.095774
 23
60620.0
 33
0.0
  0
SOLID
  5
56
  8
0
  6
BYBLOCK
 62
     9
 10
8455.76244
 20
60020.0
 30
0.0
 11
8462.429107
 21
60020.0
 31
0.0
 12
8459.095774
 22
60000.0
 32
0.0
 13
8459.095774
 23
60000.0
 33
0.0
  0
TEXT
  5
57
  8
0
  6
BYBLOCK
 62
    11
 10
8476.595774
 20
60161.25
 30
0.0
 40
35.0
  1
620.00-685
 50
90.0
  0
POINT
  5
58
  8
DEFPOINTS
  6
BYBLOCK
 62
     0
 10
8369.0
 20
60620.0
 30
0.0
  0
POINT
  5
59
  8
DEFPOINTS
  6
BYBLOCK
 62
     0
 10
8000.0
 20
60000.0
 30
0.0
  0
POINT
  5
5A
  8
DEFPOINTS
  6
BYBLOCK
 62
     0
 10
8459.095774
 20
60000.0
 30
0.0
  0
ENDBLK
  5
5C
  8
0
  0
BLOCK
  8
0
  2
*D1
 70
     1
 10
0.0
 20
0.0
 30
0.0
  3
*D1
  1

  0
LINE
  5
3E
  8
0
  6
BYBLOCK
 62
     9
 10
7621.0
 20
60700.0
 30
0.0
 11
7586.427529
 21
60700.0
 31
0.0
  0
LINE
  5
3F
  8
0
  6
BYBLOCK
 62
     9
 10
7621.0
 20
60600.0
 30
0.0
 11
7586.427529
 21
60600.0
 31
0.0
  0
LINE
  5
40
  8
0
  6
BYBLOCK
 62
     9
 10
7587.427529
 20
60680.0
 30
0.0
 11
7587.427529
 21
60620.0
 31
0.0
  0
TEXT
  5
41
  8
0
  6
BYBLOCK
 62
    11
 10
7604.927529
 20
60469.773682
 30
0.0
 40
35.0
  1
100.00
 50
90.0
  0
SOLID
  5
42
  8
0
  6
BYBLOCK
 62
     9
 10
7584.094195
 20
60680.0
 30
0.0
 11
7590.760862
 21
60680.0
 31
0.0
 12
7587.427529
 22
60700.0
 32
0.0
 13
7587.427529
 23
60700.0
 33
0.0
  0
SOLID
  5
43
  8
0
  6
BYBLOCK
 62
     9
 10
7584.094195
 20
60620.0
 30
0.0
 11
7590.760862
 21
60620.0
 31
0.0
 12
7587.427529
 22
60600.0
 32
0.0
 13
7587.427529
 23
60600.0
 33
0.0
  0
POINT
  5
44
  8
DEFPOINTS
  6
BYBLOCK
 62
     0
 10
7631.0
 20
60700.0
 30
0.0
  0
POINT
  5
45
  8
DEFPOINTS
  6
BYBLOCK
 62
     0
 10
7631.0
 20
60600.0
 30
0.0
  0
POINT
  5
46
  8
DEFPOINTS
  6
BYBLOCK
 62
     0
 10
7587.427529
 20
60600.0
 30
0.0
  0
ENDBLK
  5
48
  8
0
  0
BLOCK
  8
0
  2
*D2
 70
     1
 10
0.0
 20
0.0
 30
0.0
  3
*D2
  1

  0
LINE
  5
72
  8
0
  6
BYBLOCK
 62
     9
 10
8026.0
 20
60135.022198
 30
0.0
 11
8026.0
 21
60089.451075
 31
0.0
  0
LINE
  5
73
  8
0
  6
BYBLOCK
 62
     9
 10
7974.0
 20
60135.022198
 30
0.0
 11
7974.0
 21
60089.451075
 31
0.0
  0
LINE
  5
74
  8
0
  6
BYBLOCK
 62
     9
 10
8046.0
 20
60090.451075
 30
0.0
 11
8066.0
 21
60090.451075
 31
0.0
  0
LINE
  5
75
  8
0
  6
BYBLOCK
 62
     9
 10
7954.0
 20
60090.451075
 30
0.0
 11
7934.0
 21
60090.451075
 31
0.0
  0
TEXT
  5
76
  8
0
  6
BYBLOCK
 62
    11
 10
8054.227797
 20
60072.951075
 30
0.0
 40
35.0
  1
52.00
  0
LINE
  5
77
  8
0
  6
BYBLOCK
 62
     9
 10
8026.0
 20
60090.451075
 30
0.0
 11
7974.0
 21
60090.451075
 31
0.0
  0
SOLID
  5
78
  8
0
  6
BYBLOCK
 62
     9
 10
8046.0
 20
60093.784408
 30
0.0
 11
8046.0
 21
60087.117742
 31
0.0
 12
8026.0
 22
60090.451075
 32
0.0
 13
8026.0
 23
60090.451075
 33
0.0
  0
SOLID
  5
79
  8
0
  6
BYBLOCK
 62
     9
 10
7954.0
 20
60093.784408
 30
0.0
 11
7954.0
 21
60087.117742
 31
0.0
 12
7974.0
 22
60090.451075
 32
0.0
 13
7974.0
 23
60090.451075
 33
0.0
  0
POINT
  5
7A
  8
DEFPOINTS
  6
BYBLOCK
 62
     0
 10
8026.0
 20
60145.022198
 30
0.0
  0
POINT
  5
7B
  8
DEFPOINTS
  6
BYBLOCK
 62
     0
 10
7974.0
 20
60145.022198
 30
0.0
  0
POINT
  5
7C
  8
DEFPOINTS
  6
BYBLOCK
 62
     0
 10
7974.0
 20
60090.451075
 30
0.0
  0
ENDBLK
  5
7E
  8
0
  0
BLOCK
  8
0
  2
*D3
 70
     1
 10
0.0
 20
0.0
 30
0.0
  3
*D3
  1

  0
LINE
  5
24
  8
0
  6
BYBLOCK
 62
     9
 10
8375.0
 20
60604.0
 30
0.0
 11
8375.0
 21
60645.105791
 31
0.0
  0
LINE
  5
25
  8
0
  6
BYBLOCK
 62
     9
 10
7625.0
 20
60604.0
 30
0.0
 11
7625.0
 21
60645.105791
 31
0.0
  0
LINE
  5
26
  8
0
  6
BYBLOCK
 62
     9
 10
8355.0
 20
60644.105791
 30
0.0
 11
8085.75
 21
60644.105791
 31
0.0
  0
LINE
  5
27
  8
0
  6
BYBLOCK
 62
     9
 10
7645.0
 20
60644.105791
 30
0.0
 11
7914.25
 21
60644.105791
 31
0.0
  0
SOLID
  5
28
  8
0
  6
BYBLOCK
 62
     9
 10
8355.0
 20
60647.439124
 30
0.0
 11
8355.0
 21
60640.772458
 31
0.0
 12
8375.0
 22
60644.105791
 32
0.0
 13
8375.0
 23
60644.105791
 33
0.0
  0
SOLID
  5
29
  8
0
  6
BYBLOCK
 62
     9
 10
7645.0
 20
60647.439124
 30
0.0
 11
7645.0
 21
60640.772458
 31
0.0
 12
7625.0
 22
60644.105791
 32
0.0
 13
7625.0
 23
60644.105791
 33
0.0
  0
TEXT
  5
2A
  8
0
  6
BYBLOCK
 62
    11
 10
7921.25
 20
60626.605791
 30
0.0
 40
35.0
  1
750.00
  0
POINT
  5
2B
  8
DEFPOINTS
  6
BYBLOCK
 62
     0
 10
8375.0
 20
60594.0
 30
0.0
  0
POINT
  5
2D
  8
DEFPOINTS
  6
BYBLOCK
 62
     0
 10
7625.0
 20
60594.0
 30
0.0
  0
POINT
  5
2E
  8
DEFPOINTS
  6
BYBLOCK
 62
     0
 10
7625.0
 20
60644.105791
 30
0.0
  0
ENDBLK
  5
30
  8
0
  0
BLOCK
  8
0
  2
*D4
 70
     1
 10
0.0
 20
0.0
 30
0.0
  3
*D4
  1

  0
LINE
  5
5F
  8
0
  6
BYBLOCK
 62
     9
 10
8379.0
 20
60600.0
 30
0.0
 11
8413.673113
 21
60600.0
 31
0.0
  0
LINE
  5
60
  8
0
  6
BYBLOCK
 62
     9
 10
8036.53
 20
60129.999994
 30
0.0
 11
8413.673113
 21
60129.999994
 31
0.0
  0
LINE
  5
61
  8
0
  6
BYBLOCK
 62
     9
 10
8412.673113
 20
60580.0
 30
0.0
 11
8412.673113
 21
60450.749997
 31
0.0
  0
LINE
  5
62
  8
0
  6
BYBLOCK
 62
     9
 10
8412.673113
 20
60149.999994
 30
0.0
 11
8412.673113
 21
60279.249997
 31
0.0
  0
SOLID
  5
63
  8
0
  6
BYBLOCK
 62
     9
 10
8409.33978
 20
60580.0
 30
0.0
 11
8416.006446
 21
60580.0
 31
0.0
 12
8412.673113
 22
60600.0
 32
0.0
 13
8412.673113
 23
60600.0
 33
0.0
  0
SOLID
  5
64
  8
0
  6
BYBLOCK
 62
     9
 10
8409.33978
 20
60149.999994
 30
0.0
 11
8416.006446
 21
60149.999994
 31
0.0
 12
8412.673113
 22
60129.999994
 32
0.0
 13
8412.673113
 23
60129.999994
 33
0.0
  0
TEXT
  5
65
  8
0
  6
BYBLOCK
 62
    11
 10
8430.173113
 20
60286.249997
 30
0.0
 40
35.0
  1
470.00
 50
90.0
  0
POINT
  5
66
  8
DEFPOINTS
  6
BYBLOCK
 62
     0
 10
8369.0
 20
60600.0
 30
0.0
  0
POINT
  5
67
  8
DEFPOINTS
  6
BYBLOCK
 62
     0
 10
8026.53
 20
60129.999994
 30
0.0
  0
POINT
  5
68
  8
DEFPOINTS
  6
BYBLOCK
 62
     0
 10
8412.673113
 20
60129.999994
 30
0.0
  0
ENDBLK
  5
6A
  8
0
  0
ENDSEC
  0
SECTION
  2
ENTITIES
  0
LINE
  5
20
  8
TEAM-BODY
 10
-369.0
 20
720.0
 30
0.0
 11
369.0
 21
720.0
 31
0.0
  0
DIMENSION
  5
22
  8
TEAM-MAS
  2
*D3
 10
-375.0
 20
664.105791
 30
0.0
 11
0.0
 21
644.105791
 31
0.0
 12
-8000.0
 22
-59980.0
 32
0.0
 13
375.0
 23
614.0
 33
0.0
 14
-375.0
 24
614.0
 34
0.0
1001
ACAD
1000
DSTYLE
1002
{
1070
    40
1040
1.0
1002
}
  0
LINE
  5
31
  8
TEAM-BODY
 10
-369.0
 20
620.0
 30
0.0
 11
369.0
 21
620.0
 31
0.0
  0
TEXT
  5
32
  8
TEAM-TXT
 10
-293.212924
 20
535.75601
 30
0.0
 40
30.0
  1
team 121055
 41
0.8
 51
15.0
  7
TEAM
  0
ARC
  5
35
  8
TEAM-BODY
 10
4710.406325
 20
1041.975309
 30
0.0
 40
5030.930841
 50
184.811404
 51
189.258156
  0
POLYLINE
  5
36
  8
TEAM-DET3
 66
     1
 10
0.0
 20
0.0
 30
0.0
  0
VERTEX
  5
1E0
  8
TEAM-DET3
 10
-275.8761
 20
124.99984
 30
0.0
  0
VERTEX
  5
1E1
  8
TEAM-DET3
 10
-275.8761
 20
149.99984
 30
0.0
  0
VERTEX
  5
1E2
  8
TEAM-DET3
 10
275.8761
 20
149.99984
 30
0.0
  0
VERTEX
  5
1E3
  8
TEAM-DET3
 10
275.8761
 20
124.99984
 30
0.0
  0
SEQEND
  5
1E4
  8
TEAM-DET3
  0
LINE
  5
38
  8
TEAM-DET3
 10
-275.8761
 20
124.99984
 30
0.0
 11
275.8761
 21
124.99984
 31
0.0
  0
LINE
  5
39
  8
TEAM-HIDE
 10
-360.8761
 20
-0.00016
 30
0.0
 11
360.8761
 21
-0.00016
 31
0.0
  0
DIMENSION
  5
3C
  8
TEAM-MAS
  2
*D1
 10
-412.572471
 20
620.0
 30
0.0
 11
-412.572471
 21
559.773682
 31
0.0
 12
-8000.0
 22
-59980.0
 32
0.0
 70
   128
 13
-369.0
 23
720.0
 33
0.0
 14
-369.0
 24
620.0
 34
0.0
 50
90.0
1001
ACAD
1000
DSTYLE
1002
{
1070
    40
1040
1.0
1002
}
  0
LINE
  5
49
  8
TEAM-BODY
 10
-375.0
 20
714.0
 30
0.0
 11
-375.0
 21
614.0
 31
0.0
  0
ARC
  5
4A
  8
TEAM-BODY
 10
-369.0
 20
714.0
 30
0.0
 40
6.0
 50
90.0
 51
180.0
  0
LINE
  5
4B
  8
TEAM-BODY
 10
-375.0
 20
614.0
 30
0.0
 11
-375.0
 21
594.0
 31
0.0
  0
ARC
  5
4C
  8
TEAM-BODY
 10
-369.0
 20
594.0
 30
0.0
 40
6.0
 50
180.0
 51
270.0
  0
ARC
  5
4D
  8
TEAM-BODY
 10
-369.0
 20
614.0
 30
0.0
 40
6.0
 50
90.0
 51
180.0
  0
LINE
  5
4E
  8
TEAM-BODY
 10
-300.0
 20
588.0
 30
0.0
 11
-369.0
 21
588.0
 31
0.0
  0
DIMENSION
  5
4F
  8
TEAM-MAS
  2
*D0
 10
459.095774
 20
0.0
 30
0.0
 11
459.095774
 21
310.0
 31
0.0
 12
-8000.0
 22
-60000.0
 32
0.0
  1
<>-685
 13
369.0
 23
620.0
 33
0.0
 14
0.0
 24
0.0
 34
0.0
 50
90.0
1001
ACAD
1000
DSTYLE
1002
{
1070
    40
1040
1.0
1002
}
  0
DIMENSION
  5
5D
  8
TEAM-MAS
  2
*D4
 10
412.673113
 20
149.999994
 30
0.0
 11
412.673113
 21
364.999997
 31
0.0
 12
-8000.0
 22
-59980.0
 32
0.0
 13
369.0
 23
620.0
 33
0.0
 14
26.53
 24
149.999994
 34
0.0
 50
90.0
1001
ACAD
1000
DSTYLE
1002
{
1070
    40
1040
1.0
1002
}
  0
ARC
  5
6B
  8
TEAM-BODY
 10
-4696.747347
 20
950.727905
 30
0.0
 40
5009.895766
 50
351.758539
 51
356.214871
  0
CIRCLE
  5
6C
  8
TEAM-INSP
 10
0.0
 20
0.0
 30
0.0
 40
10.0
  0
ARC
  5
6E
  8
TEAM-KAN
 10
-27.974444
 20
160.226546
 30
0.0
 40
15.26826
 50
237.877987
 51
264.755706
  0
DIMENSION
  5
70
  8
TEAM-MAS
  2
*D2
 10
-26.0
 20
90.451075
 30
0.0
 11
118.394463
 21
90.451075
 31
0.0
 12
-8000.0
 22
-60000.0
 32
0.0
 70
   128
 13
26.0
 23
145.022198
 33
0.0
 14
-26.0
 24
145.022198
 34
0.0
1001
ACAD
1000
DSTYLE
1002
{
1070
    40
1040
1.0
1002
}
  0
ARC
  5
7F
  8
TEAM-KAN
 10
-45.396497
 20
133.373403
 30
0.0
 40
16.738891
 50
56.25533
 51
83.359371
  0
ARC
  5
80
  8
TEAM-KAN
 10
27.974444
 20
160.226546
 30
0.0
 40
15.26826
 50
275.244294
 51
302.122013
  0
ARC
  5
81
  8
TEAM-KAN
 10
45.396497
 20
133.373403
 30
0.0
 40
16.738891
 50
96.640629
 51
123.74467
  0
LINE
  5
82
  8
TEAM-KAN
 10
-26.0
 20
145.022198
 30
0.0
 11
-26.0
 21
145.749611
 31
0.0
  0
LINE
  5
83
  8
TEAM-KAN
 10
26.0
 20
145.022198
 30
0.0
 11
26.0
 21
145.749611
 31
0.0
  0
LINE
  5
84
  8
TEAM-KAN
 10
29.37
 20
145.022198
 30
0.0
 11
-29.37
 21
145.022198
 31
0.0
  0
ARC
  5
85
  8
TEAM-BODY
 10
182.895677
 20
247.899995
 30
0.0
 40
80.000001
 50
271.4997
 51
348.9622
  0
ARC
  5
86
  8
TEAM-BODY
 10
53.552963
 20
1391.204254
 30
0.0
 40
1245.105046
 50
259.255653
 51
265.463466
  0
ARC
  5
87
  8
TEAM-BODY
 10
-176.474618
 20
247.899995
 30
0.0
 40
80.000001
 50
191.0378
 51
268.5003
  0
LINE
  5
88
  8
TEAM-BODY
 10
-44.928302
 20
149.999994
 30
0.0
 11
44.928302
 21
149.999994
 31
0.0
  0
ARC
  5
89
  8
TEAM-BODY
 10
-58.158708
 20
1511.476299
 30
0.0
 40
1365.373451
 50
274.330007
 51
280.258048
  0
POLYLINE
  5
8A
  8
TEAM-DET3
 66
     1
 10
0.0
 20
0.0
 30
0.0
  0
VERTEX
  5
1E5
  8
TEAM-DET3
 10
-137.87671
 20
142.695992
 30
0.0
  0
VERTEX
  5
1E6
  8
TEAM-DET3
 10
-131.87671
 20
142.695992
 30
0.0
  0
VERTEX
  5
1E7
  8
TEAM-DET3
 10
-128.87671
 20
137.49984
 30
0.0
  0
VERTEX
  5
1E8
  8
TEAM-DET3
 10
-131.87671
 20
132.303688
 30
0.0
  0
VERTEX
  5
1E9
  8
TEAM-DET3
 10
-137.87671
 20
132.303688
 30
0.0
  0
VERTEX
  5
1EA
  8
TEAM-DET3
 10
-140.87671
 20
137.49984
 30
0.0
  0
VERTEX
  5
1EB
  8
TEAM-DET3
 10
-137.87671
 20
142.695992
 30
0.0
  0
SEQEND
  5
1EC
  8
TEAM-DET3
  0
POLYLINE
  5
8B
  8
TEAM-DET3
 66
     1
 10
0.0
 20
0.0
 30
0.0
  0
VERTEX
  5
1ED
  8
TEAM-DET3
 10
131.87671
 20
142.695992
 30
0.0
  0
VERTEX
  5
1EE
  8
TEAM-DET3
 10
137.87671
 20
142.695992
 30
0.0
  0
VERTEX
  5
1EF
  8
TEAM-DET3
 10
140.87671
 20
137.49984
 30
0.0
  0
VERTEX
  5
1F0
  8
TEAM-DET3
 10
137.87671
 20
132.303688
 30
0.0
  0
VERTEX
  5
1F1
  8
TEAM-DET3
 10
131.87671
 20
132.303688
 30
0.0
  0
VERTEX
  5
1F2
  8
TEAM-DET3
 10
128.87671
 20
137.49984
 30
0.0
  0
VERTEX
  5
1F3
  8
TEAM-DET3
 10
131.87671
 20
142.695992
 30
0.0
  0
SEQEND
  5
1F4
  8
TEAM-DET3
  0
POLYLINE
  5
8C
  8
TEAM-DET3
 66
     1
 10
0.0
 20
0.0
 30
0.0
  0
VERTEX
  5
1F5
  8
TEAM-DET3
 10
-108.0
 20
142.695992
 30
0.0
  0
VERTEX
  5
1F6
  8
TEAM-DET3
 10
-102.0
 20
142.695992
 30
0.0
  0
VERTEX
  5
1F7
  8
TEAM-DET3
 10
-99.0
 20
137.49984
 30
0.0
  0
VERTEX
  5
1F8
  8
TEAM-DET3
 10
-102.0
 20
132.303688
 30
0.0
  0
VERTEX
  5
1F9
  8
TEAM-DET3
 10
-108.0
 20
132.303688
 30
0.0
  0
VERTEX
  5
1FA
  8
TEAM-DET3
 10
-111.0
 20
137.49984
 30
0.0
  0
VERTEX
  5
1FB
  8
TEAM-DET3
 10
-108.0
 20
142.695992
 30
0.0
  0
SEQEND
  5
1FC
  8
TEAM-DET3
  0
POLYLINE
  5
8D
  8
TEAM-DET3
 66
     1
 10
0.0
 20
0.0
 30
0.0
  0
VERTEX
  5
1FD
  8
TEAM-DET3
 10
102.0
 20
142.695992
 30
0.0
  0
VERTEX
  5
1FE
  8
TEAM-DET3
 10
108.0
 20
142.695992
 30
0.0
  0
VERTEX
  5
1FF
  8
TEAM-DET3
 10
111.0
 20
137.49984
 30
0.0
  0
VERTEX
  5
200
  8
TEAM-DET3
 10
108.0
 20
132.303688
 30
0.0
  0
VERTEX
  5
201
  8
TEAM-DET3
 10
102.0
 20
132.303688
 30
0.0
  0
VERTEX
  5
202
  8
TEAM-DET3
 10
99.0
 20
137.49984
 30
0.0
  0
VERTEX
  5
203
  8
TEAM-DET3
 10
102.0
 20
142.695992
 30
0.0
  0
SEQEND
  5
204
  8
TEAM-DET3
  0
POLYLINE
  5
8E
  8
TEAM-DET3
 66
     1
 10
0.0
 20
0.0
 30
0.0
  0
VERTEX
  5
205
  8
TEAM-DET3
 10
186.87671
 20
142.695992
 30
0.0
  0
VERTEX
  5
206
  8
TEAM-DET3
 10
192.87671
 20
142.695992
 30
0.0
  0
VERTEX
  5
207
  8
TEAM-DET3
 10
195.87671
 20
137.49984
 30
0.0
  0
VERTEX
  5
208
  8
TEAM-DET3
 10
192.87671
 20
132.303688
 30
0.0
  0
VERTEX
  5
209
  8
TEAM-DET3
 10
186.87671
 20
132.303688
 30
0.0
  0
VERTEX
  5
20A
  8
TEAM-DET3
 10
183.87671
 20
137.49984
 30
0.0
  0
VERTEX
  5
20B
  8
TEAM-DET3
 10
186.87671
 20
142.695992
 30
0.0
  0
SEQEND
  5
20C
  8
TEAM-DET3
  0
POLYLINE
  5
8F
  8
TEAM-DET3
 66
     1
 10
0.0
 20
0.0
 30
0.0
  0
VERTEX
  5
20D
  8
TEAM-DET3
 10
-192.87671
 20
142.695992
 30
0.0
  0
VERTEX
  5
20E
  8
TEAM-DET3
 10
-186.87671
 20
142.695992
 30
0.0
  0
VERTEX
  5
20F
  8
TEAM-DET3
 10
-183.87671
 20
137.49984
 30
0.0
  0
VERTEX
  5
210
  8
TEAM-DET3
 10
-186.87671
 20
132.303688
 30
0.0
  0
VERTEX
  5
211
  8
TEAM-DET3
 10
-192.87671
 20
132.303688
 30
0.0
  0
VERTEX
  5
212
  8
TEAM-DET3
 10
-195.87671
 20
137.49984
 30
0.0
  0
VERTEX
  5
213
  8
TEAM-DET3
 10
-192.87671
 20
142.695992
 30
0.0
  0
SEQEND
  5
214
  8
TEAM-DET3
  0
POLYLINE
  5
90
  8
TEAM-DET3
 66
     1
 10
0.0
 20
0.0
 30
0.0
  0
VERTEX
  5
215
  8
TEAM-DET3
 10
246.87671
 20
142.695992
 30
0.0
  0
VERTEX
  5
216
  8
TEAM-DET3
 10
252.87671
 20
142.695992
 30
0.0
  0
VERTEX
  5
217
  8
TEAM-DET3
 10
255.87671
 20
137.49984
 30
0.0
  0
VERTEX
  5
218
  8
TEAM-DET3
 10
252.87671
 20
132.303688
 30
0.0
  0
VERTEX
  5
219
  8
TEAM-DET3
 10
246.87671
 20
132.303688
 30
0.0
  0
VERTEX
  5
21A
  8
TEAM-DET3
 10
243.87671
 20
137.49984
 30
0.0
  0
VERTEX
  5
21B
  8
TEAM-DET3
 10
246.87671
 20
142.695992
 30
0.0
  0
SEQEND
  5
21C
  8
TEAM-DET3
  0
POLYLINE
  5
91
  8
TEAM-DET3
 66
     1
 10
0.0
 20
0.0
 30
0.0
  0
VERTEX
  5
21D
  8
TEAM-DET3
 10
-252.87671
 20
142.695992
 30
0.0
  0
VERTEX
  5
21E
  8
TEAM-DET3
 10
-246.87671
 20
142.695992
 30
0.0
  0
VERTEX
  5
21F
  8
TEAM-DET3
 10
-243.87671
 20
137.49984
 30
0.0
  0
VERTEX
  5
220
  8
TEAM-DET3
 10
-246.87671
 20
132.303688
 30
0.0
  0
VERTEX
  5
221
  8
TEAM-DET3
 10
-252.87671
 20
132.303688
 30
0.0
  0
VERTEX
  5
222
  8
TEAM-DET3
 10
-255.87671
 20
137.49984
 30
0.0
  0
VERTEX
  5
223
  8
TEAM-DET3
 10
-252.87671
 20
142.695992
 30
0.0
  0
SEQEND
  5
224
  8
TEAM-DET3
  0
POLYLINE
  5
92
  8
TEAM-DET3
 66
     1
 10
0.0
 20
0.0
 30
0.0
  0
VERTEX
  5
225
  8
TEAM-DET3
 10
-3.0
 20
142.695992
 30
0.0
  0
VERTEX
  5
226
  8
TEAM-DET3
 10
3.0
 20
142.695992
 30
0.0
  0
VERTEX
  5
227
  8
TEAM-DET3
 10
6.0
 20
137.49984
 30
0.0
  0
VERTEX
  5
228
  8
TEAM-DET3
 10
3.0
 20
132.303688
 30
0.0
  0
VERTEX
  5
229
  8
TEAM-DET3
 10
-3.0
 20
132.303688
 30
0.0
  0
VERTEX
  5
22A
  8
TEAM-DET3
 10
-6.0
 20
137.49984
 30
0.0
  0
VERTEX
  5
22B
  8
TEAM-DET3
 10
-3.0
 20
142.695992
 30
0.0
  0
SEQEND
  5
22C
  8
TEAM-DET3
  0
CIRCLE
  5
93
  8
TEAM-DET3
 10
0.0
 20
137.49984
 30
0.0
 40
6.0
  0
POINT
  5
94
  8
TEAM-DET3
 10
6.0
 20
137.49984
 30
0.0
  0
POINT
  5
95
  8
TEAM-DET3
 10
3.0
 20
142.695992
 30
0.0
  0
POINT
  5
96
  8
TEAM-DET3
 10
-3.0
 20
142.695992
 30
0.0
  0
POINT
  5
97
  8
TEAM-DET3
 10
-6.0
 20
137.49984
 30
0.0
  0
POINT
  5
98
  8
TEAM-DET3
 10
-3.0
 20
132.303688
 30
0.0
  0
POINT
  5
99
  8
TEAM-DET3
 10
3.0
 20
132.303688
 30
0.0
  0
POINT
  5
9A
  8
TEAM-DET3
 10
-246.87671
 20
132.303688
 30
0.0
  0
POINT
  5
9B
  8
TEAM-DET3
 10
-252.87671
 20
132.303688
 30
0.0
  0
POINT
  5
9C
  8
TEAM-DET3
 10
-255.87671
 20
137.49984
 30
0.0
  0
POINT
  5
9D
  8
TEAM-DET3
 10
-252.87671
 20
142.695992
 30
0.0
  0
POINT
  5
9E
  8
TEAM-DET3
 10
-246.87671
 20
142.695992
 30
0.0
  0
POINT
  5
9F
  8
TEAM-DET3
 10
-243.87671
 20
137.49984
 30
0.0
  0
CIRCLE
  5
A0
  8
TEAM-DET3
 10
-249.87671
 20
137.49984
 30
0.0
 40
6.0
  0
POINT
  5
A1
  8
TEAM-DET3
 10
252.87671
 20
132.303688
 30
0.0
  0
POINT
  5
A2
  8
TEAM-DET3
 10
246.87671
 20
132.303688
 30
0.0
  0
POINT
  5
A3
  8
TEAM-DET3
 10
243.87671
 20
137.49984
 30
0.0
  0
POINT
  5
A4
  8
TEAM-DET3
 10
246.87671
 20
142.695992
 30
0.0
  0
POINT
  5
A5
  8
TEAM-DET3
 10
252.87671
 20
142.695992
 30
0.0
  0
POINT
  5
A6
  8
TEAM-DET3
 10
255.87671
 20
137.49984
 30
0.0
  0
CIRCLE
  5
A7
  8
TEAM-DET3
 10
249.87671
 20
137.49984
 30
0.0
 40
6.0
  0
LINE
  5
A8
  8
TEAM-DET3
 10
243.87671
 20
51.99984
 30
0.0
 11
243.87671
 21
124.99984
 31
0.0
  0
LINE
  5
A9
  8
TEAM-DET3
 10
244.81605
 20
51.99984
 30
0.0
 11
244.81605
 21
124.99984
 31
0.0
  0
LINE
  5
AA
  8
TEAM-DET3
 10
255.87671
 20
124.99984
 30
0.0
 11
255.87671
 21
51.99984
 31
0.0
  0
LINE
  5
AB
  8
TEAM-DET3
 10
254.93617
 20
124.99984
 30
0.0
 11
254.93617
 21
51.99984
 31
0.0
  0
LINE
  5
AC
  8
TEAM-DET3
 10
-244.81605
 20
51.99984
 30
0.0
 11
-244.81605
 21
124.99984
 31
0.0
  0
LINE
  5
AD
  8
TEAM-DET3
 10
-243.87671
 20
51.99984
 30
0.0
 11
-243.87671
 21
124.99984
 31
0.0
  0
LINE
  5
AE
  8
TEAM-DET3
 10
-254.93617
 20
124.99984
 30
0.0
 11
-254.93617
 21
51.99984
 31
0.0
  0
LINE
  5
AF
  8
TEAM-DET3
 10
-255.87671
 20
124.99984
 30
0.0
 11
-255.87671
 21
51.99984
 31
0.0
  0
CIRCLE
  5
B0
  8
TEAM-DET3
 10
-189.87671
 20
137.49984
 30
0.0
 40
6.0
  0
POINT
  5
B1
  8
TEAM-DET3
 10
-183.87671
 20
137.49984
 30
0.0
  0
POINT
  5
B2
  8
TEAM-DET3
 10
-186.87671
 20
142.695992
 30
0.0
  0
POINT
  5
B3
  8
TEAM-DET3
 10
-192.87671
 20
142.695992
 30
0.0
  0
POINT
  5
B4
  8
TEAM-DET3
 10
-195.87671
 20
137.49984
 30
0.0
  0
POINT
  5
B5
  8
TEAM-DET3
 10
-192.87671
 20
132.303688
 30
0.0
  0
POINT
  5
B6
  8
TEAM-DET3
 10
-186.87671
 20
132.303688
 30
0.0
  0
CIRCLE
  5
B7
  8
TEAM-DET3
 10
189.87671
 20
137.49984
 30
0.0
 40
6.0
  0
POINT
  5
B8
  8
TEAM-DET3
 10
195.87671
 20
137.49984
 30
0.0
  0
POINT
  5
B9
  8
TEAM-DET3
 10
192.87671
 20
142.695992
 30
0.0
  0
POINT
  5
BA
  8
TEAM-DET3
 10
186.87671
 20
142.695992
 30
0.0
  0
POINT
  5
BB
  8
TEAM-DET3
 10
183.87671
 20
137.49984
 30
0.0
  0
POINT
  5
BC
  8
TEAM-DET3
 10
186.87671
 20
132.303688
 30
0.0
  0
POINT
  5
BD
  8
TEAM-DET3
 10
192.87671
 20
132.303688
 30
0.0
  0
CIRCLE
  5
BE
  8
TEAM-DET3
 10
105.0
 20
137.49984
 30
0.0
 40
6.0
  0
POINT
  5
BF
  8
TEAM-DET3
 10
111.0
 20
137.49984
 30
0.0
  0
POINT
  5
C0
  8
TEAM-DET3
 10
108.0
 20
142.695992
 30
0.0
  0
POINT
  5
C1
  8
TEAM-DET3
 10
102.0
 20
142.695992
 30
0.0
  0
POINT
  5
C2
  8
TEAM-DET3
 10
99.0
 20
137.49984
 30
0.0
  0
POINT
  5
C3
  8
TEAM-DET3
 10
102.0
 20
132.303688
 30
0.0
  0
POINT
  5
C4
  8
TEAM-DET3
 10
108.0
 20
132.303688
 30
0.0
  0
CIRCLE
  5
C5
  8
TEAM-DET3
 10
-105.0
 20
137.49984
 30
0.0
 40
6.0
  0
POINT
  5
C6
  8
TEAM-DET3
 10
-99.0
 20
137.49984
 30
0.0
  0
POINT
  5
C7
  8
TEAM-DET3
 10
-102.0
 20
142.695992
 30
0.0
  0
POINT
  5
C8
  8
TEAM-DET3
 10
-108.0
 20
142.695992
 30
0.0
  0
POINT
  5
C9
  8
TEAM-DET3
 10
-111.0
 20
137.49984
 30
0.0
  0
POINT
  5
CA
  8
TEAM-DET3
 10
-108.0
 20
132.303688
 30
0.0
  0
POINT
  5
CB
  8
TEAM-DET3
 10
-102.0
 20
132.303688
 30
0.0
  0
POINT
  5
CC
  8
TEAM-DET3
 10
137.87671
 20
132.303688
 30
0.0
  0
POINT
  5
CD
  8
TEAM-DET3
 10
131.87671
 20
132.303688
 30
0.0
  0
POINT
  5
CE
  8
TEAM-DET3
 10
128.87671
 20
137.49984
 30
0.0
  0
POINT
  5
CF
  8
TEAM-DET3
 10
131.87671
 20
142.695992
 30
0.0
  0
POINT
  5
D0
  8
TEAM-DET3
 10
137.87671
 20
142.695992
 30
0.0
  0
POINT
  5
D1
  8
TEAM-DET3
 10
140.87671
 20
137.49984
 30
0.0
  0
CIRCLE
  5
D2
  8
TEAM-DET3
 10
134.87671
 20
137.49984
 30
0.0
 40
6.0
  0
POINT
  5
D3
  8
TEAM-DET3
 10
-131.87671
 20
132.303688
 30
0.0
  0
POINT
  5
D4
  8
TEAM-DET3
 10
-137.87671
 20
132.303688
 30
0.0
  0
POINT
  5
D5
  8
TEAM-DET3
 10
-140.87671
 20
137.49984
 30
0.0
  0
POINT
  5
D6
  8
TEAM-DET3
 10
-137.87671
 20
142.695992
 30
0.0
  0
POINT
  5
D7
  8
TEAM-DET3
 10
-131.87671
 20
142.695992
 30
0.0
  0
POINT
  5
D8
  8
TEAM-DET3
 10
-128.87671
 20
137.49984
 30
0.0
  0
CIRCLE
  5
D9
  8
TEAM-DET3
 10
-134.87671
 20
137.49984
 30
0.0
 40
6.0
  0
LINE
  5
DA
  8
TEAM-DET3
 10
263.0
 20
0.0
 30
0.0
 11
237.0
 21
0.0
 31
0.0
  0
LINE
  5
DB
  8
TEAM-DET3
 10
263.0
 20
9.99984
 30
0.0
 11
237.0
 21
9.99984
 31
0.0
  0
LINE
  5
DC
  8
TEAM-DET3
 10
237.0
 20
9.99984
 30
0.0
 11
237.0
 21
0.0
 31
0.0
  0
LINE
  5
DD
  8
TEAM-DET3
 10
263.0
 20
9.99984
 30
0.0
 11
263.0
 21
0.0
 31
0.0
  0
LINE
  5
DE
  8
TEAM-DET3
 10
263.0
 20
9.99984
 30
0.0
 11
237.0
 21
9.99984
 31
0.0
  0
LINE
  5
DF
  8
TEAM-DET3
 10
255.87671
 20
9.99984
 30
0.0
 11
255.87671
 21
0.0
 31
0.0
  0
LINE
  5
E0
  8
TEAM-DET3
 10
243.87671
 20
0.0
 30
0.0
 11
243.87671
 21
9.99984
 31
0.0
  0
LINE
  5
E1
  8
TEAM-DET3
 10
258.87671
 20
51.99984
 30
0.0
 11
240.87671
 21
51.99984
 31
0.0
  0
LINE
  5
E2
  8
TEAM-DET3
 10
260.87671
 20
13.99984
 30
0.0
 11
238.87671
 21
13.99984
 31
0.0
  0
LINE
  5
E3
  8
TEAM-DET3
 10
259.87671
 20
40.99984
 30
0.0
 11
239.87671
 21
40.99984
 31
0.0
  0
LINE
  5
E4
  8
TEAM-DET3
 10
258.87671
 20
47.99984
 30
0.0
 11
240.87671
 21
47.99984
 31
0.0
  0
LINE
  5
E5
  8
TEAM-DET3
 10
238.87671
 20
13.99984
 30
0.0
 11
239.87671
 21
40.99984
 31
0.0
  0
LINE
  5
E6
  8
TEAM-DET3
 10
240.87671
 20
40.99984
 30
0.0
 11
240.87671
 21
51.99984
 31
0.0
  0
LINE
  5
E7
  8
TEAM-DET3
 10
258.87671
 20
51.99984
 30
0.0
 11
258.87671
 21
40.99984
 31
0.0
  0
LINE
  5
E8
  8
TEAM-DET3
 10
263.0
 20
9.99984
 30
0.0
 11
260.87671
 21
13.99984
 31
0.0
  0
LINE
  5
E9
  8
TEAM-DET3
 10
237.0
 20
9.99984
 30
0.0
 11
238.87671
 21
13.99984
 31
0.0
  0
LINE
  5
EA
  8
TEAM-DET3
 10
259.87671
 20
40.99984
 30
0.0
 11
260.87671
 21
13.99984
 31
0.0
  0
LINE
  5
EB
  8
TEAM-DET3
 10
254.734932
 20
51.99984
 30
0.0
 11
254.734932
 21
47.99984
 31
0.0
  0
LINE
  5
EC
  8
TEAM-DET3
 10
245.018488
 20
51.99984
 30
0.0
 11
245.018488
 21
47.99984
 31
0.0
  0
LINE
  5
ED
  8
TEAM-DET3
 10
249.87671
 20
40.99984
 30
0.0
 11
249.87671
 21
13.99984
 31
0.0
  0
LINE
  5
EE
  8
TEAM-DET3
 10
254.643281
 20
40.99984
 30
0.0
 11
255.643281
 21
13.99984
 31
0.0
  0
LINE
  5
EF
  8
TEAM-DET3
 10
245.110139
 20
40.99984
 30
0.0
 11
244.110139
 21
13.99984
 31
0.0
  0
LINE
  5
F0
  8
TEAM-DET3
 10
-245.110139
 20
40.99984
 30
0.0
 11
-244.110139
 21
13.99984
 31
0.0
  0
LINE
  5
F1
  8
TEAM-DET3
 10
-254.643281
 20
40.99984
 30
0.0
 11
-255.643281
 21
13.99984
 31
0.0
  0
LINE
  5
F2
  8
TEAM-DET3
 10
-249.87671
 20
40.99984
 30
0.0
 11
-249.87671
 21
13.99984
 31
0.0
  0
LINE
  5
F3
  8
TEAM-DET3
 10
-245.018488
 20
51.99984
 30
0.0
 11
-245.018488
 21
47.99984
 31
0.0
  0
LINE
  5
F4
  8
TEAM-DET3
 10
-254.734932
 20
51.99984
 30
0.0
 11
-254.734932
 21
47.99984
 31
0.0
  0
LINE
  5
F5
  8
TEAM-DET3
 10
-259.87671
 20
40.99984
 30
0.0
 11
-260.87671
 21
13.99984
 31
0.0
  0
LINE
  5
F6
  8
TEAM-DET3
 10
-237.0
 20
9.99984
 30
0.0
 11
-238.87671
 21
13.99984
 31
0.0
  0
LINE
  5
F7
  8
TEAM-DET3
 10
-263.0
 20
9.99984
 30
0.0
 11
-260.87671
 21
13.99984
 31
0.0
  0
LINE
  5
F8
  8
TEAM-DET3
 10
-258.87671
 20
51.99984
 30
0.0
 11
-258.87671
 21
40.99984
 31
0.0
  0
LINE
  5
F9
  8
TEAM-DET3
 10
-240.87671
 20
40.99984
 30
0.0
 11
-240.87671
 21
51.99984
 31
0.0
  0
LINE
  5
FA
  8
TEAM-DET3
 10
-238.87671
 20
13.99984
 30
0.0
 11
-239.87671
 21
40.99984
 31
0.0
  0
LINE
  5
FB
  8
TEAM-DET3
 10
-258.87671
 20
47.99984
 30
0.0
 11
-240.87671
 21
47.99984
 31
0.0
  0
LINE
  5
FC
  8
TEAM-DET3
 10
-259.87671
 20
40.99984
 30
0.0
 11
-239.87671
 21
40.99984
 31
0.0
  0
LINE
  5
FD
  8
TEAM-DET3
 10
-260.87671
 20
13.99984
 30
0.0
 11
-238.87671
 21
13.99984
 31
0.0
  0
LINE
  5
FE
  8
TEAM-DET3
 10
-258.87671
 20
51.99984
 30
0.0
 11
-240.87671
 21
51.99984
 31
0.0
  0
LINE
  5
FF
  8
TEAM-DET3
 10
-243.87671
 20
0.0
 30
0.0
 11
-243.87671
 21
9.99984
 31
0.0
  0
LINE
  5
100
  8
TEAM-DET3
 10
-255.87671
 20
9.99984
 30
0.0
 11
-255.87671
 21
0.0
 31
0.0
  0
LINE
  5
101
  8
TEAM-DET3
 10
-263.0
 20
9.99984
 30
0.0
 11
-237.0
 21
9.99984
 31
0.0
  0
LINE
  5
102
  8
TEAM-DET3
 10
-263.0
 20
9.99984
 30
0.0
 11
-263.0
 21
0.0
 31
0.0
  0
LINE
  5
103
  8
TEAM-DET3
 10
-237.0
 20
9.99984
 30
0.0
 11
-237.0
 21
0.0
 31
0.0
  0
LINE
  5
104
  8
TEAM-DET3
 10
-263.0
 20
9.99984
 30
0.0
 11
-237.0
 21
9.99984
 31
0.0
  0
LINE
  5
105
  8
TEAM-DET3
 10
-263.0
 20
0.0
 30
0.0
 11
-237.0
 21
0.0
 31
0.0
  0
LINE
  5
106
  8
TEAM-BODY
 10
375.0
 20
714.0
 30
0.0
 11
375.0
 21
614.0
 31
0.0
  0
ARC
  5
107
  8
TEAM-BODY
 10
369.0
 20
714.0
 30
0.0
 40
6.0
 50
0.0
 51
90.0
  0
LINE
  5
108
  8
TEAM-BODY
 10
375.0
 20
614.0
 30
0.0
 11
375.0
 21
594.0
 31
0.0
  0
ARC
  5
109
  8
TEAM-BODY
 10
369.0
 20
594.0
 30
0.0
 40
6.0
 50
270.0
 51
0.0
  0
ARC
  5
10A
  8
TEAM-BODY
 10
369.0
 20
614.0
 30
0.0
 40
6.0
 50
0.0
 51
90.0
  0
LINE
  5
10B
  8
TEAM-BODY
 10
369.0
 20
588.0
 30
0.0
 11
300.0
 21
588.0
 31
0.0
  0
ENDSEC
  0
EOF
