  0
SECTION
  2
HEADER
  9
$ACADVER
  1
AC1009
  9
$INSBASE
 10
0.0
 20
0.0
 30
0.0
  9
$EXTMIN
 10
-936.723364
 20
-10.05514
 30
-0.000003
  9
$EXTMAX
 10
939.411136
 20
756.150692
 30
0.000007
  9
$LIMMIN
 10
-936.723364
 20
-10.05514
  9
$LIMMAX
 10
939.411136
 20
756.150692
  9
$ORTHOMODE
 70
     1
  9
$REGENMODE
 70
     1
  9
$FILLMODE
 70
     1
  9
$QTEXTMODE
 70
     0
  9
$MIRRTEXT
 70
     0
  9
$DRAGMODE
 70
     2
  9
$LTSCALE
 40
50.0
  9
$OSMODE
 70
     7
  9
$ATTMODE
 70
     1
  9
$TEXTSIZE
 40
200.0
  9
$TRACEWID
 40
1.0
  9
$TEXTSTYLE
  7
STANDARD
  9
$CLAYER
  8
TEAM-MAS
  9
$CELTYPE
  6
BYLAYER
  9
$CECOLOR
 62
   256
  9
$DIMSCALE
 40
0.0
  9
$DIMASZ
 40
20.0
  9
$DIMEXO
 40
10.0
  9
$DIMDLI
 40
1.0
  9
$DIMRND
 40
0.0
  9
$DIMDLE
 40
0.0
  9
$DIMEXE
 40
1.0
  9
$DIMTP
 40
0.0
  9
$DIMTM
 40
0.0
  9
$DIMTXT
 40
35.0
  9
$DIMCEN
 40
1.0
  9
$DIMTSZ
 40
0.0
  9
$DIMTOL
 70
     0
  9
$DIMLIM
 70
     0
  9
$DIMTIH
 70
     0
  9
$DIMTOH
 70
     0
  9
$DIMSE1
 70
     0
  9
$DIMSE2
 70
     0
  9
$DIMTAD
 70
     0
  9
$DIMZIN
 70
     0
  9
$DIMBLK
  1

  9
$DIMASO
 70
     1
  9
$DIMSHO
 70
     0
  9
$DIMPOST
  1

  9
$DIMAPOST
  1

  9
$DIMALT
 70
     0
  9
$DIMALTD
 70
     2
  9
$DIMALTF
 40
25.4
  9
$DIMLFAC
 40
1.0
  9
$DIMTOFL
 70
     0
  9
$DIMTVP
 40
0.0
  9
$DIMTIX
 70
     0
  9
$DIMSOXD
 70
     0
  9
$DIMSAH
 70
     0
  9
$DIMBLK1
  1

  9
$DIMBLK2
  1

  9
$DIMSTYLE
  2
TEAM
  9
$DIMCLRD
 70
     9
  9
$DIMCLRE
 70
     9
  9
$DIMCLRT
 70
    11
  9
$DIMTFAC
 40
1.0
  9
$DIMGAP
 40
7.0
  9
$LUNITS
 70
     2
  9
$LUPREC
 70
     1
  9
$SKETCHINC
 40
1.0
  9
$FILLETRAD
 40
5.0
  9
$AUNITS
 70
     0
  9
$AUPREC
 70
     0
  9
$MENU
  1
ROPLANS
  9
$ELEVATION
 40
0.0
  9
$PELEVATION
 40
0.0
  9
$THICKNESS
 40
0.0
  9
$LIMCHECK
 70
     0
  9
$BLIPMODE
 70
     1
  9
$CHAMFERA
 40
0.0
  9
$CHAMFERB
 40
0.0
  9
$SKPOLY
 70
     0
  9
$TDCREATE
 40
2450392.957851
  9
$TDUPDATE
 40
2456004.599416
  9
$TDINDWG
 40
2.546599
  9
$TDUSRTIMER
 40
2.546599
  9
$USRTIMER
 70
     1
  9
$ANGBASE
 50
0.0
  9
$ANGDIR
 70
     0
  9
$PDMODE
 70
     0
  9
$PDSIZE
 40
0.0
  9
$PLINEWID
 40
0.0
  9
$COORDS
 70
     2
  9
$SPLFRAME
 70
     0
  9
$SPLINETYPE
 70
     6
  9
$SPLINESEGS
 70
     8
  9
$ATTDIA
 70
     0
  9
$ATTREQ
 70
     0
  9
$HANDLING
 70
     1
  9
$HANDSEED
  5
1C5
  9
$SURFTAB1
 70
    36
  9
$SURFTAB2
 70
    36
  9
$SURFTYPE
 70
     6
  9
$SURFU
 70
     6
  9
$SURFV
 70
     6
  9
$UCSNAME
  2

  9
$UCSORG
 10
0.0
 20
0.0
 30
0.0
  9
$UCSXDIR
 10
1.0
 20
0.0
 30
0.0
  9
$UCSYDIR
 10
0.0
 20
1.0
 30
0.0
  9
$PUCSNAME
  2

  9
$PUCSORG
 10
0.0
 20
0.0
 30
0.0
  9
$PUCSXDIR
 10
1.0
 20
0.0
 30
0.0
  9
$PUCSYDIR
 10
0.0
 20
1.0
 30
0.0
  9
$USERI1
 70
     0
  9
$USERI2
 70
     0
  9
$USERI3
 70
     0
  9
$USERI4
 70
     0
  9
$USERI5
 70
     0
  9
$USERR1
 40
0.0
  9
$USERR2
 40
0.0
  9
$USERR3
 40
0.0
  9
$USERR4
 40
0.0
  9
$USERR5
 40
0.0
  9
$WORLDVIEW
 70
     1
  9
$SHADEDGE
 70
     0
  9
$SHADEDIF
 70
    70
  9
$TILEMODE
 70
     1
  9
$MAXACTVP
 70
    16
  9
$PLIMCHECK
 70
     0
  9
$PEXTMIN
 10
-0.805942
 20
0.005011
 30
0.0
  9
$PEXTMAX
 10
20.250094
 20
11.356329
 30
0.0
  9
$PLIMMIN
 10
0.0
 20
0.0
  9
$PLIMMAX
 10
12.0
 20
9.0
  9
$UNITMODE
 70
     0
  9
$VISRETAIN
 70
     0
  9
$PLINEGEN
 70
     0
  9
$PSLTSCALE
 70
     0
  0
ENDSEC
  0
SECTION
  2
TABLES
  0
TABLE
  2
VPORT
 70
     2
  0
VPORT
  2
*ACTIVE
 70
     0
 10
0.0
 20
0.0
 11
1.0
 21
1.0
 12
1.343886
 22
373.047776
 13
0.0
 23
0.0
 14
1.0
 24
1.0
 15
50.0
 25
50.0
 16
0.0
 26
0.0
 36
1.0
 17
0.0
 27
0.0
 37
0.0
 40
988.731494
 41
1.903766
 42
50.0
 43
0.0
 44
0.0
 50
0.0
 51
0.0
 71
     0
 72
   100
 73
     1
 74
     1
 75
     0
 76
     0
 77
     0
 78
     0
  0
ENDTAB
  0
TABLE
  2
LTYPE
 70
     2
  0
LTYPE
  2
CONTINUOUS
 70
     0
  3
Solid Line
 72
    65
 73
     0
 40
0.0
  0
LTYPE
  2
22
 70
     0
  3

 72
    65
 73
     2
 40
1.4
 49
1.2
 49
-0.2
  0
ENDTAB
  0
TABLE
  2
LAYER
 70
     9
  0
LAYER
  2
0
 70
     0
 62
     7
  6
CONTINUOUS
  0
LAYER
  2
DEFPOINTS
 70
     0
 62
     7
  6
CONTINUOUS
  0
LAYER
  2
TEAM-BODY
 70
     0
 62
     2
  6
CONTINUOUS
  0
LAYER
  2
TEAM-MAS
 70
     0
 62
     9
  6
CONTINUOUS
  0
LAYER
  2
TEAM-TXT
 70
     0
 62
    11
  6
CONTINUOUS
  0
LAYER
  2
TEAM-HIDE
 70
     0
 62
     8
  6
22
  0
LAYER
  2
TEAM-KAN
 70
     0
 62
     6
  6
CONTINUOUS
  0
LAYER
  2
TEAM-DET3
 70
     0
 62
    14
  6
CONTINUOUS
  0
LAYER
  2
TEAM-INSP
 70
     0
 62
     5
  6
CONTINUOUS
  0
ENDTAB
  0
TABLE
  2
STYLE
 70
     2
  0
STYLE
  2
STANDARD
 70
     0
 40
0.0
 41
1.0
 50
0.0
 71
     0
 42
200.0
  3
txt
  4

  0
STYLE
  2
TEAM
 70
     0
 40
0.0
 41
0.8
 50
15.0
 71
     0
 42
7.0
  3
ROMANS.shx
  4

  0
ENDTAB
  0
TABLE
  2
VIEW
 70
     0
  0
ENDTAB
  0
TABLE
  2
UCS
 70
     0
  0
ENDTAB
  0
TABLE
  2
APPID
 70
     1
  0
APPID
  2
ACAD
 70
     0
  0
ENDTAB
  0
TABLE
  2
DIMSTYLE
 70
     1
  0
DIMSTYLE
  2
TEAM
 70
     0
  3

  4

  5

  6

  7

 40
0.0
 41
20.0
 42
10.0
 43
1.0
 44
1.0
 45
0.0
 46
0.0
 47
0.0
 48
0.0
140
35.0
141
1.0
142
0.0
143
25.4
144
1.0
145
0.0
146
1.0
147
7.0
 71
     0
 72
     0
 73
     0
 74
     0
 75
     0
 76
     0
 77
     0
 78
     0
170
     0
171
     2
172
     0
173
     0
174
     0
175
     0
176
     9
177
     9
178
    11
  0
ENDTAB
  0
ENDSEC
  0
SECTION
  2
BLOCKS
  0
BLOCK
  8
0
  2
$MODEL_SPACE
 70
     0
 10
0.0
 20
0.0
 30
0.0
  3
$MODEL_SPACE
  1

  0
ENDBLK
  5
196
  8
0
  0
BLOCK
 67
     1
  8
0
  2
$PAPER_SPACE
 70
     0
 10
0.0
 20
0.0
 30
0.0
  3
$PAPER_SPACE
  1

  0
ENDBLK
  5
194
 67
     1
  8
0
  0
BLOCK
  8
0
  2
*D0
 70
     1
 10
0.0
 20
0.0
 30
0.0
  3
*D0
  1

  0
LINE
  5
22
  8
0
  6
BYBLOCK
 62
     9
 10
11150.003099
 20
60639.960591
 30
0.0
 11
11150.003099
 21
60719.604439
 31
0.0
  0
LINE
  5
23
  8
0
  6
BYBLOCK
 62
     9
 10
12850.0
 20
60589.96
 30
0.0
 11
12850.0
 21
60719.604439
 31
0.0
  0
LINE
  5
24
  8
0
  6
BYBLOCK
 62
     9
 10
11170.003099
 20
60718.604439
 30
0.0
 11
11905.501549
 21
60718.604439
 31
0.0
  0
LINE
  5
25
  8
0
  6
BYBLOCK
 62
     9
 10
12830.0
 20
60718.604439
 30
0.0
 11
12094.501549
 21
60718.604439
 31
0.0
  0
SOLID
  5
26
  8
0
  6
BYBLOCK
 62
     9
 10
11170.003099
 20
60721.937773
 30
0.0
 11
11170.003099
 21
60715.271106
 31
0.0
 12
11150.003099
 22
60718.604439
 32
0.0
 13
11150.003099
 23
60718.604439
 33
0.0
  0
SOLID
  5
27
  8
0
  6
BYBLOCK
 62
     9
 10
12830.0
 20
60721.937773
 30
0.0
 11
12830.0
 21
60715.271106
 31
0.0
 12
12850.0
 22
60718.604439
 32
0.0
 13
12850.0
 23
60718.604439
 33
0.0
  0
TEXT
  5
28
  8
0
  6
BYBLOCK
 62
    11
 10
11912.501549
 20
60701.104439
 30
0.0
 40
35.0
  1
1700.00
  0
POINT
  5
29
  8
DEFPOINTS
  6
BYBLOCK
 62
     0
 10
11150.003099
 20
60629.960591
 30
0.0
  0
POINT
  5
2B
  8
DEFPOINTS
  6
BYBLOCK
 62
     0
 10
12850.0
 20
60579.96
 30
0.0
  0
POINT
  5
2C
  8
DEFPOINTS
  6
BYBLOCK
 62
     0
 10
12850.0
 20
60718.604439
 30
0.0
  0
ENDBLK
  5
2E
  8
0
  0
BLOCK
  8
0
  2
*D1
 70
     1
 10
0.0
 20
0.0
 30
0.0
  3
*D1
  1

  0
LINE
  5
31
  8
0
  6
BYBLOCK
 62
     9
 10
11150.08
 20
60699.96
 30
0.0
 11
11079.90449
 21
60699.96
 31
0.0
  0
LINE
  5
32
  8
0
  6
BYBLOCK
 62
     9
 10
11140.08
 20
60569.96
 30
0.0
 11
11079.90449
 21
60569.96
 31
0.0
  0
LINE
  5
33
  8
0
  6
BYBLOCK
 62
     9
 10
11080.90449
 20
60679.96
 30
0.0
 11
11080.90449
 21
60589.96
 31
0.0
  0
TEXT
  5
34
  8
0
  6
BYBLOCK
 62
    11
 10
11098.40449
 20
60419.074471
 30
0.0
 40
35.0
  1
130.00
 50
90.0
  0
SOLID
  5
35
  8
0
  6
BYBLOCK
 62
     9
 10
11077.571157
 20
60679.96
 30
0.0
 11
11084.237823
 21
60679.96
 31
0.0
 12
11080.90449
 22
60699.96
 32
0.0
 13
11080.90449
 23
60699.96
 33
0.0
  0
SOLID
  5
36
  8
0
  6
BYBLOCK
 62
     9
 10
11077.571157
 20
60589.96
 30
0.0
 11
11084.237823
 21
60589.96
 31
0.0
 12
11080.90449
 22
60569.96
 32
0.0
 13
11080.90449
 23
60569.96
 33
0.0
  0
POINT
  5
37
  8
DEFPOINTS
  6
BYBLOCK
 62
     0
 10
11160.08
 20
60699.96
 30
0.0
  0
POINT
  5
38
  8
DEFPOINTS
  6
BYBLOCK
 62
     0
 10
11150.08
 20
60569.96
 30
0.0
  0
POINT
  5
39
  8
DEFPOINTS
  6
BYBLOCK
 62
     0
 10
11080.90449
 20
60569.96
 30
0.0
  0
ENDBLK
  5
3B
  8
0
  0
BLOCK
  8
0
  2
*D2
 70
     1
 10
0.0
 20
0.0
 30
0.0
  3
*D2
  1

  0
LINE
  5
41
  8
0
  6
BYBLOCK
 62
     9
 10
11149.926198
 20
60699.961183
 30
0.0
 11
11121.664033
 21
60699.961183
 31
0.0
  0
LINE
  5
42
  8
0
  6
BYBLOCK
 62
     9
 10
11915.0
 20
60599.96
 30
0.0
 11
11121.664033
 21
60599.96
 31
0.0
  0
LINE
  5
43
  8
0
  6
BYBLOCK
 62
     9
 10
11122.664033
 20
60679.961183
 30
0.0
 11
11122.664033
 21
60619.96
 31
0.0
  0
TEXT
  5
44
  8
0
  6
BYBLOCK
 62
    11
 10
11140.164033
 20
60425.182875
 30
0.0
 40
35.0
  1
100.00
 50
90.0
  0
SOLID
  5
45
  8
0
  6
BYBLOCK
 62
     9
 10
11119.3307
 20
60679.961183
 30
0.0
 11
11125.997366
 21
60679.961183
 31
0.0
 12
11122.664033
 22
60699.961183
 32
0.0
 13
11122.664033
 23
60699.961183
 33
0.0
  0
SOLID
  5
46
  8
0
  6
BYBLOCK
 62
     9
 10
11119.3307
 20
60619.96
 30
0.0
 11
11125.997366
 21
60619.96
 31
0.0
 12
11122.664033
 22
60599.96
 32
0.0
 13
11122.664033
 23
60599.96
 33
0.0
  0
POINT
  5
47
  8
DEFPOINTS
  6
BYBLOCK
 62
     0
 10
11159.926198
 20
60699.961183
 30
0.0
  0
POINT
  5
48
  8
DEFPOINTS
  6
BYBLOCK
 62
     0
 10
11925.0
 20
60599.96
 30
0.0
  0
POINT
  5
49
  8
DEFPOINTS
  6
BYBLOCK
 62
     0
 10
11122.664033
 20
60599.96
 30
0.0
  0
ENDBLK
  5
4B
  8
0
  0
BLOCK
  8
0
  2
*D3
 70
     1
 10
0.0
 20
0.0
 30
0.0
  3
*D3
  1

  0
LINE
  5
75
  8
0
  6
BYBLOCK
 62
     9
 10
12571.0
 20
60114.982205
 30
0.0
 11
12571.0
 21
60079.767123
 31
0.0
  0
LINE
  5
76
  8
0
  6
BYBLOCK
 62
     9
 10
12519.0
 20
60114.982205
 30
0.0
 11
12519.0
 21
60079.767123
 31
0.0
  0
LINE
  5
77
  8
0
  6
BYBLOCK
 62
     9
 10
12591.0
 20
60080.767123
 30
0.0
 11
12611.0
 21
60080.767123
 31
0.0
  0
LINE
  5
78
  8
0
  6
BYBLOCK
 62
     9
 10
12499.0
 20
60080.767123
 30
0.0
 11
12479.0
 21
60080.767123
 31
0.0
  0
TEXT
  5
79
  8
0
  6
BYBLOCK
 62
    11
 10
12580.799025
 20
60063.267123
 30
0.0
 40
35.0
  1
52.00
  0
LINE
  5
7A
  8
0
  6
BYBLOCK
 62
     9
 10
12571.0
 20
60080.767123
 30
0.0
 11
12519.0
 21
60080.767123
 31
0.0
  0
SOLID
  5
7B
  8
0
  6
BYBLOCK
 62
     9
 10
12591.0
 20
60084.100457
 30
0.0
 11
12591.0
 21
60077.43379
 31
0.0
 12
12571.0
 22
60080.767123
 32
0.0
 13
12571.0
 23
60080.767123
 33
0.0
  0
SOLID
  5
7C
  8
0
  6
BYBLOCK
 62
     9
 10
12499.0
 20
60084.100457
 30
0.0
 11
12499.0
 21
60077.43379
 31
0.0
 12
12519.0
 22
60080.767123
 32
0.0
 13
12519.0
 23
60080.767123
 33
0.0
  0
POINT
  5
7D
  8
DEFPOINTS
  6
BYBLOCK
 62
     0
 10
12571.0
 20
60124.982205
 30
0.0
  0
POINT
  5
7E
  8
DEFPOINTS
  6
BYBLOCK
 62
     0
 10
12519.0
 20
60124.982205
 30
0.0
  0
POINT
  5
7F
  8
DEFPOINTS
  6
BYBLOCK
 62
     0
 10
12519.0
 20
60080.767123
 30
0.0
  0
ENDBLK
  5
81
  8
0
  0
BLOCK
  8
0
  2
*D4
 70
     1
 10
0.0
 20
0.0
 30
0.0
  3
*D4
  1

  0
LINE
  5
51
  8
0
  6
BYBLOCK
 62
     9
 10
12850.0
 20
60619.96
 30
0.0
 11
12922.843372
 21
60619.96
 31
0.0
  0
LINE
  5
52
  8
0
  6
BYBLOCK
 62
     9
 10
12555.0
 20
60149.96
 30
0.0
 11
12922.843372
 21
60149.96
 31
0.0
  0
LINE
  5
53
  8
0
  6
BYBLOCK
 62
     9
 10
12921.843372
 20
60599.96
 30
0.0
 11
12921.843372
 21
60470.71
 31
0.0
  0
LINE
  5
54
  8
0
  6
BYBLOCK
 62
     9
 10
12921.843372
 20
60169.96
 30
0.0
 11
12921.843372
 21
60299.21
 31
0.0
  0
SOLID
  5
55
  8
0
  6
BYBLOCK
 62
     9
 10
12918.510039
 20
60599.96
 30
0.0
 11
12925.176705
 21
60599.96
 31
0.0
 12
12921.843372
 22
60619.96
 32
0.0
 13
12921.843372
 23
60619.96
 33
0.0
  0
SOLID
  5
56
  8
0
  6
BYBLOCK
 62
     9
 10
12918.510039
 20
60169.96
 30
0.0
 11
12925.176705
 21
60169.96
 31
0.0
 12
12921.843372
 22
60149.96
 32
0.0
 13
12921.843372
 23
60149.96
 33
0.0
  0
TEXT
  5
57
  8
0
  6
BYBLOCK
 62
    11
 10
12939.343372
 20
60306.21
 30
0.0
 40
35.0
  1
470.00
 50
90.0
  0
POINT
  5
58
  8
DEFPOINTS
  6
BYBLOCK
 62
     0
 10
12840.0
 20
60619.96
 30
0.0
  0
POINT
  5
59
  8
DEFPOINTS
  6
BYBLOCK
 62
     0
 10
12545.0
 20
60149.96
 30
0.0
  0
POINT
  5
5A
  8
DEFPOINTS
  6
BYBLOCK
 62
     0
 10
12921.843372
 20
60149.96
 30
0.0
  0
ENDBLK
  5
5C
  8
0
  0
BLOCK
  8
0
  2
*D5
 70
     1
 10
0.0
 20
0.0
 30
0.0
  3
*D5
  1

  0
LINE
  5
5F
  8
0
  6
BYBLOCK
 62
     9
 10
12849.846197
 20
60619.958817
 30
0.0
 11
12880.401446
 21
60619.958817
 31
0.0
  0
LINE
  5
60
  8
0
  6
BYBLOCK
 62
     9
 10
12860.0
 20
60589.96
 30
0.0
 11
12880.401446
 21
60589.96
 31
0.0
  0
LINE
  5
61
  8
0
  6
BYBLOCK
 62
     9
 10
12879.401446
 20
60639.958817
 30
0.0
 11
12879.401446
 21
60659.958817
 31
0.0
  0
LINE
  5
62
  8
0
  6
BYBLOCK
 62
     9
 10
12879.401446
 20
60569.96
 30
0.0
 11
12879.401446
 21
60549.96
 31
0.0
  0
TEXT
  5
63
  8
0
  6
BYBLOCK
 62
    11
 10
12896.901446
 20
60455.259051
 30
0.0
 40
35.0
  1
30.00
 50
90.0
  0
LINE
  5
64
  8
0
  6
BYBLOCK
 62
     9
 10
12879.401446
 20
60619.958817
 30
0.0
 11
12879.401446
 21
60589.96
 31
0.0
  0
SOLID
  5
65
  8
0
  6
BYBLOCK
 62
     9
 10
12876.068113
 20
60639.958817
 30
0.0
 11
12882.73478
 21
60639.958817
 31
0.0
 12
12879.401446
 22
60619.958817
 32
0.0
 13
12879.401446
 23
60619.958817
 33
0.0
  0
SOLID
  5
66
  8
0
  6
BYBLOCK
 62
     9
 10
12876.068113
 20
60569.96
 30
0.0
 11
12882.73478
 21
60569.96
 31
0.0
 12
12879.401446
 22
60589.96
 32
0.0
 13
12879.401446
 23
60589.96
 33
0.0
  0
POINT
  5
67
  8
DEFPOINTS
  6
BYBLOCK
 62
     0
 10
12839.846197
 20
60619.958817
 30
0.0
  0
POINT
  5
68
  8
DEFPOINTS
  6
BYBLOCK
 62
     0
 10
12850.0
 20
60589.96
 30
0.0
  0
POINT
  5
69
  8
DEFPOINTS
  6
BYBLOCK
 62
     0
 10
12879.401446
 20
60589.96
 30
0.0
  0
ENDBLK
  5
6B
  8
0
  0
ENDSEC
  0
SECTION
  2
ENTITIES
  0
DIMENSION
  5
20
  8
TEAM-MAS
  2
*D0
 10
850.0
 20
738.604439
 30
0.0
 11
0.001549
 21
718.604439
 31
0.0
 12
-12000.0
 22
-59980.0
 32
0.0
 13
-849.996901
 23
649.960591
 33
0.0
 14
850.0
 24
599.96
 34
0.0
1001
ACAD
1000
DSTYLE
1002
{
1070
    40
1040
1.0
1002
}
  0
DIMENSION
  5
2F
  8
TEAM-MAS
  2
*D1
 10
-919.09551
 20
589.96
 30
0.0
 11
-919.09551
 21
511.991138
 31
0.0
 12
-12000.0
 22
-59980.0
 32
0.0
 70
   128
 13
-839.92
 23
719.96
 33
0.0
 14
-849.92
 24
589.96
 34
0.0
 50
90.0
1001
ACAD
1000
DSTYLE
1002
{
1070
    40
1040
1.0
1002
}
  0
ARC
  5
3C
  8
TEAM-BODY
 10
-840.073802
 20
709.961183
 30
0.0
 40
10.0
 50
89.118742
 51
180.0
  0
LINE
  5
3E
  8
TEAM-BODY
 10
-849.92
 20
589.96
 30
0.0
 11
-719.155168
 21
589.96
 31
0.0
  0
DIMENSION
  5
3F
  8
TEAM-MAS
  2
*D2
 10
-877.335967
 20
619.96
 30
0.0
 11
-877.335967
 21
515.182875
 31
0.0
 12
-12000.0
 22
-59980.0
 32
0.0
 70
   128
 13
-840.073802
 23
719.961183
 33
0.0
 14
-75.0
 24
619.96
 34
0.0
 50
90.0
1001
ACAD
1000
DSTYLE
1002
{
1070
    40
1040
1.0
1002
}
  0
LINE
  5
4C
  8
TEAM-BODY
 10
-849.92
 20
589.96
 30
0.0
 11
-850.073802
 21
709.961183
 31
0.0
  0
ARC
  5
4D
  8
TEAM-BODY
 10
5031.104204
 20
3365.097692
 30
0.0
 40
6384.894052
 50
204.631792
 51
209.24434
  0
ARC
  5
4E
  8
TEAM-BODY
 10
-2989.627425
 20
879.636272
 30
0.0
 40
3707.839507
 50
349.765795
 51
355.818903
  0
DIMENSION
  5
4F
  8
TEAM-MAS
  2
*D4
 10
921.843372
 20
149.96
 30
0.0
 11
921.843372
 21
384.96
 31
0.0
 12
-12000.0
 22
-60000.0
 32
0.0
 13
840.0
 23
619.96
 33
0.0
 14
545.0
 24
149.96
 34
0.0
 50
90.0
1001
ACAD
1000
DSTYLE
1002
{
1070
    40
1040
1.0
1002
}
  0
DIMENSION
  5
5D
  8
TEAM-MAS
  2
*D5
 10
879.401446
 20
589.96
 30
0.0
 11
879.401446
 21
516.509051
 31
0.0
 12
-12000.0
 22
-60000.0
 32
0.0
 70
   128
 13
839.846197
 23
619.958817
 33
0.0
 14
850.0
 24
589.96
 34
0.0
 50
90.0
1001
ACAD
1000
DSTYLE
1002
{
1070
    40
1040
1.0
1002
}
  0
LINE
  5
6C
  8
TEAM-BODY
 10
-420.567575
 20
184.846374
 30
0.0
 11
499.84769
 21
149.96
 31
0.0
  0
LINE
  5
6D
  8
TEAM-DET3
 10
-330.624787
 20
157.690874
 30
0.0
 11
419.792131
 21
127.304145
 31
0.0
  0
CIRCLE
  5
6F
  8
TEAM-INSP
 10
0.0
 20
0.0
 30
0.0
 40
10.0
  0
LINE
  5
71
  8
TEAM-DET3
 10
-330.624787
 20
157.690874
 30
0.0
 11
-355.306714
 21
182.3728
 31
0.0
  0
ARC
  5
72
  8
TEAM-BODY
 10
-420.986878
 20
331.431908
 30
0.0
 40
146.586133
 50
215.719097
 51
270.163892
  0
DIMENSION
  5
73
  8
TEAM-MAS
  2
*D3
 10
519.0
 20
100.767123
 30
0.0
 11
644.965692
 21
100.767123
 31
0.0
 12
-12000.0
 22
-59980.0
 32
0.0
 70
   128
 13
571.0
 23
144.982205
 33
0.0
 14
519.0
 24
144.982205
 34
0.0
1001
ACAD
1000
DSTYLE
1002
{
1070
    40
1040
1.0
1002
}
  0
ARC
  5
82
  8
TEAM-KAN
 10
517.025556
 20
160.186553
 30
0.0
 40
15.26826
 50
237.877987
 51
264.755706
  0
ARC
  5
84
  8
TEAM-KAN
 10
499.603503
 20
133.33341
 30
0.0
 40
16.738891
 50
56.25533
 51
83.359371
  0
ARC
  5
85
  8
TEAM-KAN
 10
572.974444
 20
160.186553
 30
0.0
 40
15.26826
 50
275.244294
 51
302.122013
  0
ARC
  5
86
  8
TEAM-KAN
 10
590.396497
 20
133.33341
 30
0.0
 40
16.738891
 50
96.640629
 51
123.74467
  0
LINE
  5
87
  8
TEAM-KAN
 10
519.0
 20
144.982205
 30
0.0
 11
519.0
 21
145.709618
 31
0.0
  0
LINE
  5
88
  8
TEAM-KAN
 10
571.0
 20
144.982205
 30
0.0
 11
571.0
 21
145.709618
 31
0.0
  0
LINE
  5
89
  8
TEAM-KAN
 10
574.37
 20
144.982205
 30
0.0
 11
515.63
 21
144.982205
 31
0.0
  0
LINE
  5
8A
  8
TEAM-DET3
 10
419.792131
 20
127.304145
 30
0.0
 11
442.620103
 21
152.129089
 31
0.0
  0
ARC
  5
8B
  8
TEAM-BODY
 10
578.232292
 20
230.644616
 30
0.0
 40
81.576414
 50
286.341448
 51
353.108307
  0
LINE
  5
8C
  8
TEAM-BODY
 10
588.460786
 20
149.96
 30
0.0
 11
601.18471
 21
152.363725
 31
0.0
  0
LINE
  5
8D
  8
TEAM-BODY
 10
499.84769
 20
149.96
 30
0.0
 11
590.15231
 21
149.96
 31
0.0
  0
POLYLINE
  5
8E
  8
TEAM-DET3
 66
     1
 10
0.0
 20
0.0
 30
0.0
  0
VERTEX
  5
19C
  8
TEAM-DET3
 10
-413.0
 20
173.563687
 30
0.0
  0
VERTEX
  5
19D
  8
TEAM-DET3
 10
-413.0
 20
152.190616
 30
0.0
  0
VERTEX
  5
19E
  8
TEAM-DET3
 10
-365.0
 20
152.190616
 30
0.0
  0
VERTEX
  5
19F
  8
TEAM-DET3
 10
-365.0
 20
173.563687
 30
0.0
  0
SEQEND
  5
1A0
  8
TEAM-DET3
  0
POLYLINE
  5
8F
  8
TEAM-DET3
 66
     1
 10
0.0
 20
0.0
 30
0.0
  0
VERTEX
  5
1A1
  8
TEAM-DET3
 10
-413.0
 20
150.563687
 30
0.0
  0
VERTEX
  5
1A2
  8
TEAM-DET3
 10
-413.0
 20
173.563687
 30
0.0
  0
VERTEX
  5
1A3
  8
TEAM-DET3
 10
-365.0
 20
173.563687
 30
0.0
  0
VERTEX
  5
1A4
  8
TEAM-DET3
 10
-365.0
 20
150.563687
 30
0.0
  0
SEQEND
  5
1A5
  8
TEAM-DET3
  0
POLYLINE
  5
90
  8
TEAM-DET3
 66
     1
 10
0.0
 20
0.0
 30
0.0
  0
VERTEX
  5
1A6
  8
TEAM-DET3
 10
-415.0
 20
150.563687
 30
0.0
  0
VERTEX
  5
1A7
  8
TEAM-DET3
 10
-415.0
 20
175.563687
 30
0.0
  0
VERTEX
  5
1A8
  8
TEAM-DET3
 10
-363.0
 20
175.563687
 30
0.0
  0
VERTEX
  5
1A9
  8
TEAM-DET3
 10
-363.0
 20
150.563687
 30
0.0
  0
SEQEND
  5
1AA
  8
TEAM-DET3
  0
POLYLINE
  5
91
  8
TEAM-DET3
 66
     1
 10
0.0
 20
0.0
 30
0.0
  0
VERTEX
  5
1AB
  8
TEAM-DET3
 10
-409.0
 20
173.563687
 30
0.0
  0
VERTEX
  5
1AC
  8
TEAM-DET3
 10
-409.0
 20
156.190616
 30
0.0
  0
VERTEX
  5
1AD
  8
TEAM-DET3
 10
-369.0
 20
156.190616
 30
0.0
  0
VERTEX
  5
1AE
  8
TEAM-DET3
 10
-369.0
 20
173.563687
 30
0.0
  0
SEQEND
  5
1AF
  8
TEAM-DET3
  0
POLYLINE
  5
92
  8
TEAM-DET3
 66
     1
 10
0.0
 20
0.0
 30
0.0
  0
VERTEX
  5
1B0
  8
TEAM-DET3
 10
409.0
 20
146.39284
 30
0.0
  0
VERTEX
  5
1B1
  8
TEAM-DET3
 10
409.0
 20
129.019769
 30
0.0
  0
VERTEX
  5
1B2
  8
TEAM-DET3
 10
369.0
 20
129.019769
 30
0.0
  0
VERTEX
  5
1B3
  8
TEAM-DET3
 10
369.0
 20
146.39284
 30
0.0
  0
SEQEND
  5
1B4
  8
TEAM-DET3
  0
POLYLINE
  5
93
  8
TEAM-DET3
 66
     1
 10
0.0
 20
0.0
 30
0.0
  0
VERTEX
  5
1B5
  8
TEAM-DET3
 10
415.0
 20
123.39284
 30
0.0
  0
VERTEX
  5
1B6
  8
TEAM-DET3
 10
415.0
 20
148.39284
 30
0.0
  0
VERTEX
  5
1B7
  8
TEAM-DET3
 10
363.0
 20
148.39284
 30
0.0
  0
VERTEX
  5
1B8
  8
TEAM-DET3
 10
363.0
 20
123.39284
 30
0.0
  0
SEQEND
  5
1B9
  8
TEAM-DET3
  0
POLYLINE
  5
94
  8
TEAM-DET3
 66
     1
 10
0.0
 20
0.0
 30
0.0
  0
VERTEX
  5
1BA
  8
TEAM-DET3
 10
413.0
 20
123.39284
 30
0.0
  0
VERTEX
  5
1BB
  8
TEAM-DET3
 10
413.0
 20
146.39284
 30
0.0
  0
VERTEX
  5
1BC
  8
TEAM-DET3
 10
365.0
 20
146.39284
 30
0.0
  0
VERTEX
  5
1BD
  8
TEAM-DET3
 10
365.0
 20
123.39284
 30
0.0
  0
SEQEND
  5
1BE
  8
TEAM-DET3
  0
POLYLINE
  5
95
  8
TEAM-DET3
 66
     1
 10
0.0
 20
0.0
 30
0.0
  0
VERTEX
  5
1BF
  8
TEAM-DET3
 10
413.0
 20
146.39284
 30
0.0
  0
VERTEX
  5
1C0
  8
TEAM-DET3
 10
413.0
 20
125.019769
 30
0.0
  0
VERTEX
  5
1C1
  8
TEAM-DET3
 10
365.0
 20
125.019769
 30
0.0
  0
VERTEX
  5
1C2
  8
TEAM-DET3
 10
365.0
 20
146.39284
 30
0.0
  0
SEQEND
  5
1C3
  8
TEAM-DET3
  0
LINE
  5
96
  8
TEAM-DET3
 10
-383.00061
 20
51.99984
 30
0.0
 11
-383.00061
 21
152.190616
 31
0.0
  0
LINE
  5
97
  8
TEAM-DET3
 10
-395.00061
 20
152.190616
 30
0.0
 11
-395.00061
 21
51.99984
 31
0.0
  0
LINE
  5
98
  8
TEAM-DET3
 10
-394.06007
 20
152.190616
 30
0.0
 11
-394.06007
 21
51.99984
 31
0.0
  0
LINE
  5
99
  8
TEAM-DET3
 10
-383.93995
 20
51.99984
 30
0.0
 11
-383.93995
 21
152.190616
 31
0.0
  0
LINE
  5
9A
  8
TEAM-DET3
 10
383.93995
 20
51.99984
 30
0.0
 11
383.93995
 21
125.019769
 31
0.0
  0
LINE
  5
9B
  8
TEAM-DET3
 10
394.06007
 20
125.019769
 30
0.0
 11
394.06007
 21
51.99984
 31
0.0
  0
LINE
  5
9C
  8
TEAM-DET3
 10
395.00061
 20
125.019769
 30
0.0
 11
395.00061
 21
51.99984
 31
0.0
  0
LINE
  5
9D
  8
TEAM-DET3
 10
383.00061
 20
51.99984
 30
0.0
 11
383.00061
 21
125.019769
 31
0.0
  0
LINE
  5
9E
  8
TEAM-DET3
 10
409.0
 20
134.706304
 30
0.0
 11
406.0
 21
134.706304
 31
0.0
  0
LINE
  5
9F
  8
TEAM-DET3
 10
419.0
 20
134.706304
 30
0.0
 11
415.0
 21
134.706304
 31
0.0
  0
LINE
  5
A0
  8
TEAM-DET3
 10
409.0
 20
140.706304
 30
0.0
 11
406.0
 21
140.706304
 31
0.0
  0
LINE
  5
A1
  8
TEAM-DET3
 10
419.0
 20
140.706304
 30
0.0
 11
415.0
 21
140.706304
 31
0.0
  0
LINE
  5
A2
  8
TEAM-DET3
 10
363.0
 20
134.706304
 30
0.0
 11
359.0
 21
134.706304
 31
0.0
  0
LINE
  5
A3
  8
TEAM-DET3
 10
372.0
 20
134.706304
 30
0.0
 11
369.0
 21
134.706304
 31
0.0
  0
LINE
  5
A4
  8
TEAM-DET3
 10
363.0
 20
140.706304
 30
0.0
 11
359.0
 21
140.706304
 31
0.0
  0
LINE
  5
A5
  8
TEAM-DET3
 10
372.0
 20
140.706304
 30
0.0
 11
369.0
 21
140.706304
 31
0.0
  0
LINE
  5
A6
  8
TEAM-DET3
 10
359.0
 20
143.706304
 30
0.0
 11
359.0
 21
131.706304
 31
0.0
  0
LINE
  5
A7
  8
TEAM-DET3
 10
372.0
 20
140.706304
 30
0.0
 11
372.0
 21
134.706304
 31
0.0
  0
LINE
  5
A8
  8
TEAM-DET3
 10
406.0
 20
140.706304
 30
0.0
 11
406.0
 21
134.706304
 31
0.0
  0
LINE
  5
A9
  8
TEAM-DET3
 10
419.0
 20
143.706304
 30
0.0
 11
419.0
 21
131.706304
 31
0.0
  0
LINE
  5
AA
  8
TEAM-DET3
 10
363.0
 20
131.706304
 30
0.0
 11
359.0
 21
131.706304
 31
0.0
  0
LINE
  5
AB
  8
TEAM-DET3
 10
363.0
 20
143.706304
 30
0.0
 11
359.0
 21
143.706304
 31
0.0
  0
LINE
  5
AC
  8
TEAM-DET3
 10
419.0
 20
131.706304
 30
0.0
 11
415.0
 21
131.706304
 31
0.0
  0
LINE
  5
AD
  8
TEAM-DET3
 10
419.0
 20
143.706304
 30
0.0
 11
415.0
 21
143.706304
 31
0.0
  0
LINE
  5
AE
  8
TEAM-DET3
 10
365.0
 20
123.39284
 30
0.0
 11
363.0
 21
123.39284
 31
0.0
  0
LINE
  5
AF
  8
TEAM-DET3
 10
415.0
 20
123.39284
 30
0.0
 11
413.0
 21
123.39284
 31
0.0
  0
LINE
  5
B0
  8
TEAM-DET3
 10
394.12415
 20
133.456669
 30
0.0
 11
384.12365
 21
133.456669
 31
0.0
  0
LINE
  5
B1
  8
TEAM-DET3
 10
395.12389
 20
132.456909
 30
0.0
 11
383.12389
 21
132.456909
 31
0.0
  0
LINE
  5
B2
  8
TEAM-DET3
 10
395.12389
 20
132.456909
 30
0.0
 11
395.12389
 21
129.019769
 31
0.0
  0
LINE
  5
B3
  8
TEAM-DET3
 10
383.12389
 20
129.019769
 30
0.0
 11
383.12389
 21
132.456909
 31
0.0
  0
LINE
  5
B4
  8
TEAM-DET3
 10
394.37439
 20
133.206429
 30
0.0
 11
394.37317
 21
129.019769
 31
0.0
  0
LINE
  5
B5
  8
TEAM-DET3
 10
383.87341
 20
133.206429
 30
0.0
 11
383.87341
 21
129.019769
 31
0.0
  0
LINE
  5
B6
  8
TEAM-DET3
 10
394.12415
 20
133.456669
 30
0.0
 11
394.37439
 21
133.206429
 31
0.0
  0
LINE
  5
B7
  8
TEAM-DET3
 10
394.37439
 20
133.206429
 30
0.0
 11
395.12389
 21
132.456909
 31
0.0
  0
LINE
  5
B8
  8
TEAM-DET3
 10
384.12365
 20
133.456669
 30
0.0
 11
383.87341
 21
133.206429
 31
0.0
  0
LINE
  5
B9
  8
TEAM-DET3
 10
383.87341
 20
133.206429
 30
0.0
 11
383.12389
 21
132.456909
 31
0.0
  0
LINE
  5
BA
  8
TEAM-DET3
 10
-383.87341
 20
160.377277
 30
0.0
 11
-383.12389
 21
159.627757
 31
0.0
  0
LINE
  5
BB
  8
TEAM-DET3
 10
-384.12365
 20
160.627517
 30
0.0
 11
-383.87341
 21
160.377277
 31
0.0
  0
LINE
  5
BC
  8
TEAM-DET3
 10
-394.37439
 20
160.377277
 30
0.0
 11
-395.12389
 21
159.627757
 31
0.0
  0
LINE
  5
BD
  8
TEAM-DET3
 10
-394.12415
 20
160.627517
 30
0.0
 11
-394.37439
 21
160.377277
 31
0.0
  0
LINE
  5
BE
  8
TEAM-DET3
 10
-383.87341
 20
160.377277
 30
0.0
 11
-383.87341
 21
156.190616
 31
0.0
  0
LINE
  5
BF
  8
TEAM-DET3
 10
-394.37439
 20
160.377277
 30
0.0
 11
-394.37317
 21
156.190616
 31
0.0
  0
LINE
  5
C0
  8
TEAM-DET3
 10
-383.12389
 20
156.190616
 30
0.0
 11
-383.12389
 21
159.627757
 31
0.0
  0
LINE
  5
C1
  8
TEAM-DET3
 10
-395.12389
 20
159.627757
 30
0.0
 11
-395.12389
 21
156.190616
 31
0.0
  0
LINE
  5
C2
  8
TEAM-DET3
 10
-395.12389
 20
159.627757
 30
0.0
 11
-383.12389
 21
159.627757
 31
0.0
  0
LINE
  5
C3
  8
TEAM-DET3
 10
-394.12415
 20
160.627517
 30
0.0
 11
-384.12365
 21
160.627517
 31
0.0
  0
LINE
  5
C4
  8
TEAM-DET3
 10
-415.0
 20
150.563687
 30
0.0
 11
-413.0
 21
150.563687
 31
0.0
  0
LINE
  5
C5
  8
TEAM-DET3
 10
-365.0
 20
150.563687
 30
0.0
 11
-363.0
 21
150.563687
 31
0.0
  0
LINE
  5
C6
  8
TEAM-DET3
 10
-419.0
 20
170.877151
 30
0.0
 11
-415.0
 21
170.877151
 31
0.0
  0
LINE
  5
C7
  8
TEAM-DET3
 10
-419.0
 20
158.877151
 30
0.0
 11
-415.0
 21
158.877151
 31
0.0
  0
LINE
  5
C8
  8
TEAM-DET3
 10
-363.0
 20
170.877151
 30
0.0
 11
-359.0
 21
170.877151
 31
0.0
  0
LINE
  5
C9
  8
TEAM-DET3
 10
-363.0
 20
158.877151
 30
0.0
 11
-359.0
 21
158.877151
 31
0.0
  0
LINE
  5
CA
  8
TEAM-DET3
 10
-419.0
 20
170.877151
 30
0.0
 11
-419.0
 21
158.877151
 31
0.0
  0
LINE
  5
CB
  8
TEAM-DET3
 10
-406.0
 20
167.877151
 30
0.0
 11
-406.0
 21
161.877151
 31
0.0
  0
LINE
  5
CC
  8
TEAM-DET3
 10
-372.0
 20
167.877151
 30
0.0
 11
-372.0
 21
161.877151
 31
0.0
  0
LINE
  5
CD
  8
TEAM-DET3
 10
-359.0
 20
170.877151
 30
0.0
 11
-359.0
 21
158.877151
 31
0.0
  0
LINE
  5
CE
  8
TEAM-DET3
 10
-372.0
 20
167.877151
 30
0.0
 11
-369.0
 21
167.877151
 31
0.0
  0
LINE
  5
CF
  8
TEAM-DET3
 10
-363.0
 20
167.877151
 30
0.0
 11
-359.0
 21
167.877151
 31
0.0
  0
LINE
  5
D0
  8
TEAM-DET3
 10
-372.0
 20
161.877151
 30
0.0
 11
-369.0
 21
161.877151
 31
0.0
  0
LINE
  5
D1
  8
TEAM-DET3
 10
-363.0
 20
161.877151
 30
0.0
 11
-359.0
 21
161.877151
 31
0.0
  0
LINE
  5
D2
  8
TEAM-DET3
 10
-419.0
 20
167.877151
 30
0.0
 11
-415.0
 21
167.877151
 31
0.0
  0
LINE
  5
D3
  8
TEAM-DET3
 10
-409.0
 20
167.877151
 30
0.0
 11
-406.0
 21
167.877151
 31
0.0
  0
LINE
  5
D4
  8
TEAM-DET3
 10
-419.0
 20
161.877151
 30
0.0
 11
-415.0
 21
161.877151
 31
0.0
  0
LINE
  5
D5
  8
TEAM-DET3
 10
-409.0
 20
161.877151
 30
0.0
 11
-406.0
 21
161.877151
 31
0.0
  0
LINE
  5
D6
  8
TEAM-DET3
 10
-383.00061
 20
0.0
 30
0.0
 11
-383.00061
 21
9.99984
 31
0.0
  0
LINE
  5
D7
  8
TEAM-DET3
 10
-395.00061
 20
9.99984
 30
0.0
 11
-395.00061
 21
0.0
 31
0.0
  0
LINE
  5
D8
  8
TEAM-DET3
 10
-402.1239
 20
9.99984
 30
0.0
 11
-376.1239
 21
9.99984
 31
0.0
  0
LINE
  5
D9
  8
TEAM-DET3
 10
-402.1239
 20
9.99984
 30
0.0
 11
-402.1239
 21
0.0
 31
0.0
  0
LINE
  5
DA
  8
TEAM-DET3
 10
-376.1239
 20
9.99984
 30
0.0
 11
-376.1239
 21
0.0
 31
0.0
  0
LINE
  5
DB
  8
TEAM-DET3
 10
-402.1239
 20
9.99984
 30
0.0
 11
-376.1239
 21
9.99984
 31
0.0
  0
LINE
  5
DC
  8
TEAM-DET3
 10
-402.1239
 20
0.0
 30
0.0
 11
-376.1239
 21
0.0
 31
0.0
  0
LINE
  5
DD
  8
TEAM-HIDE
 10
-500.0
 20
-0.00016
 30
0.0
 11
500.0
 21
-0.00016
 31
0.0
  0
LINE
  5
E0
  8
TEAM-DET3
 10
402.1239
 20
0.0
 30
0.0
 11
376.1239
 21
0.0
 31
0.0
  0
LINE
  5
E1
  8
TEAM-DET3
 10
402.1239
 20
9.99984
 30
0.0
 11
376.1239
 21
9.99984
 31
0.0
  0
LINE
  5
E2
  8
TEAM-DET3
 10
376.1239
 20
9.99984
 30
0.0
 11
376.1239
 21
0.0
 31
0.0
  0
LINE
  5
E3
  8
TEAM-DET3
 10
402.1239
 20
9.99984
 30
0.0
 11
402.1239
 21
0.0
 31
0.0
  0
LINE
  5
E4
  8
TEAM-DET3
 10
402.1239
 20
9.99984
 30
0.0
 11
376.1239
 21
9.99984
 31
0.0
  0
LINE
  5
E5
  8
TEAM-DET3
 10
395.00061
 20
9.99984
 30
0.0
 11
395.00061
 21
0.0
 31
0.0
  0
LINE
  5
E6
  8
TEAM-DET3
 10
383.00061
 20
0.0
 30
0.0
 11
383.00061
 21
9.99984
 31
0.0
  0
LINE
  5
E7
  8
TEAM-DET3
 10
398.00061
 20
51.99984
 30
0.0
 11
380.00061
 21
51.99984
 31
0.0
  0
LINE
  5
E8
  8
TEAM-DET3
 10
400.00061
 20
13.99984
 30
0.0
 11
378.00061
 21
13.99984
 31
0.0
  0
LINE
  5
E9
  8
TEAM-DET3
 10
399.00061
 20
40.99984
 30
0.0
 11
379.00061
 21
40.99984
 31
0.0
  0
LINE
  5
EA
  8
TEAM-DET3
 10
398.00061
 20
47.99984
 30
0.0
 11
380.00061
 21
47.99984
 31
0.0
  0
LINE
  5
EB
  8
TEAM-DET3
 10
378.00061
 20
13.99984
 30
0.0
 11
379.00061
 21
40.99984
 31
0.0
  0
LINE
  5
EC
  8
TEAM-DET3
 10
380.00061
 20
40.99984
 30
0.0
 11
380.00061
 21
51.99984
 31
0.0
  0
LINE
  5
ED
  8
TEAM-DET3
 10
398.00061
 20
51.99984
 30
0.0
 11
398.00061
 21
40.99984
 31
0.0
  0
LINE
  5
EE
  8
TEAM-DET3
 10
402.1239
 20
9.99984
 30
0.0
 11
400.00061
 21
13.99984
 31
0.0
  0
LINE
  5
EF
  8
TEAM-DET3
 10
376.1239
 20
9.99984
 30
0.0
 11
378.00061
 21
13.99984
 31
0.0
  0
LINE
  5
F0
  8
TEAM-DET3
 10
399.00061
 20
40.99984
 30
0.0
 11
400.00061
 21
13.99984
 31
0.0
  0
LINE
  5
F1
  8
TEAM-DET3
 10
393.858832
 20
51.99984
 30
0.0
 11
393.858832
 21
47.99984
 31
0.0
  0
LINE
  5
F2
  8
TEAM-DET3
 10
384.142388
 20
51.99984
 30
0.0
 11
384.142388
 21
47.99984
 31
0.0
  0
LINE
  5
F3
  8
TEAM-DET3
 10
389.00061
 20
40.99984
 30
0.0
 11
389.00061
 21
13.99984
 31
0.0
  0
LINE
  5
F4
  8
TEAM-DET3
 10
393.767181
 20
40.99984
 30
0.0
 11
394.767181
 21
13.99984
 31
0.0
  0
LINE
  5
F5
  8
TEAM-DET3
 10
384.234039
 20
40.99984
 30
0.0
 11
383.234039
 21
13.99984
 31
0.0
  0
LINE
  5
F6
  8
TEAM-DET3
 10
-384.234039
 20
40.99984
 30
0.0
 11
-383.234039
 21
13.99984
 31
0.0
  0
LINE
  5
F7
  8
TEAM-DET3
 10
-393.767181
 20
40.99984
 30
0.0
 11
-394.767181
 21
13.99984
 31
0.0
  0
LINE
  5
F8
  8
TEAM-DET3
 10
-389.00061
 20
40.99984
 30
0.0
 11
-389.00061
 21
13.99984
 31
0.0
  0
LINE
  5
F9
  8
TEAM-DET3
 10
-384.142388
 20
51.99984
 30
0.0
 11
-384.142388
 21
47.99984
 31
0.0
  0
LINE
  5
FA
  8
TEAM-DET3
 10
-393.858832
 20
51.99984
 30
0.0
 11
-393.858832
 21
47.99984
 31
0.0
  0
LINE
  5
FB
  8
TEAM-DET3
 10
-399.00061
 20
40.99984
 30
0.0
 11
-400.00061
 21
13.99984
 31
0.0
  0
LINE
  5
FC
  8
TEAM-DET3
 10
-376.1239
 20
9.99984
 30
0.0
 11
-378.00061
 21
13.99984
 31
0.0
  0
LINE
  5
FD
  8
TEAM-DET3
 10
-402.1239
 20
9.99984
 30
0.0
 11
-400.00061
 21
13.99984
 31
0.0
  0
LINE
  5
FE
  8
TEAM-DET3
 10
-398.00061
 20
51.99984
 30
0.0
 11
-398.00061
 21
40.99984
 31
0.0
  0
LINE
  5
FF
  8
TEAM-DET3
 10
-380.00061
 20
40.99984
 30
0.0
 11
-380.00061
 21
51.99984
 31
0.0
  0
LINE
  5
100
  8
TEAM-DET3
 10
-378.00061
 20
13.99984
 30
0.0
 11
-379.00061
 21
40.99984
 31
0.0
  0
LINE
  5
101
  8
TEAM-DET3
 10
-398.00061
 20
47.99984
 30
0.0
 11
-380.00061
 21
47.99984
 31
0.0
  0
LINE
  5
102
  8
TEAM-DET3
 10
-399.00061
 20
40.99984
 30
0.0
 11
-379.00061
 21
40.99984
 31
0.0
  0
LINE
  5
103
  8
TEAM-DET3
 10
-400.00061
 20
13.99984
 30
0.0
 11
-378.00061
 21
13.99984
 31
0.0
  0
LINE
  5
104
  8
TEAM-DET3
 10
-398.00061
 20
51.99984
 30
0.0
 11
-380.00061
 21
51.99984
 31
0.0
  0
LINE
  5
105
  8
TEAM-BODY
 10
-75.0
 20
619.96
 30
0.0
 11
840.0
 21
619.96
 31
0.0
  0
LINE
  5
106
  8
TEAM-BODY
 10
-839.92
 20
719.96
 30
0.0
 11
-75.0
 21
619.96
 31
0.0
  0
ARC
  5
107
  8
TEAM-BODY
 10
-785.948282
 20
698.582637
 30
0.0
 40
14.211862
 50
22.26789
 51
85.653843
  0
LINE
  5
108
  8
TEAM-BODY
 10
-784.871278
 20
712.753631
 30
0.0
 11
-839.92
 21
719.96
 31
0.0
  0
TEXT
  5
109
  8
TEAM-TXT
 10
-633.275263
 20
558.967724
 30
0.0
 40
30.0
  1
team 121055
 41
0.8
 51
15.0
  7
TEAM
  0
ARC
  5
10C
  8
TEAM-BODY
 10
840.0
 20
609.96
 30
0.0
 40
10.0
 50
0.0
 51
90.881258
  0
LINE
  5
10D
  8
TEAM-BODY
 10
850.0
 20
589.96
 30
0.0
 11
850.0
 21
609.96
 31
0.0
  0
ARC
  5
10E
  8
TEAM-BODY
 10
718.270112
 20
608.087542
 30
0.0
 40
10.0
 50
90.881258
 51
173.031528
  0
LINE
  5
10F
  8
TEAM-BODY
 10
718.11631
 20
618.086359
 30
0.0
 11
839.846197
 21
619.958817
 31
0.0
  0
LINE
  5
110
  8
TEAM-BODY
 10
706.879233
 20
589.96
 30
0.0
 11
850.0
 21
589.96
 31
0.0
  0
ENDSEC
  0
EOF
