  0
SECTION
  2
HEADER
  9
$ACADVER
  1
AC1009
  9
$INSBASE
 10
0.0
 20
0.0
 30
0.0
  9
$EXTMIN
 10
-956.119047
 20
-490.513508
 30
-0.000003
  9
$EXTMAX
 10
956.11257
 20
402.136298
 30
0.000007
  9
$LIMMIN
 10
-956.119047
 20
-490.513508
  9
$LIMMAX
 10
956.11257
 20
402.136298
  9
$ORTHOMODE
 70
     1
  9
$REGENMODE
 70
     1
  9
$FILLMODE
 70
     1
  9
$QTEXTMODE
 70
     0
  9
$MIRRTEXT
 70
     0
  9
$DRAGMODE
 70
     2
  9
$LTSCALE
 40
50.0
  9
$OSMODE
 70
     7
  9
$ATTMODE
 70
     1
  9
$TEXTSIZE
 40
200.0
  9
$TRACEWID
 40
1.0
  9
$TEXTSTYLE
  7
STANDARD
  9
$CLAYER
  8
TEAM-MAS
  9
$CELTYPE
  6
BYLAYER
  9
$CECOLOR
 62
   256
  9
$DIMSCALE
 40
0.0
  9
$DIMASZ
 40
20.0
  9
$DIMEXO
 40
10.0
  9
$DIMDLI
 40
1.0
  9
$DIMRND
 40
0.0
  9
$DIMDLE
 40
0.0
  9
$DIMEXE
 40
1.0
  9
$DIMTP
 40
0.0
  9
$DIMTM
 40
0.0
  9
$DIMTXT
 40
35.0
  9
$DIMCEN
 40
1.0
  9
$DIMTSZ
 40
0.0
  9
$DIMTOL
 70
     0
  9
$DIMLIM
 70
     0
  9
$DIMTIH
 70
     0
  9
$DIMTOH
 70
     0
  9
$DIMSE1
 70
     0
  9
$DIMSE2
 70
     0
  9
$DIMTAD
 70
     0
  9
$DIMZIN
 70
     0
  9
$DIMBLK
  1

  9
$DIMASO
 70
     1
  9
$DIMSHO
 70
     0
  9
$DIMPOST
  1

  9
$DIMAPOST
  1

  9
$DIMALT
 70
     0
  9
$DIMALTD
 70
     2
  9
$DIMALTF
 40
25.4
  9
$DIMLFAC
 40
1.0
  9
$DIMTOFL
 70
     0
  9
$DIMTVP
 40
0.0
  9
$DIMTIX
 70
     0
  9
$DIMSOXD
 70
     0
  9
$DIMSAH
 70
     0
  9
$DIMBLK1
  1

  9
$DIMBLK2
  1

  9
$DIMSTYLE
  2
TEAM
  9
$DIMCLRD
 70
     9
  9
$DIMCLRE
 70
     9
  9
$DIMCLRT
 70
    11
  9
$DIMTFAC
 40
1.0
  9
$DIMGAP
 40
7.0
  9
$LUNITS
 70
     2
  9
$LUPREC
 70
     1
  9
$SKETCHINC
 40
1.0
  9
$FILLETRAD
 40
5.0
  9
$AUNITS
 70
     0
  9
$AUPREC
 70
     0
  9
$MENU
  1
ROPLANS
  9
$ELEVATION
 40
0.0
  9
$PELEVATION
 40
0.0
  9
$THICKNESS
 40
0.0
  9
$LIMCHECK
 70
     0
  9
$BLIPMODE
 70
     1
  9
$CHAMFERA
 40
0.0
  9
$CHAMFERB
 40
0.0
  9
$SKPOLY
 70
     0
  9
$TDCREATE
 40
2450392.957851
  9
$TDUPDATE
 40
2456004.599416
  9
$TDINDWG
 40
2.546599
  9
$TDUSRTIMER
 40
2.546599
  9
$USRTIMER
 70
     1
  9
$ANGBASE
 50
0.0
  9
$ANGDIR
 70
     0
  9
$PDMODE
 70
     0
  9
$PDSIZE
 40
0.0
  9
$PLINEWID
 40
0.0
  9
$COORDS
 70
     2
  9
$SPLFRAME
 70
     0
  9
$SPLINETYPE
 70
     6
  9
$SPLINESEGS
 70
     8
  9
$ATTDIA
 70
     0
  9
$ATTREQ
 70
     0
  9
$HANDLING
 70
     1
  9
$HANDSEED
  5
138
  9
$SURFTAB1
 70
    36
  9
$SURFTAB2
 70
    36
  9
$SURFTYPE
 70
     6
  9
$SURFU
 70
     6
  9
$SURFV
 70
     6
  9
$UCSNAME
  2

  9
$UCSORG
 10
0.0
 20
0.0
 30
0.0
  9
$UCSXDIR
 10
1.0
 20
0.0
 30
0.0
  9
$UCSYDIR
 10
0.0
 20
1.0
 30
0.0
  9
$PUCSNAME
  2

  9
$PUCSORG
 10
0.0
 20
0.0
 30
0.0
  9
$PUCSXDIR
 10
1.0
 20
0.0
 30
0.0
  9
$PUCSYDIR
 10
0.0
 20
1.0
 30
0.0
  9
$USERI1
 70
     0
  9
$USERI2
 70
     0
  9
$USERI3
 70
     0
  9
$USERI4
 70
     0
  9
$USERI5
 70
     0
  9
$USERR1
 40
0.0
  9
$USERR2
 40
0.0
  9
$USERR3
 40
0.0
  9
$USERR4
 40
0.0
  9
$USERR5
 40
0.0
  9
$WORLDVIEW
 70
     1
  9
$SHADEDGE
 70
     0
  9
$SHADEDIF
 70
    70
  9
$TILEMODE
 70
     1
  9
$MAXACTVP
 70
    16
  9
$PLIMCHECK
 70
     0
  9
$PEXTMIN
 10
-0.805942
 20
0.005011
 30
0.0
  9
$PEXTMAX
 10
20.250094
 20
11.356329
 30
0.0
  9
$PLIMMIN
 10
0.0
 20
0.0
  9
$PLIMMAX
 10
12.0
 20
9.0
  9
$UNITMODE
 70
     0
  9
$VISRETAIN
 70
     0
  9
$PLINEGEN
 70
     0
  9
$PSLTSCALE
 70
     0
  0
ENDSEC
  0
SECTION
  2
TABLES
  0
TABLE
  2
VPORT
 70
     2
  0
VPORT
  2
*ACTIVE
 70
     0
 10
0.0
 20
0.0
 11
1.0
 21
1.0
 12
-0.003238
 22
-44.188605
 13
0.0
 23
0.0
 14
1.0
 24
1.0
 15
50.0
 25
50.0
 16
0.0
 26
0.0
 36
1.0
 17
0.0
 27
0.0
 37
0.0
 40
1007.754841
 41
1.903766
 42
50.0
 43
0.0
 44
0.0
 50
0.0
 51
0.0
 71
     0
 72
   100
 73
     1
 74
     1
 75
     0
 76
     0
 77
     0
 78
     0
  0
ENDTAB
  0
TABLE
  2
LTYPE
 70
     2
  0
LTYPE
  2
CONTINUOUS
 70
     0
  3
Solid Line
 72
    65
 73
     0
 40
0.0
  0
LTYPE
  2
31
 70
     0
  3

 72
    65
 73
     4
 40
2.1
 49
1.5
 49
-0.3
 49
0.0
 49
-0.3
  0
ENDTAB
  0
TABLE
  2
LAYER
 70
     8
  0
LAYER
  2
0
 70
     0
 62
     7
  6
CONTINUOUS
  0
LAYER
  2
DEFPOINTS
 70
     0
 62
     7
  6
CONTINUOUS
  0
LAYER
  2
TEAM-BODY
 70
     0
 62
     2
  6
CONTINUOUS
  0
LAYER
  2
TEAM-AXE
 70
     0
 62
    10
  6
31
  0
LAYER
  2
TEAM-MAS
 70
     0
 62
     9
  6
CONTINUOUS
  0
LAYER
  2
TEAM-TXT
 70
     0
 62
    11
  6
CONTINUOUS
  0
LAYER
  2
TEAM-DET1
 70
     0
 62
     4
  6
CONTINUOUS
  0
LAYER
  2
TEAM-INSP
 70
     0
 62
     5
  6
CONTINUOUS
  0
ENDTAB
  0
TABLE
  2
STYLE
 70
     2
  0
STYLE
  2
STANDARD
 70
     0
 40
0.0
 41
1.0
 50
0.0
 71
     0
 42
200.0
  3
txt
  4

  0
STYLE
  2
TEAM
 70
     0
 40
0.0
 41
0.8
 50
15.0
 71
     0
 42
7.0
  3
ROMANS.shx
  4

  0
ENDTAB
  0
TABLE
  2
VIEW
 70
     0
  0
ENDTAB
  0
TABLE
  2
UCS
 70
     0
  0
ENDTAB
  0
TABLE
  2
APPID
 70
     1
  0
APPID
  2
ACAD
 70
     0
  0
ENDTAB
  0
TABLE
  2
DIMSTYLE
 70
     1
  0
DIMSTYLE
  2
TEAM
 70
     0
  3

  4

  5

  6

  7

 40
0.0
 41
20.0
 42
10.0
 43
1.0
 44
1.0
 45
0.0
 46
0.0
 47
0.0
 48
0.0
140
35.0
141
1.0
142
0.0
143
25.4
144
1.0
145
0.0
146
1.0
147
7.0
 71
     0
 72
     0
 73
     0
 74
     0
 75
     0
 76
     0
 77
     0
 78
     0
170
     0
171
     2
172
     0
173
     0
174
     0
175
     0
176
     9
177
     9
178
    11
  0
ENDTAB
  0
ENDSEC
  0
SECTION
  2
BLOCKS
  0
BLOCK
  8
0
  2
$MODEL_SPACE
 70
     0
 10
0.0
 20
0.0
 30
0.0
  3
$MODEL_SPACE
  1

  0
ENDBLK
  5
108
  8
0
  0
BLOCK
 67
     1
  8
0
  2
$PAPER_SPACE
 70
     0
 10
0.0
 20
0.0
 30
0.0
  3
$PAPER_SPACE
  1

  0
ENDBLK
  5
106
 67
     1
  8
0
  0
BLOCK
  8
0
  2
*D0
 70
     1
 10
0.0
 20
0.0
 30
0.0
  3
*D0
  1

  0
LINE
  5
47
  8
0
  6
BYBLOCK
 62
     9
 10
3100.0
 20
63600.0
 30
0.0
 11
3060.491083
 21
63600.0
 31
0.0
  0
LINE
  5
48
  8
0
  6
BYBLOCK
 62
     9
 10
3100.0
 20
64400.0
 30
0.0
 11
3060.491083
 21
64400.0
 31
0.0
  0
LINE
  5
49
  8
0
  6
BYBLOCK
 62
     9
 10
3061.491083
 20
63620.0
 30
0.0
 11
3061.491083
 21
63917.166667
 31
0.0
  0
LINE
  5
4A
  8
0
  6
BYBLOCK
 62
     9
 10
3061.491083
 20
64380.0
 30
0.0
 11
3061.491083
 21
64082.833333
 31
0.0
  0
SOLID
  5
4B
  8
0
  6
BYBLOCK
 62
     9
 10
3058.15775
 20
63620.0
 30
0.0
 11
3064.824416
 21
63620.0
 31
0.0
 12
3061.491083
 22
63600.0
 32
0.0
 13
3061.491083
 23
63600.0
 33
0.0
  0
SOLID
  5
4C
  8
0
  6
BYBLOCK
 62
     9
 10
3058.15775
 20
64380.0
 30
0.0
 11
3064.824416
 21
64380.0
 31
0.0
 12
3061.491083
 22
64400.0
 32
0.0
 13
3061.491083
 23
64400.0
 33
0.0
  0
TEXT
  5
4D
  8
0
  6
BYBLOCK
 62
    11
 10
3078.991083
 20
63924.166667
 30
0.0
 40
35.0
  1
800.00
 50
90.0
  0
POINT
  5
4E
  8
DEFPOINTS
  6
BYBLOCK
 62
     0
 10
3110.0
 20
63600.0
 30
0.0
  0
POINT
  5
4F
  8
DEFPOINTS
  6
BYBLOCK
 62
     0
 10
3110.0
 20
64400.0
 30
0.0
  0
POINT
  5
50
  8
DEFPOINTS
  6
BYBLOCK
 62
     0
 10
3061.491083
 20
64400.0
 30
0.0
  0
ENDBLK
  5
52
  8
0
  0
BLOCK
  8
0
  2
*D1
 70
     1
 10
0.0
 20
0.0
 30
0.0
  3
*D1
  1

  0
LINE
  5
25
  8
0
  6
BYBLOCK
 62
     9
 10
4900.0
 20
63990.0
 30
0.0
 11
4900.0
 21
63526.006543
 31
0.0
  0
LINE
  5
26
  8
0
  6
BYBLOCK
 62
     9
 10
3100.0
 20
63600.0
 30
0.0
 11
3100.0
 21
63526.006543
 31
0.0
  0
LINE
  5
27
  8
0
  6
BYBLOCK
 62
     9
 10
4880.0
 20
63527.006543
 30
0.0
 11
4094.5
 21
63527.006543
 31
0.0
  0
LINE
  5
28
  8
0
  6
BYBLOCK
 62
     9
 10
3120.0
 20
63527.006543
 30
0.0
 11
3905.5
 21
63527.006543
 31
0.0
  0
SOLID
  5
29
  8
0
  6
BYBLOCK
 62
     9
 10
4880.0
 20
63530.339876
 30
0.0
 11
4880.0
 21
63523.67321
 31
0.0
 12
4900.0
 22
63527.006543
 32
0.0
 13
4900.0
 23
63527.006543
 33
0.0
  0
SOLID
  5
2A
  8
0
  6
BYBLOCK
 62
     9
 10
3120.0
 20
63530.339876
 30
0.0
 11
3120.0
 21
63523.67321
 31
0.0
 12
3100.0
 22
63527.006543
 32
0.0
 13
3100.0
 23
63527.006543
 33
0.0
  0
TEXT
  5
2B
  8
0
  6
BYBLOCK
 62
    11
 10
3912.5
 20
63509.506543
 30
0.0
 40
35.0
  1
1800.00
  0
POINT
  5
2C
  8
DEFPOINTS
  6
BYBLOCK
 62
     0
 10
4900.0
 20
64000.0
 30
0.0
  0
POINT
  5
2E
  8
DEFPOINTS
  6
BYBLOCK
 62
     0
 10
3100.0
 20
63610.0
 30
0.0
  0
POINT
  5
2F
  8
DEFPOINTS
  6
BYBLOCK
 62
     0
 10
3100.0
 20
63527.006543
 30
0.0
  0
ENDBLK
  5
31
  8
0
  0
BLOCK
  8
0
  2
*D2
 70
     1
 10
0.0
 20
0.0
 30
0.0
  3
*D2
  1

  0
LINE
  5
58
  8
0
  6
BYBLOCK
 62
     9
 10
4900.0
 20
63600.0
 30
0.0
 11
4939.573429
 21
63600.0
 31
0.0
  0
LINE
  5
59
  8
0
  6
BYBLOCK
 62
     9
 10
4010.0
 20
63850.0
 30
0.0
 11
4939.573429
 21
63850.0
 31
0.0
  0
LINE
  5
5A
  8
0
  6
BYBLOCK
 62
     9
 10
4938.573429
 20
63620.0
 30
0.0
 11
4938.573429
 21
63639.25
 31
0.0
  0
LINE
  5
5B
  8
0
  6
BYBLOCK
 62
     9
 10
4938.573429
 20
63830.0
 30
0.0
 11
4938.573429
 21
63810.75
 31
0.0
  0
SOLID
  5
5C
  8
0
  6
BYBLOCK
 62
     9
 10
4935.240096
 20
63620.0
 30
0.0
 11
4941.906762
 21
63620.0
 31
0.0
 12
4938.573429
 22
63600.0
 32
0.0
 13
4938.573429
 23
63600.0
 33
0.0
  0
SOLID
  5
5D
  8
0
  6
BYBLOCK
 62
     9
 10
4935.240096
 20
63830.0
 30
0.0
 11
4941.906762
 21
63830.0
 31
0.0
 12
4938.573429
 22
63850.0
 32
0.0
 13
4938.573429
 23
63850.0
 33
0.0
  0
TEXT
  5
5E
  8
0
  6
BYBLOCK
 62
    11
 10
4956.073429
 20
63646.25
 30
0.0
 40
35.0
  1
250.00
 50
90.0
  0
POINT
  5
5F
  8
DEFPOINTS
  6
BYBLOCK
 62
     0
 10
4890.0
 20
63600.0
 30
0.0
  0
POINT
  5
60
  8
DEFPOINTS
  6
BYBLOCK
 62
     0
 10
4000.0
 20
63850.0
 30
0.0
  0
POINT
  5
61
  8
DEFPOINTS
  6
BYBLOCK
 62
     0
 10
4938.573429
 20
63850.0
 30
0.0
  0
ENDBLK
  5
63
  8
0
  0
BLOCK
  8
0
  2
*D3
 70
     1
 10
0.0
 20
0.0
 30
0.0
  3
*D3
  1

  0
LINE
  5
34
  8
0
  6
BYBLOCK
 62
     9
 10
4900.0
 20
63990.0
 30
0.0
 11
4900.0
 21
63561.463372
 31
0.0
  0
LINE
  5
35
  8
0
  6
BYBLOCK
 62
     9
 10
4000.0
 20
63840.0
 30
0.0
 11
4000.0
 21
63561.463372
 31
0.0
  0
LINE
  5
36
  8
0
  6
BYBLOCK
 62
     9
 10
4880.0
 20
63562.463372
 30
0.0
 11
4532.833333
 21
63562.463372
 31
0.0
  0
LINE
  5
37
  8
0
  6
BYBLOCK
 62
     9
 10
4020.0
 20
63562.463372
 30
0.0
 11
4367.166667
 21
63562.463372
 31
0.0
  0
SOLID
  5
38
  8
0
  6
BYBLOCK
 62
     9
 10
4880.0
 20
63565.796706
 30
0.0
 11
4880.0
 21
63559.130039
 31
0.0
 12
4900.0
 22
63562.463372
 32
0.0
 13
4900.0
 23
63562.463372
 33
0.0
  0
SOLID
  5
39
  8
0
  6
BYBLOCK
 62
     9
 10
4020.0
 20
63565.796706
 30
0.0
 11
4020.0
 21
63559.130039
 31
0.0
 12
4000.0
 22
63562.463372
 32
0.0
 13
4000.0
 23
63562.463372
 33
0.0
  0
TEXT
  5
3A
  8
0
  6
BYBLOCK
 62
    11
 10
4374.166667
 20
63544.963372
 30
0.0
 40
35.0
  1
900.00
  0
POINT
  5
3B
  8
DEFPOINTS
  6
BYBLOCK
 62
     0
 10
4900.0
 20
64000.0
 30
0.0
  0
POINT
  5
3C
  8
DEFPOINTS
  6
BYBLOCK
 62
     0
 10
4000.0
 20
63850.0
 30
0.0
  0
POINT
  5
3D
  8
DEFPOINTS
  6
BYBLOCK
 62
     0
 10
4000.0
 20
63562.463372
 30
0.0
  0
ENDBLK
  5
3F
  8
0
  0
ENDSEC
  0
SECTION
  2
ENTITIES
  0
LINE
  5
20
  8
TEAM-BODY
 10
530.0
 20
-185.0
 30
0.0
 11
530.0
 21
185.0
 31
0.0
  0
LINE
  5
22
  8
TEAM-BODY
 10
-530.0
 20
-185.0
 30
0.0
 11
-530.0
 21
185.0
 31
0.0
  0
DIMENSION
  5
23
  8
TEAM-MAS
  2
*D1
 10
-900.0
 20
-472.993457
 30
0.0
 11
0.0
 21
-472.993457
 31
0.0
 12
-4000.0
 22
-64000.0
 32
0.0
 13
900.0
 23
0.0
 33
0.0
 14
-900.0
 24
-390.0
 34
0.0
1001
ACAD
1000
DSTYLE
1002
{
1070
    40
1040
1.0
1002
}
  0
DIMENSION
  5
32
  8
TEAM-MAS
  2
*D3
 10
0.0
 20
-437.536628
 30
0.0
 11
450.0
 21
-437.536628
 31
0.0
 12
-4000.0
 22
-64000.0
 32
0.0
 13
900.0
 23
0.0
 33
0.0
 14
0.0
 24
-150.0
 34
0.0
1001
ACAD
1000
DSTYLE
1002
{
1070
    40
1040
1.0
1002
}
  0
LINE
  5
40
  8
TEAM-DET1
 10
825.00158
 20
300.0
 30
0.0
 11
825.00158
 21
-300.0
 31
0.0
  0
LINE
  5
42
  8
TEAM-BODY
 10
900.0
 20
390.0
 30
0.0
 11
900.0
 21
-390.0
 31
0.0
  0
LINE
  5
43
  8
TEAM-DET1
 10
-824.99842
 20
300.0
 30
0.0
 11
-824.99842
 21
-300.0
 31
0.0
  0
LINE
  5
44
  8
TEAM-BODY
 10
-900.0
 20
390.0
 30
0.0
 11
-900.0
 21
-390.0
 31
0.0
  0
DIMENSION
  5
45
  8
TEAM-MAS
  2
*D0
 10
-938.508917
 20
400.0
 30
0.0
 11
-938.508917
 21
0.0
 31
0.0
 12
-4000.0
 22
-64000.0
 32
0.0
 13
-890.0
 23
-400.0
 33
0.0
 14
-890.0
 24
400.0
 34
0.0
 50
90.0
1001
ACAD
1000
DSTYLE
1002
{
1070
    40
1040
1.0
1002
}
  0
LINE
  5
53
  8
TEAM-BODY
 10
450.0
 20
-265.0
 30
0.0
 11
-450.0
 21
-265.0
 31
0.0
  0
LINE
  5
54
  8
TEAM-DET1
 10
800.00158
 20
-325.0
 30
0.0
 11
-799.99842
 21
-325.0
 31
0.0
  0
LINE
  5
55
  8
TEAM-BODY
 10
890.0
 20
-400.0
 30
0.0
 11
-890.0
 21
-400.0
 31
0.0
  0
DIMENSION
  5
56
  8
TEAM-MAS
  2
*D2
 10
938.573429
 20
-150.0
 30
0.0
 11
938.573429
 21
-275.0
 31
0.0
 12
-4000.0
 22
-64000.0
 32
0.0
 13
890.0
 23
-400.0
 33
0.0
 14
0.0
 24
-150.0
 34
0.0
 50
90.0
1001
ACAD
1000
DSTYLE
1002
{
1070
    40
1040
1.0
1002
}
  0
LINE
  5
64
  8
TEAM-BODY
 10
-125.0
 20
-325.0
 30
0.0
 11
-125.0
 21
-400.0
 31
0.0
  0
ARC
  5
65
  8
TEAM-BODY
 10
-450.0
 20
-185.0
 30
0.0
 40
80.0
 50
180.0
 51
270.0
  0
ARC
  5
66
  8
TEAM-DET1
 10
-799.99842
 20
-300.0
 30
0.0
 40
25.0
 50
180.0
 51
270.0
  0
ARC
  5
67
  8
TEAM-BODY
 10
-890.0
 20
-390.0
 30
0.0
 40
10.0
 50
180.0
 51
270.0
  0
LINE
  5
68
  8
TEAM-AXE
 10
0.0
 20
-202.0
 30
0.0
 11
0.0
 21
-98.0
 31
0.0
  0
LINE
  5
6B
  8
TEAM-AXE
 10
-52.0
 20
-150.0
 30
0.0
 11
52.0
 21
-150.0
 31
0.0
  0
LINE
  5
6C
  8
TEAM-BODY
 10
125.0
 20
-325.0
 30
0.0
 11
125.0
 21
-400.0
 31
0.0
  0
POLYLINE
  5
6D
  8
TEAM-DET1
 66
     1
 10
0.0
 20
0.0
 30
0.0
 70
     1
  0
VERTEX
  5
10E
  8
TEAM-DET1
 10
-26.0
 20
-316.251566
 30
0.0
  0
VERTEX
  5
10F
  8
TEAM-DET1
 10
-25.679896
 20
-317.151064
 30
0.0
  0
VERTEX
  5
110
  8
TEAM-DET1
 10
-24.727469
 20
-318.028414
 30
0.0
  0
VERTEX
  5
111
  8
TEAM-DET1
 10
-23.166169
 20
-318.862012
 30
0.0
  0
VERTEX
  5
112
  8
TEAM-DET1
 10
-21.034441
 20
-319.631332
 30
0.0
  0
VERTEX
  5
113
  8
TEAM-DET1
 10
-18.384776
 20
-320.31743
 30
0.0
  0
VERTEX
  5
114
  8
TEAM-DET1
 10
-15.282416
 20
-320.903414
 30
0.0
  0
VERTEX
  5
115
  8
TEAM-DET1
 10
-11.803753
 20
-321.374854
 30
0.0
  0
VERTEX
  5
116
  8
TEAM-DET1
 10
-8.034441
 20
-321.720141
 30
0.0
  0
VERTEX
  5
117
  8
TEAM-DET1
 10
-4.067296
 20
-321.930774
 30
0.0
  0
VERTEX
  5
118
  8
TEAM-DET1
 10
0.0
 20
-322.001566
 30
0.0
  0
VERTEX
  5
119
  8
TEAM-DET1
 10
4.067296
 20
-321.930774
 30
0.0
  0
VERTEX
  5
11A
  8
TEAM-DET1
 10
8.034442
 20
-321.720141
 30
0.0
  0
VERTEX
  5
11B
  8
TEAM-DET1
 10
11.803753
 20
-321.374854
 30
0.0
  0
VERTEX
  5
11C
  8
TEAM-DET1
 10
15.282417
 20
-320.903414
 30
0.0
  0
VERTEX
  5
11D
  8
TEAM-DET1
 10
18.384777
 20
-320.31743
 30
0.0
  0
VERTEX
  5
11E
  8
TEAM-DET1
 10
21.034442
 20
-319.631332
 30
0.0
  0
VERTEX
  5
11F
  8
TEAM-DET1
 10
23.16617
 20
-318.862012
 30
0.0
  0
VERTEX
  5
120
  8
TEAM-DET1
 10
24.72747
 20
-318.028414
 30
0.0
  0
VERTEX
  5
121
  8
TEAM-DET1
 10
25.679897
 20
-317.151064
 30
0.0
  0
VERTEX
  5
122
  8
TEAM-DET1
 10
26.0
 20
-316.251566
 30
0.0
  0
VERTEX
  5
123
  8
TEAM-DET1
 10
25.679897
 20
-315.352068
 30
0.0
  0
VERTEX
  5
124
  8
TEAM-DET1
 10
24.72747
 20
-314.474719
 30
0.0
  0
VERTEX
  5
125
  8
TEAM-DET1
 10
23.16617
 20
-313.641121
 30
0.0
  0
VERTEX
  5
126
  8
TEAM-DET1
 10
21.034442
 20
-312.871801
 30
0.0
  0
VERTEX
  5
127
  8
TEAM-DET1
 10
18.384777
 20
-312.185702
 30
0.0
  0
VERTEX
  5
128
  8
TEAM-DET1
 10
15.282417
 20
-311.599719
 30
0.0
  0
VERTEX
  5
129
  8
TEAM-DET1
 10
11.803753
 20
-311.128279
 30
0.0
  0
VERTEX
  5
12A
  8
TEAM-DET1
 10
8.034442
 20
-310.782991
 30
0.0
  0
VERTEX
  5
12B
  8
TEAM-DET1
 10
4.067296
 20
-310.572358
 30
0.0
  0
VERTEX
  5
12C
  8
TEAM-DET1
 10
0.0
 20
-310.501566
 30
0.0
  0
VERTEX
  5
12D
  8
TEAM-DET1
 10
-4.067296
 20
-310.572358
 30
0.0
  0
VERTEX
  5
12E
  8
TEAM-DET1
 10
-8.034441
 20
-310.782991
 30
0.0
  0
VERTEX
  5
12F
  8
TEAM-DET1
 10
-11.803753
 20
-311.128279
 30
0.0
  0
VERTEX
  5
130
  8
TEAM-DET1
 10
-15.282416
 20
-311.599719
 30
0.0
  0
VERTEX
  5
131
  8
TEAM-DET1
 10
-18.384776
 20
-312.185702
 30
0.0
  0
VERTEX
  5
132
  8
TEAM-DET1
 10
-21.034441
 20
-312.871801
 30
0.0
  0
VERTEX
  5
133
  8
TEAM-DET1
 10
-23.166169
 20
-313.641121
 30
0.0
  0
VERTEX
  5
134
  8
TEAM-DET1
 10
-24.727469
 20
-314.474719
 30
0.0
  0
VERTEX
  5
135
  8
TEAM-DET1
 10
-25.679896
 20
-315.352068
 30
0.0
  0
SEQEND
  5
136
  8
TEAM-DET1
  0
CIRCLE
  5
6E
  8
TEAM-BODY
 10
0.0
 20
-150.0
 30
0.0
 40
26.0
  0
CIRCLE
  5
6F
  8
TEAM-DET1
 10
0.0
 20
-150.0
 30
0.0
 40
52.0
  0
ARC
  5
70
  8
TEAM-BODY
 10
450.0
 20
-185.0
 30
0.0
 40
80.0
 50
270.0
 51
0.0
  0
ARC
  5
71
  8
TEAM-DET1
 10
800.00158
 20
-300.0
 30
0.0
 40
25.0
 50
270.0
 51
0.0
  0
ARC
  5
72
  8
TEAM-BODY
 10
890.0
 20
-390.0
 30
0.0
 40
10.0
 50
270.0
 51
0.0
  0
LINE
  5
73
  8
TEAM-DET1
 10
-799.99842
 20
325.0
 30
0.0
 11
800.00158
 21
325.0
 31
0.0
  0
LINE
  5
74
  8
TEAM-BODY
 10
-890.0
 20
400.0
 30
0.0
 11
890.0
 21
400.0
 31
0.0
  0
LINE
  5
75
  8
TEAM-AXE
 10
-900.0
 20
0.0
 30
0.0
 11
900.0
 21
0.0
 31
0.0
  0
LINE
  5
76
  8
TEAM-BODY
 10
450.0
 20
265.0
 30
0.0
 11
-450.0
 21
265.0
 31
0.0
  0
LINE
  5
77
  8
TEAM-BODY
 10
-125.0
 20
400.0
 30
0.0
 11
-125.0
 21
325.0
 31
0.0
  0
ARC
  5
78
  8
TEAM-DET1
 10
-799.99842
 20
300.0
 30
0.0
 40
25.0
 50
90.0
 51
180.0
  0
ARC
  5
79
  8
TEAM-BODY
 10
-890.0
 20
390.0
 30
0.0
 40
10.0
 50
90.0
 51
180.0
  0
TEXT
  5
7A
  8
TEAM-TXT
 10
-837.900595
 20
344.271702
 30
0.0
 40
30.0
  1
team 121056
 41
0.8
 51
15.0
  7
TEAM
  0
LINE
  5
7D
  8
TEAM-BODY
 10
125.0
 20
400.0
 30
0.0
 11
125.0
 21
325.0
 31
0.0
  0
ARC
  5
7E
  8
TEAM-BODY
 10
-450.0
 20
185.0
 30
0.0
 40
80.0
 50
90.0
 51
180.0
  0
CIRCLE
  5
7F
  8
TEAM-INSP
 10
0.0
 20
0.0
 30
0.0
 40
10.0
  0
ARC
  5
81
  8
TEAM-DET1
 10
800.00158
 20
300.0
 30
0.0
 40
25.0
 50
0.0
 51
90.0
  0
ARC
  5
82
  8
TEAM-BODY
 10
890.0
 20
390.0
 30
0.0
 40
10.0
 50
0.0
 51
90.0
  0
ARC
  5
83
  8
TEAM-BODY
 10
450.0
 20
185.0
 30
0.0
 40
80.0
 50
0.0
 51
90.0
  0
ENDSEC
  0
EOF
