  0
SECTION
  2
HEADER
  9
$ACADVER
  1
AC1009
  9
$INSBASE
 10
0.0
 20
0.0
 30
0.0
  9
$EXTMIN
 10
-986.663577
 20
-10.05514
 30
-0.000003
  9
$EXTMAX
 10
947.873492
 20
756.150692
 30
0.000007
  9
$LIMMIN
 10
-986.663577
 20
-10.05514
  9
$LIMMAX
 10
947.873492
 20
756.150692
  9
$ORTHOMODE
 70
     1
  9
$REGENMODE
 70
     1
  9
$FILLMODE
 70
     1
  9
$QTEXTMODE
 70
     0
  9
$MIRRTEXT
 70
     0
  9
$DRAGMODE
 70
     2
  9
$LTSCALE
 40
50.0
  9
$OSMODE
 70
     7
  9
$ATTMODE
 70
     1
  9
$TEXTSIZE
 40
200.0
  9
$TRACEWID
 40
1.0
  9
$TEXTSTYLE
  7
STANDARD
  9
$CLAYER
  8
TEAM-MAS
  9
$CELTYPE
  6
BYLAYER
  9
$CECOLOR
 62
   256
  9
$DIMSCALE
 40
0.0
  9
$DIMASZ
 40
20.0
  9
$DIMEXO
 40
10.0
  9
$DIMDLI
 40
1.0
  9
$DIMRND
 40
0.0
  9
$DIMDLE
 40
0.0
  9
$DIMEXE
 40
1.0
  9
$DIMTP
 40
0.0
  9
$DIMTM
 40
0.0
  9
$DIMTXT
 40
35.0
  9
$DIMCEN
 40
1.0
  9
$DIMTSZ
 40
0.0
  9
$DIMTOL
 70
     0
  9
$DIMLIM
 70
     0
  9
$DIMTIH
 70
     0
  9
$DIMTOH
 70
     0
  9
$DIMSE1
 70
     0
  9
$DIMSE2
 70
     0
  9
$DIMTAD
 70
     0
  9
$DIMZIN
 70
     0
  9
$DIMBLK
  1

  9
$DIMASO
 70
     1
  9
$DIMSHO
 70
     0
  9
$DIMPOST
  1

  9
$DIMAPOST
  1

  9
$DIMALT
 70
     0
  9
$DIMALTD
 70
     2
  9
$DIMALTF
 40
25.4
  9
$DIMLFAC
 40
1.0
  9
$DIMTOFL
 70
     0
  9
$DIMTVP
 40
0.0
  9
$DIMTIX
 70
     0
  9
$DIMSOXD
 70
     0
  9
$DIMSAH
 70
     0
  9
$DIMBLK1
  1

  9
$DIMBLK2
  1

  9
$DIMSTYLE
  2
TEAM
  9
$DIMCLRD
 70
     9
  9
$DIMCLRE
 70
     9
  9
$DIMCLRT
 70
    11
  9
$DIMTFAC
 40
1.0
  9
$DIMGAP
 40
7.0
  9
$LUNITS
 70
     2
  9
$LUPREC
 70
     1
  9
$SKETCHINC
 40
1.0
  9
$FILLETRAD
 40
5.0
  9
$AUNITS
 70
     0
  9
$AUPREC
 70
     0
  9
$MENU
  1
ROPLANS
  9
$ELEVATION
 40
0.0
  9
$PELEVATION
 40
0.0
  9
$THICKNESS
 40
0.0
  9
$LIMCHECK
 70
     0
  9
$BLIPMODE
 70
     1
  9
$CHAMFERA
 40
0.0
  9
$CHAMFERB
 40
0.0
  9
$SKPOLY
 70
     0
  9
$TDCREATE
 40
2450392.957851
  9
$TDUPDATE
 40
2456004.599416
  9
$TDINDWG
 40
2.546599
  9
$TDUSRTIMER
 40
2.546599
  9
$USRTIMER
 70
     1
  9
$ANGBASE
 50
0.0
  9
$ANGDIR
 70
     0
  9
$PDMODE
 70
     0
  9
$PDSIZE
 40
0.0
  9
$PLINEWID
 40
0.0
  9
$COORDS
 70
     2
  9
$SPLFRAME
 70
     0
  9
$SPLINETYPE
 70
     6
  9
$SPLINESEGS
 70
     8
  9
$ATTDIA
 70
     0
  9
$ATTREQ
 70
     0
  9
$HANDLING
 70
     1
  9
$HANDSEED
  5
1BD
  9
$SURFTAB1
 70
    36
  9
$SURFTAB2
 70
    36
  9
$SURFTYPE
 70
     6
  9
$SURFU
 70
     6
  9
$SURFV
 70
     6
  9
$UCSNAME
  2

  9
$UCSORG
 10
0.0
 20
0.0
 30
0.0
  9
$UCSXDIR
 10
1.0
 20
0.0
 30
0.0
  9
$UCSYDIR
 10
0.0
 20
1.0
 30
0.0
  9
$PUCSNAME
  2

  9
$PUCSORG
 10
0.0
 20
0.0
 30
0.0
  9
$PUCSXDIR
 10
1.0
 20
0.0
 30
0.0
  9
$PUCSYDIR
 10
0.0
 20
1.0
 30
0.0
  9
$USERI1
 70
     0
  9
$USERI2
 70
     0
  9
$USERI3
 70
     0
  9
$USERI4
 70
     0
  9
$USERI5
 70
     0
  9
$USERR1
 40
0.0
  9
$USERR2
 40
0.0
  9
$USERR3
 40
0.0
  9
$USERR4
 40
0.0
  9
$USERR5
 40
0.0
  9
$WORLDVIEW
 70
     1
  9
$SHADEDGE
 70
     0
  9
$SHADEDIF
 70
    70
  9
$TILEMODE
 70
     1
  9
$MAXACTVP
 70
    16
  9
$PLIMCHECK
 70
     0
  9
$PEXTMIN
 10
-0.805942
 20
0.005011
 30
0.0
  9
$PEXTMAX
 10
20.250094
 20
11.356329
 30
0.0
  9
$PLIMMIN
 10
0.0
 20
0.0
  9
$PLIMMAX
 10
12.0
 20
9.0
  9
$UNITMODE
 70
     0
  9
$VISRETAIN
 70
     0
  9
$PLINEGEN
 70
     0
  9
$PSLTSCALE
 70
     0
  0
ENDSEC
  0
SECTION
  2
TABLES
  0
TABLE
  2
VPORT
 70
     2
  0
VPORT
  2
*ACTIVE
 70
     0
 10
0.0
 20
0.0
 11
1.0
 21
1.0
 12
-19.395043
 22
373.047776
 13
0.0
 23
0.0
 14
1.0
 24
1.0
 15
50.0
 25
50.0
 16
0.0
 26
0.0
 36
1.0
 17
0.0
 27
0.0
 37
0.0
 40
1019.509916
 41
1.903766
 42
50.0
 43
0.0
 44
0.0
 50
0.0
 51
0.0
 71
     0
 72
   100
 73
     1
 74
     1
 75
     0
 76
     0
 77
     0
 78
     0
  0
ENDTAB
  0
TABLE
  2
LTYPE
 70
     2
  0
LTYPE
  2
CONTINUOUS
 70
     0
  3
Solid Line
 72
    65
 73
     0
 40
0.0
  0
LTYPE
  2
22
 70
     0
  3

 72
    65
 73
     2
 40
1.4
 49
1.2
 49
-0.2
  0
ENDTAB
  0
TABLE
  2
LAYER
 70
     9
  0
LAYER
  2
0
 70
     0
 62
     7
  6
CONTINUOUS
  0
LAYER
  2
DEFPOINTS
 70
     0
 62
     7
  6
CONTINUOUS
  0
LAYER
  2
TEAM-BODY
 70
     0
 62
     2
  6
CONTINUOUS
  0
LAYER
  2
TEAM-MAS
 70
     0
 62
     9
  6
CONTINUOUS
  0
LAYER
  2
TEAM-TXT
 70
     0
 62
    11
  6
CONTINUOUS
  0
LAYER
  2
TEAM-HIDE
 70
     0
 62
     8
  6
22
  0
LAYER
  2
TEAM-KAN
 70
     0
 62
     6
  6
CONTINUOUS
  0
LAYER
  2
TEAM-DET3
 70
     0
 62
    14
  6
CONTINUOUS
  0
LAYER
  2
TEAM-INSP
 70
     0
 62
     5
  6
CONTINUOUS
  0
ENDTAB
  0
TABLE
  2
STYLE
 70
     2
  0
STYLE
  2
STANDARD
 70
     0
 40
0.0
 41
1.0
 50
0.0
 71
     0
 42
200.0
  3
txt
  4

  0
STYLE
  2
TEAM
 70
     0
 40
0.0
 41
0.8
 50
15.0
 71
     0
 42
7.0
  3
ROMANS.shx
  4

  0
ENDTAB
  0
TABLE
  2
VIEW
 70
     0
  0
ENDTAB
  0
TABLE
  2
UCS
 70
     0
  0
ENDTAB
  0
TABLE
  2
APPID
 70
     1
  0
APPID
  2
ACAD
 70
     0
  0
ENDTAB
  0
TABLE
  2
DIMSTYLE
 70
     1
  0
DIMSTYLE
  2
TEAM
 70
     0
  3

  4

  5

  6

  7

 40
0.0
 41
20.0
 42
10.0
 43
1.0
 44
1.0
 45
0.0
 46
0.0
 47
0.0
 48
0.0
140
35.0
141
1.0
142
0.0
143
25.4
144
1.0
145
0.0
146
1.0
147
7.0
 71
     0
 72
     0
 73
     0
 74
     0
 75
     0
 76
     0
 77
     0
 78
     0
170
     0
171
     2
172
     0
173
     0
174
     0
175
     0
176
     9
177
     9
178
    11
  0
ENDTAB
  0
ENDSEC
  0
SECTION
  2
BLOCKS
  0
BLOCK
  8
0
  2
$MODEL_SPACE
 70
     0
 10
0.0
 20
0.0
 30
0.0
  3
$MODEL_SPACE
  1

  0
ENDBLK
  5
18E
  8
0
  0
BLOCK
 67
     1
  8
0
  2
$PAPER_SPACE
 70
     0
 10
0.0
 20
0.0
 30
0.0
  3
$PAPER_SPACE
  1

  0
ENDBLK
  5
18C
 67
     1
  8
0
  0
BLOCK
  8
0
  2
*D0
 70
     1
 10
0.0
 20
0.0
 30
0.0
  3
*D0
  1

  0
LINE
  5
22
  8
0
  6
BYBLOCK
 62
     9
 10
11100.0
 20
64639.960591
 30
0.0
 11
11100.0
 21
64719.604439
 31
0.0
  0
LINE
  5
23
  8
0
  6
BYBLOCK
 62
     9
 10
12900.0
 20
64589.96
 30
0.0
 11
12900.0
 21
64719.604439
 31
0.0
  0
LINE
  5
24
  8
0
  6
BYBLOCK
 62
     9
 10
11120.0
 20
64718.604439
 30
0.0
 11
11905.5
 21
64718.604439
 31
0.0
  0
LINE
  5
25
  8
0
  6
BYBLOCK
 62
     9
 10
12880.0
 20
64718.604439
 30
0.0
 11
12094.5
 21
64718.604439
 31
0.0
  0
SOLID
  5
26
  8
0
  6
BYBLOCK
 62
     9
 10
11120.0
 20
64721.937773
 30
0.0
 11
11120.0
 21
64715.271106
 31
0.0
 12
11100.0
 22
64718.604439
 32
0.0
 13
11100.0
 23
64718.604439
 33
0.0
  0
SOLID
  5
27
  8
0
  6
BYBLOCK
 62
     9
 10
12880.0
 20
64721.937773
 30
0.0
 11
12880.0
 21
64715.271106
 31
0.0
 12
12900.0
 22
64718.604439
 32
0.0
 13
12900.0
 23
64718.604439
 33
0.0
  0
TEXT
  5
28
  8
0
  6
BYBLOCK
 62
    11
 10
11912.5
 20
64701.104439
 30
0.0
 40
35.0
  1
1800.00
  0
POINT
  5
29
  8
DEFPOINTS
  6
BYBLOCK
 62
     0
 10
11100.0
 20
64629.960591
 30
0.0
  0
POINT
  5
2B
  8
DEFPOINTS
  6
BYBLOCK
 62
     0
 10
12900.0
 20
64579.96
 30
0.0
  0
POINT
  5
2C
  8
DEFPOINTS
  6
BYBLOCK
 62
     0
 10
12900.0
 20
64718.604439
 30
0.0
  0
ENDBLK
  5
2E
  8
0
  0
BLOCK
  8
0
  2
*D1
 70
     1
 10
0.0
 20
0.0
 30
0.0
  3
*D1
  1

  0
LINE
  5
54
  8
0
  6
BYBLOCK
 62
     9
 10
12147.292851
 20
64599.96
 30
0.0
 11
12931.239851
 21
64599.96
 31
0.0
  0
LINE
  5
55
  8
0
  6
BYBLOCK
 62
     9
 10
12010.0
 20
64129.96
 30
0.0
 11
12931.239851
 21
64129.96
 31
0.0
  0
LINE
  5
56
  8
0
  6
BYBLOCK
 62
     9
 10
12930.239851
 20
64579.96
 30
0.0
 11
12930.239851
 21
64450.71
 31
0.0
  0
LINE
  5
57
  8
0
  6
BYBLOCK
 62
     9
 10
12930.239851
 20
64149.96
 30
0.0
 11
12930.239851
 21
64279.21
 31
0.0
  0
SOLID
  5
58
  8
0
  6
BYBLOCK
 62
     9
 10
12926.906517
 20
64579.96
 30
0.0
 11
12933.573184
 21
64579.96
 31
0.0
 12
12930.239851
 22
64599.96
 32
0.0
 13
12930.239851
 23
64599.96
 33
0.0
  0
SOLID
  5
59
  8
0
  6
BYBLOCK
 62
     9
 10
12926.906517
 20
64149.96
 30
0.0
 11
12933.573184
 21
64149.96
 31
0.0
 12
12930.239851
 22
64129.96
 32
0.0
 13
12930.239851
 23
64129.96
 33
0.0
  0
TEXT
  5
5A
  8
0
  6
BYBLOCK
 62
    11
 10
12947.739851
 20
64286.21
 30
0.0
 40
35.0
  1
470.00
 50
90.0
  0
POINT
  5
5B
  8
DEFPOINTS
  6
BYBLOCK
 62
     0
 10
12137.292851
 20
64599.96
 30
0.0
  0
POINT
  5
5C
  8
DEFPOINTS
  6
BYBLOCK
 62
     0
 10
12000.0
 20
64129.96
 30
0.0
  0
POINT
  5
5D
  8
DEFPOINTS
  6
BYBLOCK
 62
     0
 10
12930.239851
 20
64129.96
 30
0.0
  0
ENDBLK
  5
5F
  8
0
  0
BLOCK
  8
0
  2
*D2
 70
     1
 10
0.0
 20
0.0
 30
0.0
  3
*D2
  1

  0
LINE
  5
80
  8
0
  6
BYBLOCK
 62
     9
 10
12026.0
 20
64114.982205
 30
0.0
 11
12026.0
 21
64079.767123
 31
0.0
  0
LINE
  5
81
  8
0
  6
BYBLOCK
 62
     9
 10
11974.0
 20
64114.982205
 30
0.0
 11
11974.0
 21
64079.767123
 31
0.0
  0
LINE
  5
82
  8
0
  6
BYBLOCK
 62
     9
 10
12046.0
 20
64080.767123
 30
0.0
 11
12066.0
 21
64080.767123
 31
0.0
  0
LINE
  5
83
  8
0
  6
BYBLOCK
 62
     9
 10
11954.0
 20
64080.767123
 30
0.0
 11
11934.0
 21
64080.767123
 31
0.0
  0
TEXT
  5
84
  8
0
  6
BYBLOCK
 62
    11
 10
12071.29536
 20
64063.267123
 30
0.0
 40
35.0
  1
52.00
  0
LINE
  5
85
  8
0
  6
BYBLOCK
 62
     9
 10
12026.0
 20
64080.767123
 30
0.0
 11
11974.0
 21
64080.767123
 31
0.0
  0
SOLID
  5
86
  8
0
  6
BYBLOCK
 62
     9
 10
12046.0
 20
64084.100457
 30
0.0
 11
12046.0
 21
64077.43379
 31
0.0
 12
12026.0
 22
64080.767123
 32
0.0
 13
12026.0
 23
64080.767123
 33
0.0
  0
SOLID
  5
87
  8
0
  6
BYBLOCK
 62
     9
 10
11954.0
 20
64084.100457
 30
0.0
 11
11954.0
 21
64077.43379
 31
0.0
 12
11974.0
 22
64080.767123
 32
0.0
 13
11974.0
 23
64080.767123
 33
0.0
  0
POINT
  5
88
  8
DEFPOINTS
  6
BYBLOCK
 62
     0
 10
12026.0
 20
64124.982205
 30
0.0
  0
POINT
  5
89
  8
DEFPOINTS
  6
BYBLOCK
 62
     0
 10
11974.0
 20
64124.982205
 30
0.0
  0
POINT
  5
8A
  8
DEFPOINTS
  6
BYBLOCK
 62
     0
 10
11974.0
 20
64080.767123
 30
0.0
  0
ENDBLK
  5
8C
  8
0
  0
BLOCK
  8
0
  2
*D3
 70
     1
 10
0.0
 20
0.0
 30
0.0
  3
*D3
  1

  0
LINE
  5
44
  8
0
  6
BYBLOCK
 62
     9
 10
11100.076901
 20
64699.96
 30
0.0
 11
11029.901391
 21
64699.96
 31
0.0
  0
LINE
  5
45
  8
0
  6
BYBLOCK
 62
     9
 10
11090.076901
 20
64569.96
 30
0.0
 11
11029.901391
 21
64569.96
 31
0.0
  0
LINE
  5
46
  8
0
  6
BYBLOCK
 62
     9
 10
11030.901391
 20
64679.96
 30
0.0
 11
11030.901391
 21
64589.96
 31
0.0
  0
TEXT
  5
47
  8
0
  6
BYBLOCK
 62
    11
 10
11048.401391
 20
64419.074471
 30
0.0
 40
35.0
  1
130.00
 50
90.0
  0
SOLID
  5
48
  8
0
  6
BYBLOCK
 62
     9
 10
11027.568058
 20
64679.96
 30
0.0
 11
11034.234725
 21
64679.96
 31
0.0
 12
11030.901391
 22
64699.96
 32
0.0
 13
11030.901391
 23
64699.96
 33
0.0
  0
SOLID
  5
49
  8
0
  6
BYBLOCK
 62
     9
 10
11027.568058
 20
64589.96
 30
0.0
 11
11034.234725
 21
64589.96
 31
0.0
 12
11030.901391
 22
64569.96
 32
0.0
 13
11030.901391
 23
64569.96
 33
0.0
  0
POINT
  5
4A
  8
DEFPOINTS
  6
BYBLOCK
 62
     0
 10
11110.076901
 20
64699.96
 30
0.0
  0
POINT
  5
4B
  8
DEFPOINTS
  6
BYBLOCK
 62
     0
 10
11100.076901
 20
64569.96
 30
0.0
  0
POINT
  5
4C
  8
DEFPOINTS
  6
BYBLOCK
 62
     0
 10
11030.901391
 20
64569.96
 30
0.0
  0
ENDBLK
  5
4E
  8
0
  0
BLOCK
  8
0
  2
*D4
 70
     1
 10
0.0
 20
0.0
 30
0.0
  3
*D4
  1

  0
LINE
  5
35
  8
0
  6
BYBLOCK
 62
     9
 10
11099.923099
 20
64699.961183
 30
0.0
 11
11071.660934
 21
64699.961183
 31
0.0
  0
LINE
  5
36
  8
0
  6
BYBLOCK
 62
     9
 10
11852.707149
 20
64599.96
 30
0.0
 11
11071.660934
 21
64599.96
 31
0.0
  0
LINE
  5
37
  8
0
  6
BYBLOCK
 62
     9
 10
11072.660934
 20
64679.961183
 30
0.0
 11
11072.660934
 21
64619.96
 31
0.0
  0
TEXT
  5
38
  8
0
  6
BYBLOCK
 62
    11
 10
11090.160934
 20
64425.182875
 30
0.0
 40
35.0
  1
100.00
 50
90.0
  0
SOLID
  5
39
  8
0
  6
BYBLOCK
 62
     9
 10
11069.327601
 20
64679.961183
 30
0.0
 11
11075.994268
 21
64679.961183
 31
0.0
 12
11072.660934
 22
64699.961183
 32
0.0
 13
11072.660934
 23
64699.961183
 33
0.0
  0
SOLID
  5
3A
  8
0
  6
BYBLOCK
 62
     9
 10
11069.327601
 20
64619.96
 30
0.0
 11
11075.994268
 21
64619.96
 31
0.0
 12
11072.660934
 22
64599.96
 32
0.0
 13
11072.660934
 23
64599.96
 33
0.0
  0
POINT
  5
3B
  8
DEFPOINTS
  6
BYBLOCK
 62
     0
 10
11109.923099
 20
64699.961183
 30
0.0
  0
POINT
  5
3C
  8
DEFPOINTS
  6
BYBLOCK
 62
     0
 10
11862.707149
 20
64599.96
 30
0.0
  0
POINT
  5
3D
  8
DEFPOINTS
  6
BYBLOCK
 62
     0
 10
11072.660934
 20
64599.96
 30
0.0
  0
ENDBLK
  5
3F
  8
0
  0
ENDSEC
  0
SECTION
  2
ENTITIES
  0
DIMENSION
  5
20
  8
TEAM-MAS
  2
*D0
 10
900.0
 20
738.604439
 30
0.0
 11
0.0
 21
718.604439
 31
0.0
 12
-12000.0
 22
-63980.0
 32
0.0
 13
-900.0
 23
649.960591
 33
0.0
 14
900.0
 24
599.96
 34
0.0
1001
ACAD
1000
DSTYLE
1002
{
1070
    40
1040
1.0
1002
}
  0
LINE
  5
2F
  8
TEAM-BODY
 10
-834.874376
 20
712.753631
 30
0.0
 11
-889.923099
 21
719.96
 31
0.0
  0
LINE
  5
31
  8
TEAM-BODY
 10
-889.923099
 20
719.96
 30
0.0
 11
-137.292851
 21
619.96
 31
0.0
  0
LINE
  5
32
  8
TEAM-BODY
 10
-899.923099
 20
589.96
 30
0.0
 11
-769.158267
 21
589.96
 31
0.0
  0
DIMENSION
  5
33
  8
TEAM-MAS
  2
*D4
 10
-927.339066
 20
619.96
 30
0.0
 11
-927.339066
 21
515.182875
 31
0.0
 12
-12000.0
 22
-63980.0
 32
0.0
 70
   128
 13
-890.076901
 23
719.961183
 33
0.0
 14
-137.292851
 24
619.96
 34
0.0
 50
90.0
1001
ACAD
1000
DSTYLE
1002
{
1070
    40
1040
1.0
1002
}
  0
ARC
  5
40
  8
TEAM-BODY
 10
-890.076901
 20
709.961183
 30
0.0
 40
10.0
 50
89.118742
 51
180.0
  0
LINE
  5
41
  8
TEAM-BODY
 10
-899.923099
 20
589.96
 30
0.0
 11
-900.076901
 21
709.961183
 31
0.0
  0
DIMENSION
  5
42
  8
TEAM-MAS
  2
*D3
 10
-969.098609
 20
589.96
 30
0.0
 11
-969.098609
 21
511.991138
 31
0.0
 12
-12000.0
 22
-63980.0
 32
0.0
 70
   128
 13
-889.923099
 23
719.96
 33
0.0
 14
-899.923099
 24
589.96
 34
0.0
 50
90.0
1001
ACAD
1000
DSTYLE
1002
{
1070
    40
1040
1.0
1002
}
  0
LINE
  5
4F
  8
TEAM-BODY
 10
889.923099
 20
719.96
 30
0.0
 11
137.292851
 21
619.96
 31
0.0
  0
LINE
  5
50
  8
TEAM-BODY
 10
834.874376
 20
712.753631
 30
0.0
 11
889.923099
 21
719.96
 31
0.0
  0
LINE
  5
51
  8
TEAM-BODY
 10
899.923099
 20
589.96
 30
0.0
 11
769.158267
 21
589.96
 31
0.0
  0
DIMENSION
  5
52
  8
TEAM-MAS
  2
*D1
 10
930.239851
 20
149.96
 30
0.0
 11
930.239851
 21
364.96
 31
0.0
 12
-12000.0
 22
-63980.0
 32
0.0
 13
137.292851
 23
619.96
 33
0.0
 14
0.0
 24
149.96
 34
0.0
 50
90.0
1001
ACAD
1000
DSTYLE
1002
{
1070
    40
1040
1.0
1002
}
  0
LINE
  5
60
  8
TEAM-BODY
 10
137.292851
 20
619.96
 30
0.0
 11
0.0
 21
619.96
 31
0.0
  0
TEXT
  5
61
  8
TEAM-TXT
 10
-683.278362
 20
558.967724
 30
0.0
 40
30.0
  1
team 121056
 41
0.8
 51
15.0
  7
TEAM
  0
LINE
  5
64
  8
TEAM-BODY
 10
-137.292851
 20
619.96
 30
0.0
 11
0.0
 21
619.96
 31
0.0
  0
ARC
  5
65
  8
TEAM-BODY
 10
-835.951381
 20
698.582637
 30
0.0
 40
14.211862
 50
22.26789
 51
85.653843
  0
ARC
  5
66
  8
TEAM-BODY
 10
835.951381
 20
698.582637
 30
0.0
 40
14.211862
 50
94.346157
 51
157.73211
  0
LINE
  5
67
  8
TEAM-BODY
 10
470.570674
 20
184.846374
 30
0.0
 11
45.15231
 21
149.96
 31
0.0
  0
LINE
  5
68
  8
TEAM-DET3
 10
469.763047
 20
157.690874
 30
0.0
 11
125.207869
 21
128.911145
 31
0.0
  0
LINE
  5
6A
  8
TEAM-KAN
 10
26.0
 20
144.982205
 30
0.0
 11
26.0
 21
145.709618
 31
0.0
  0
ARC
  5
6C
  8
TEAM-KAN
 10
45.396497
 20
133.33341
 30
0.0
 40
16.738891
 50
96.640629
 51
123.74467
  0
ARC
  5
6D
  8
TEAM-KAN
 10
27.974444
 20
160.186553
 30
0.0
 40
15.26826
 50
275.244294
 51
302.122013
  0
LINE
  5
6E
  8
TEAM-DET3
 10
125.207869
 20
128.911145
 30
0.0
 11
99.686912
 21
154.432102
 31
0.0
  0
CIRCLE
  5
6F
  8
TEAM-INSP
 10
0.0
 20
0.0
 30
0.0
 40
10.0
  0
LINE
  5
71
  8
TEAM-DET3
 10
-469.763047
 20
157.690874
 30
0.0
 11
-499.771225
 21
187.699051
 31
0.0
  0
ARC
  5
72
  8
TEAM-BODY
 10
-470.989977
 20
331.431908
 30
0.0
 40
146.586133
 50
215.719097
 51
270.163892
  0
LINE
  5
73
  8
TEAM-DET3
 10
-469.763047
 20
157.690874
 30
0.0
 11
-125.207869
 21
128.911145
 31
0.0
  0
LINE
  5
74
  8
TEAM-BODY
 10
-470.570674
 20
184.846374
 30
0.0
 11
-45.15231
 21
149.96
 31
0.0
  0
LINE
  5
75
  8
TEAM-DET3
 10
-125.207869
 20
128.911145
 30
0.0
 11
-99.686912
 21
154.432102
 31
0.0
  0
LINE
  5
76
  8
TEAM-BODY
 10
-45.15231
 20
149.96
 30
0.0
 11
45.15231
 21
149.96
 31
0.0
  0
LINE
  5
77
  8
TEAM-KAN
 10
29.37
 20
144.982205
 30
0.0
 11
-29.37
 21
144.982205
 31
0.0
  0
LINE
  5
78
  8
TEAM-KAN
 10
26.0
 20
144.982205
 30
0.0
 11
26.0
 21
145.709618
 31
0.0
  0
LINE
  5
79
  8
TEAM-KAN
 10
-26.0
 20
144.982205
 30
0.0
 11
-26.0
 21
145.709618
 31
0.0
  0
ARC
  5
7A
  8
TEAM-KAN
 10
45.396497
 20
133.33341
 30
0.0
 40
16.738891
 50
96.640629
 51
123.74467
  0
ARC
  5
7B
  8
TEAM-KAN
 10
27.974444
 20
160.186553
 30
0.0
 40
15.26826
 50
275.244294
 51
302.122013
  0
ARC
  5
7C
  8
TEAM-KAN
 10
-45.396497
 20
133.33341
 30
0.0
 40
16.738891
 50
56.25533
 51
83.359371
  0
ARC
  5
7D
  8
TEAM-KAN
 10
-27.974444
 20
160.186553
 30
0.0
 40
15.26826
 50
237.877987
 51
264.755706
  0
DIMENSION
  5
7E
  8
TEAM-MAS
  2
*D2
 10
-26.0
 20
100.767123
 30
0.0
 11
135.462027
 21
100.767123
 31
0.0
 12
-12000.0
 22
-63980.0
 32
0.0
 70
   128
 13
26.0
 23
144.982205
 33
0.0
 14
-26.0
 24
144.982205
 34
0.0
1001
ACAD
1000
DSTYLE
1002
{
1070
    40
1040
1.0
1002
}
  0
ARC
  5
8D
  8
TEAM-BODY
 10
470.989977
 20
331.431908
 30
0.0
 40
146.586133
 50
269.836108
 51
324.280903
  0
LINE
  5
8E
  8
TEAM-DET3
 10
469.763047
 20
157.690874
 30
0.0
 11
499.771225
 21
187.699051
 31
0.0
  0
POLYLINE
  5
8F
  8
TEAM-DET3
 66
     1
 10
0.0
 20
0.0
 30
0.0
  0
VERTEX
  5
194
  8
TEAM-DET3
 10
-413.0
 20
165.839968
 30
0.0
  0
VERTEX
  5
195
  8
TEAM-DET3
 10
-413.0
 20
144.466896
 30
0.0
  0
VERTEX
  5
196
  8
TEAM-DET3
 10
-365.0
 20
144.466896
 30
0.0
  0
VERTEX
  5
197
  8
TEAM-DET3
 10
-365.0
 20
165.839968
 30
0.0
  0
SEQEND
  5
198
  8
TEAM-DET3
  0
POLYLINE
  5
90
  8
TEAM-DET3
 66
     1
 10
0.0
 20
0.0
 30
0.0
  0
VERTEX
  5
199
  8
TEAM-DET3
 10
-413.0
 20
142.839968
 30
0.0
  0
VERTEX
  5
19A
  8
TEAM-DET3
 10
-413.0
 20
165.839968
 30
0.0
  0
VERTEX
  5
19B
  8
TEAM-DET3
 10
-365.0
 20
165.839968
 30
0.0
  0
VERTEX
  5
19C
  8
TEAM-DET3
 10
-365.0
 20
142.839968
 30
0.0
  0
SEQEND
  5
19D
  8
TEAM-DET3
  0
POLYLINE
  5
91
  8
TEAM-DET3
 66
     1
 10
0.0
 20
0.0
 30
0.0
  0
VERTEX
  5
19E
  8
TEAM-DET3
 10
-415.0
 20
142.839968
 30
0.0
  0
VERTEX
  5
19F
  8
TEAM-DET3
 10
-415.0
 20
167.839968
 30
0.0
  0
VERTEX
  5
1A0
  8
TEAM-DET3
 10
-363.0
 20
167.839968
 30
0.0
  0
VERTEX
  5
1A1
  8
TEAM-DET3
 10
-363.0
 20
142.839968
 30
0.0
  0
SEQEND
  5
1A2
  8
TEAM-DET3
  0
POLYLINE
  5
92
  8
TEAM-DET3
 66
     1
 10
0.0
 20
0.0
 30
0.0
  0
VERTEX
  5
1A3
  8
TEAM-DET3
 10
-409.0
 20
165.839968
 30
0.0
  0
VERTEX
  5
1A4
  8
TEAM-DET3
 10
-409.0
 20
148.466896
 30
0.0
  0
VERTEX
  5
1A5
  8
TEAM-DET3
 10
-369.0
 20
148.466896
 30
0.0
  0
VERTEX
  5
1A6
  8
TEAM-DET3
 10
-369.0
 20
165.839968
 30
0.0
  0
SEQEND
  5
1A7
  8
TEAM-DET3
  0
POLYLINE
  5
93
  8
TEAM-DET3
 66
     1
 10
0.0
 20
0.0
 30
0.0
  0
VERTEX
  5
1A8
  8
TEAM-DET3
 10
409.0
 20
165.839968
 30
0.0
  0
VERTEX
  5
1A9
  8
TEAM-DET3
 10
409.0
 20
148.466896
 30
0.0
  0
VERTEX
  5
1AA
  8
TEAM-DET3
 10
369.0
 20
148.466896
 30
0.0
  0
VERTEX
  5
1AB
  8
TEAM-DET3
 10
369.0
 20
165.839968
 30
0.0
  0
SEQEND
  5
1AC
  8
TEAM-DET3
  0
POLYLINE
  5
94
  8
TEAM-DET3
 66
     1
 10
0.0
 20
0.0
 30
0.0
  0
VERTEX
  5
1AD
  8
TEAM-DET3
 10
415.0
 20
142.839968
 30
0.0
  0
VERTEX
  5
1AE
  8
TEAM-DET3
 10
415.0
 20
167.839968
 30
0.0
  0
VERTEX
  5
1AF
  8
TEAM-DET3
 10
363.0
 20
167.839968
 30
0.0
  0
VERTEX
  5
1B0
  8
TEAM-DET3
 10
363.0
 20
142.839968
 30
0.0
  0
SEQEND
  5
1B1
  8
TEAM-DET3
  0
POLYLINE
  5
95
  8
TEAM-DET3
 66
     1
 10
0.0
 20
0.0
 30
0.0
  0
VERTEX
  5
1B2
  8
TEAM-DET3
 10
413.0
 20
142.839968
 30
0.0
  0
VERTEX
  5
1B3
  8
TEAM-DET3
 10
413.0
 20
165.839968
 30
0.0
  0
VERTEX
  5
1B4
  8
TEAM-DET3
 10
365.0
 20
165.839968
 30
0.0
  0
VERTEX
  5
1B5
  8
TEAM-DET3
 10
365.0
 20
142.839968
 30
0.0
  0
SEQEND
  5
1B6
  8
TEAM-DET3
  0
POLYLINE
  5
96
  8
TEAM-DET3
 66
     1
 10
0.0
 20
0.0
 30
0.0
  0
VERTEX
  5
1B7
  8
TEAM-DET3
 10
413.0
 20
165.839968
 30
0.0
  0
VERTEX
  5
1B8
  8
TEAM-DET3
 10
413.0
 20
144.466896
 30
0.0
  0
VERTEX
  5
1B9
  8
TEAM-DET3
 10
365.0
 20
144.466896
 30
0.0
  0
VERTEX
  5
1BA
  8
TEAM-DET3
 10
365.0
 20
165.839968
 30
0.0
  0
SEQEND
  5
1BB
  8
TEAM-DET3
  0
LINE
  5
97
  8
TEAM-DET3
 10
-383.00061
 20
51.99984
 30
0.0
 11
-383.00061
 21
144.466896
 31
0.0
  0
LINE
  5
98
  8
TEAM-DET3
 10
-395.00061
 20
144.466896
 30
0.0
 11
-395.00061
 21
51.99984
 31
0.0
  0
LINE
  5
99
  8
TEAM-DET3
 10
-394.06007
 20
144.466896
 30
0.0
 11
-394.06007
 21
51.99984
 31
0.0
  0
LINE
  5
9A
  8
TEAM-DET3
 10
-383.93995
 20
51.99984
 30
0.0
 11
-383.93995
 21
144.466896
 31
0.0
  0
LINE
  5
9B
  8
TEAM-DET3
 10
383.93995
 20
51.99984
 30
0.0
 11
383.93995
 21
144.466896
 31
0.0
  0
LINE
  5
9C
  8
TEAM-DET3
 10
394.06007
 20
144.466896
 30
0.0
 11
394.06007
 21
51.99984
 31
0.0
  0
LINE
  5
9D
  8
TEAM-DET3
 10
395.00061
 20
144.466896
 30
0.0
 11
395.00061
 21
51.99984
 31
0.0
  0
LINE
  5
9E
  8
TEAM-DET3
 10
383.00061
 20
51.99984
 30
0.0
 11
383.00061
 21
144.466896
 31
0.0
  0
LINE
  5
9F
  8
TEAM-DET3
 10
409.0
 20
154.153432
 30
0.0
 11
406.0
 21
154.153432
 31
0.0
  0
LINE
  5
A0
  8
TEAM-DET3
 10
419.0
 20
154.153432
 30
0.0
 11
415.0
 21
154.153432
 31
0.0
  0
LINE
  5
A1
  8
TEAM-DET3
 10
409.0
 20
160.153432
 30
0.0
 11
406.0
 21
160.153432
 31
0.0
  0
LINE
  5
A2
  8
TEAM-DET3
 10
419.0
 20
160.153432
 30
0.0
 11
415.0
 21
160.153432
 31
0.0
  0
LINE
  5
A3
  8
TEAM-DET3
 10
363.0
 20
154.153432
 30
0.0
 11
359.0
 21
154.153432
 31
0.0
  0
LINE
  5
A4
  8
TEAM-DET3
 10
372.0
 20
154.153432
 30
0.0
 11
369.0
 21
154.153432
 31
0.0
  0
LINE
  5
A5
  8
TEAM-DET3
 10
363.0
 20
160.153432
 30
0.0
 11
359.0
 21
160.153432
 31
0.0
  0
LINE
  5
A6
  8
TEAM-DET3
 10
372.0
 20
160.153432
 30
0.0
 11
369.0
 21
160.153432
 31
0.0
  0
LINE
  5
A7
  8
TEAM-DET3
 10
359.0
 20
163.153432
 30
0.0
 11
359.0
 21
151.153432
 31
0.0
  0
LINE
  5
A8
  8
TEAM-DET3
 10
372.0
 20
160.153432
 30
0.0
 11
372.0
 21
154.153432
 31
0.0
  0
LINE
  5
A9
  8
TEAM-DET3
 10
406.0
 20
160.153432
 30
0.0
 11
406.0
 21
154.153432
 31
0.0
  0
LINE
  5
AA
  8
TEAM-DET3
 10
419.0
 20
163.153432
 30
0.0
 11
419.0
 21
151.153432
 31
0.0
  0
LINE
  5
AB
  8
TEAM-DET3
 10
363.0
 20
151.153432
 30
0.0
 11
359.0
 21
151.153432
 31
0.0
  0
LINE
  5
AC
  8
TEAM-DET3
 10
363.0
 20
163.153432
 30
0.0
 11
359.0
 21
163.153432
 31
0.0
  0
LINE
  5
AD
  8
TEAM-DET3
 10
419.0
 20
151.153432
 30
0.0
 11
415.0
 21
151.153432
 31
0.0
  0
LINE
  5
AE
  8
TEAM-DET3
 10
419.0
 20
163.153432
 30
0.0
 11
415.0
 21
163.153432
 31
0.0
  0
LINE
  5
AF
  8
TEAM-DET3
 10
365.0
 20
142.839968
 30
0.0
 11
363.0
 21
142.839968
 31
0.0
  0
LINE
  5
B0
  8
TEAM-DET3
 10
415.0
 20
142.839968
 30
0.0
 11
413.0
 21
142.839968
 31
0.0
  0
LINE
  5
B1
  8
TEAM-DET3
 10
394.12415
 20
152.903797
 30
0.0
 11
384.12365
 21
152.903797
 31
0.0
  0
LINE
  5
B2
  8
TEAM-DET3
 10
395.12389
 20
151.904037
 30
0.0
 11
383.12389
 21
151.904037
 31
0.0
  0
LINE
  5
B3
  8
TEAM-DET3
 10
395.12389
 20
151.904037
 30
0.0
 11
395.12389
 21
148.466896
 31
0.0
  0
LINE
  5
B4
  8
TEAM-DET3
 10
383.12389
 20
148.466896
 30
0.0
 11
383.12389
 21
151.904037
 31
0.0
  0
LINE
  5
B5
  8
TEAM-DET3
 10
394.37439
 20
152.653557
 30
0.0
 11
394.37317
 21
148.466896
 31
0.0
  0
LINE
  5
B6
  8
TEAM-DET3
 10
383.87341
 20
152.653557
 30
0.0
 11
383.87341
 21
148.466896
 31
0.0
  0
LINE
  5
B7
  8
TEAM-DET3
 10
394.12415
 20
152.903797
 30
0.0
 11
394.37439
 21
152.653557
 31
0.0
  0
LINE
  5
B8
  8
TEAM-DET3
 10
394.37439
 20
152.653557
 30
0.0
 11
395.12389
 21
151.904037
 31
0.0
  0
LINE
  5
B9
  8
TEAM-DET3
 10
384.12365
 20
152.903797
 30
0.0
 11
383.87341
 21
152.653557
 31
0.0
  0
LINE
  5
BA
  8
TEAM-DET3
 10
383.87341
 20
152.653557
 30
0.0
 11
383.12389
 21
151.904037
 31
0.0
  0
LINE
  5
BB
  8
TEAM-DET3
 10
-383.87341
 20
152.653557
 30
0.0
 11
-383.12389
 21
151.904037
 31
0.0
  0
LINE
  5
BC
  8
TEAM-DET3
 10
-384.12365
 20
152.903797
 30
0.0
 11
-383.87341
 21
152.653557
 31
0.0
  0
LINE
  5
BD
  8
TEAM-DET3
 10
-394.37439
 20
152.653557
 30
0.0
 11
-395.12389
 21
151.904037
 31
0.0
  0
LINE
  5
BE
  8
TEAM-DET3
 10
-394.12415
 20
152.903797
 30
0.0
 11
-394.37439
 21
152.653557
 31
0.0
  0
LINE
  5
BF
  8
TEAM-DET3
 10
-383.87341
 20
152.653557
 30
0.0
 11
-383.87341
 21
148.466896
 31
0.0
  0
LINE
  5
C0
  8
TEAM-DET3
 10
-394.37439
 20
152.653557
 30
0.0
 11
-394.37317
 21
148.466896
 31
0.0
  0
LINE
  5
C1
  8
TEAM-DET3
 10
-383.12389
 20
148.466896
 30
0.0
 11
-383.12389
 21
151.904037
 31
0.0
  0
LINE
  5
C2
  8
TEAM-DET3
 10
-395.12389
 20
151.904037
 30
0.0
 11
-395.12389
 21
148.466896
 31
0.0
  0
LINE
  5
C3
  8
TEAM-DET3
 10
-395.12389
 20
151.904037
 30
0.0
 11
-383.12389
 21
151.904037
 31
0.0
  0
LINE
  5
C4
  8
TEAM-DET3
 10
-394.12415
 20
152.903797
 30
0.0
 11
-384.12365
 21
152.903797
 31
0.0
  0
LINE
  5
C5
  8
TEAM-DET3
 10
-415.0
 20
142.839968
 30
0.0
 11
-413.0
 21
142.839968
 31
0.0
  0
LINE
  5
C6
  8
TEAM-DET3
 10
-365.0
 20
142.839968
 30
0.0
 11
-363.0
 21
142.839968
 31
0.0
  0
LINE
  5
C7
  8
TEAM-DET3
 10
-419.0
 20
163.153432
 30
0.0
 11
-415.0
 21
163.153432
 31
0.0
  0
LINE
  5
C8
  8
TEAM-DET3
 10
-419.0
 20
151.153432
 30
0.0
 11
-415.0
 21
151.153432
 31
0.0
  0
LINE
  5
C9
  8
TEAM-DET3
 10
-363.0
 20
163.153432
 30
0.0
 11
-359.0
 21
163.153432
 31
0.0
  0
LINE
  5
CA
  8
TEAM-DET3
 10
-363.0
 20
151.153432
 30
0.0
 11
-359.0
 21
151.153432
 31
0.0
  0
LINE
  5
CB
  8
TEAM-DET3
 10
-419.0
 20
163.153432
 30
0.0
 11
-419.0
 21
151.153432
 31
0.0
  0
LINE
  5
CC
  8
TEAM-DET3
 10
-406.0
 20
160.153432
 30
0.0
 11
-406.0
 21
154.153432
 31
0.0
  0
LINE
  5
CD
  8
TEAM-DET3
 10
-372.0
 20
160.153432
 30
0.0
 11
-372.0
 21
154.153432
 31
0.0
  0
LINE
  5
CE
  8
TEAM-DET3
 10
-359.0
 20
163.153432
 30
0.0
 11
-359.0
 21
151.153432
 31
0.0
  0
LINE
  5
CF
  8
TEAM-DET3
 10
-372.0
 20
160.153432
 30
0.0
 11
-369.0
 21
160.153432
 31
0.0
  0
LINE
  5
D0
  8
TEAM-DET3
 10
-363.0
 20
160.153432
 30
0.0
 11
-359.0
 21
160.153432
 31
0.0
  0
LINE
  5
D1
  8
TEAM-DET3
 10
-372.0
 20
154.153432
 30
0.0
 11
-369.0
 21
154.153432
 31
0.0
  0
LINE
  5
D2
  8
TEAM-DET3
 10
-363.0
 20
154.153432
 30
0.0
 11
-359.0
 21
154.153432
 31
0.0
  0
LINE
  5
D3
  8
TEAM-DET3
 10
-419.0
 20
160.153432
 30
0.0
 11
-415.0
 21
160.153432
 31
0.0
  0
LINE
  5
D4
  8
TEAM-DET3
 10
-409.0
 20
160.153432
 30
0.0
 11
-406.0
 21
160.153432
 31
0.0
  0
LINE
  5
D5
  8
TEAM-DET3
 10
-419.0
 20
154.153432
 30
0.0
 11
-415.0
 21
154.153432
 31
0.0
  0
LINE
  5
D6
  8
TEAM-DET3
 10
-409.0
 20
154.153432
 30
0.0
 11
-406.0
 21
154.153432
 31
0.0
  0
LINE
  5
D7
  8
TEAM-DET3
 10
-383.00061
 20
0.0
 30
0.0
 11
-383.00061
 21
9.99984
 31
0.0
  0
LINE
  5
D8
  8
TEAM-DET3
 10
-395.00061
 20
9.99984
 30
0.0
 11
-395.00061
 21
0.0
 31
0.0
  0
LINE
  5
D9
  8
TEAM-DET3
 10
-402.1239
 20
9.99984
 30
0.0
 11
-376.1239
 21
9.99984
 31
0.0
  0
LINE
  5
DA
  8
TEAM-DET3
 10
-402.1239
 20
9.99984
 30
0.0
 11
-402.1239
 21
0.0
 31
0.0
  0
LINE
  5
DB
  8
TEAM-DET3
 10
-376.1239
 20
9.99984
 30
0.0
 11
-376.1239
 21
0.0
 31
0.0
  0
LINE
  5
DC
  8
TEAM-DET3
 10
-402.1239
 20
9.99984
 30
0.0
 11
-376.1239
 21
9.99984
 31
0.0
  0
LINE
  5
DD
  8
TEAM-DET3
 10
-402.1239
 20
0.0
 30
0.0
 11
-376.1239
 21
0.0
 31
0.0
  0
LINE
  5
DE
  8
TEAM-HIDE
 10
-500.0
 20
-0.00016
 30
0.0
 11
500.0
 21
-0.00016
 31
0.0
  0
LINE
  5
E1
  8
TEAM-DET3
 10
402.1239
 20
0.0
 30
0.0
 11
376.1239
 21
0.0
 31
0.0
  0
LINE
  5
E2
  8
TEAM-DET3
 10
402.1239
 20
9.99984
 30
0.0
 11
376.1239
 21
9.99984
 31
0.0
  0
LINE
  5
E3
  8
TEAM-DET3
 10
376.1239
 20
9.99984
 30
0.0
 11
376.1239
 21
0.0
 31
0.0
  0
LINE
  5
E4
  8
TEAM-DET3
 10
402.1239
 20
9.99984
 30
0.0
 11
402.1239
 21
0.0
 31
0.0
  0
LINE
  5
E5
  8
TEAM-DET3
 10
402.1239
 20
9.99984
 30
0.0
 11
376.1239
 21
9.99984
 31
0.0
  0
LINE
  5
E6
  8
TEAM-DET3
 10
395.00061
 20
9.99984
 30
0.0
 11
395.00061
 21
0.0
 31
0.0
  0
LINE
  5
E7
  8
TEAM-DET3
 10
383.00061
 20
0.0
 30
0.0
 11
383.00061
 21
9.99984
 31
0.0
  0
LINE
  5
E8
  8
TEAM-DET3
 10
398.00061
 20
51.99984
 30
0.0
 11
380.00061
 21
51.99984
 31
0.0
  0
LINE
  5
E9
  8
TEAM-DET3
 10
400.00061
 20
13.99984
 30
0.0
 11
378.00061
 21
13.99984
 31
0.0
  0
LINE
  5
EA
  8
TEAM-DET3
 10
399.00061
 20
40.99984
 30
0.0
 11
379.00061
 21
40.99984
 31
0.0
  0
LINE
  5
EB
  8
TEAM-DET3
 10
398.00061
 20
47.99984
 30
0.0
 11
380.00061
 21
47.99984
 31
0.0
  0
LINE
  5
EC
  8
TEAM-DET3
 10
378.00061
 20
13.99984
 30
0.0
 11
379.00061
 21
40.99984
 31
0.0
  0
LINE
  5
ED
  8
TEAM-DET3
 10
380.00061
 20
40.99984
 30
0.0
 11
380.00061
 21
51.99984
 31
0.0
  0
LINE
  5
EE
  8
TEAM-DET3
 10
398.00061
 20
51.99984
 30
0.0
 11
398.00061
 21
40.99984
 31
0.0
  0
LINE
  5
EF
  8
TEAM-DET3
 10
402.1239
 20
9.99984
 30
0.0
 11
400.00061
 21
13.99984
 31
0.0
  0
LINE
  5
F0
  8
TEAM-DET3
 10
376.1239
 20
9.99984
 30
0.0
 11
378.00061
 21
13.99984
 31
0.0
  0
LINE
  5
F1
  8
TEAM-DET3
 10
399.00061
 20
40.99984
 30
0.0
 11
400.00061
 21
13.99984
 31
0.0
  0
LINE
  5
F2
  8
TEAM-DET3
 10
393.858832
 20
51.99984
 30
0.0
 11
393.858832
 21
47.99984
 31
0.0
  0
LINE
  5
F3
  8
TEAM-DET3
 10
384.142388
 20
51.99984
 30
0.0
 11
384.142388
 21
47.99984
 31
0.0
  0
LINE
  5
F4
  8
TEAM-DET3
 10
389.00061
 20
40.99984
 30
0.0
 11
389.00061
 21
13.99984
 31
0.0
  0
LINE
  5
F5
  8
TEAM-DET3
 10
393.767181
 20
40.99984
 30
0.0
 11
394.767181
 21
13.99984
 31
0.0
  0
LINE
  5
F6
  8
TEAM-DET3
 10
384.234039
 20
40.99984
 30
0.0
 11
383.234039
 21
13.99984
 31
0.0
  0
LINE
  5
F7
  8
TEAM-DET3
 10
-384.234039
 20
40.99984
 30
0.0
 11
-383.234039
 21
13.99984
 31
0.0
  0
LINE
  5
F8
  8
TEAM-DET3
 10
-393.767181
 20
40.99984
 30
0.0
 11
-394.767181
 21
13.99984
 31
0.0
  0
LINE
  5
F9
  8
TEAM-DET3
 10
-389.00061
 20
40.99984
 30
0.0
 11
-389.00061
 21
13.99984
 31
0.0
  0
LINE
  5
FA
  8
TEAM-DET3
 10
-384.142388
 20
51.99984
 30
0.0
 11
-384.142388
 21
47.99984
 31
0.0
  0
LINE
  5
FB
  8
TEAM-DET3
 10
-393.858832
 20
51.99984
 30
0.0
 11
-393.858832
 21
47.99984
 31
0.0
  0
LINE
  5
FC
  8
TEAM-DET3
 10
-399.00061
 20
40.99984
 30
0.0
 11
-400.00061
 21
13.99984
 31
0.0
  0
LINE
  5
FD
  8
TEAM-DET3
 10
-376.1239
 20
9.99984
 30
0.0
 11
-378.00061
 21
13.99984
 31
0.0
  0
LINE
  5
FE
  8
TEAM-DET3
 10
-402.1239
 20
9.99984
 30
0.0
 11
-400.00061
 21
13.99984
 31
0.0
  0
LINE
  5
FF
  8
TEAM-DET3
 10
-398.00061
 20
51.99984
 30
0.0
 11
-398.00061
 21
40.99984
 31
0.0
  0
LINE
  5
100
  8
TEAM-DET3
 10
-380.00061
 20
40.99984
 30
0.0
 11
-380.00061
 21
51.99984
 31
0.0
  0
LINE
  5
101
  8
TEAM-DET3
 10
-378.00061
 20
13.99984
 30
0.0
 11
-379.00061
 21
40.99984
 31
0.0
  0
LINE
  5
102
  8
TEAM-DET3
 10
-398.00061
 20
47.99984
 30
0.0
 11
-380.00061
 21
47.99984
 31
0.0
  0
LINE
  5
103
  8
TEAM-DET3
 10
-399.00061
 20
40.99984
 30
0.0
 11
-379.00061
 21
40.99984
 31
0.0
  0
LINE
  5
104
  8
TEAM-DET3
 10
-400.00061
 20
13.99984
 30
0.0
 11
-378.00061
 21
13.99984
 31
0.0
  0
LINE
  5
105
  8
TEAM-DET3
 10
-398.00061
 20
51.99984
 30
0.0
 11
-380.00061
 21
51.99984
 31
0.0
  0
ARC
  5
106
  8
TEAM-BODY
 10
4981.101105
 20
3365.097692
 30
0.0
 40
6384.894052
 50
204.631792
 51
209.24434
  0
ARC
  5
107
  8
TEAM-BODY
 10
-4981.101105
 20
3365.097692
 30
0.0
 40
6384.894052
 50
330.75566
 51
335.368208
  0
ARC
  5
108
  8
TEAM-BODY
 10
890.076901
 20
709.961183
 30
0.0
 40
10.0
 50
0.0
 51
90.881258
  0
LINE
  5
109
  8
TEAM-BODY
 10
899.923099
 20
589.96
 30
0.0
 11
900.076901
 21
709.961183
 31
0.0
  0
ENDSEC
  0
EOF
