  0
SECTION
  2
HEADER
  9
$ACADVER
  1
AC1009
  9
$INSBASE
 10
0.0
 20
0.0
 30
0.0
  9
$EXTMIN
 10
-851.271896
 20
-10.021461
 30
-0.001526
  9
$EXTMAX
 10
923.570362
 20
693.295502
 30
0.0
  9
$LIMMIN
 10
-851.271896
 20
-10.021461
  9
$LIMMAX
 10
923.570362
 20
693.295502
  9
$ORTHOMODE
 70
     1
  9
$REGENMODE
 70
     1
  9
$FILLMODE
 70
     1
  9
$QTEXTMODE
 70
     0
  9
$MIRRTEXT
 70
     0
  9
$DRAGMODE
 70
     2
  9
$LTSCALE
 40
50.0
  9
$OSMODE
 70
     7
  9
$ATTMODE
 70
     1
  9
$TEXTSIZE
 40
200.0
  9
$TRACEWID
 40
1.0
  9
$TEXTSTYLE
  7
STANDARD
  9
$CLAYER
  8
TEAM-MAS
  9
$CELTYPE
  6
BYLAYER
  9
$CECOLOR
 62
   256
  9
$DIMSCALE
 40
0.0
  9
$DIMASZ
 40
20.0
  9
$DIMEXO
 40
10.0
  9
$DIMDLI
 40
1.0
  9
$DIMRND
 40
0.0
  9
$DIMDLE
 40
0.0
  9
$DIMEXE
 40
1.0
  9
$DIMTP
 40
0.0
  9
$DIMTM
 40
0.0
  9
$DIMTXT
 40
35.0
  9
$DIMCEN
 40
1.0
  9
$DIMTSZ
 40
0.0
  9
$DIMTOL
 70
     0
  9
$DIMLIM
 70
     0
  9
$DIMTIH
 70
     0
  9
$DIMTOH
 70
     0
  9
$DIMSE1
 70
     0
  9
$DIMSE2
 70
     0
  9
$DIMTAD
 70
     0
  9
$DIMZIN
 70
     0
  9
$DIMBLK
  1

  9
$DIMASO
 70
     1
  9
$DIMSHO
 70
     0
  9
$DIMPOST
  1

  9
$DIMAPOST
  1

  9
$DIMALT
 70
     0
  9
$DIMALTD
 70
     2
  9
$DIMALTF
 40
25.4
  9
$DIMLFAC
 40
1.0
  9
$DIMTOFL
 70
     0
  9
$DIMTVP
 40
0.0
  9
$DIMTIX
 70
     0
  9
$DIMSOXD
 70
     0
  9
$DIMSAH
 70
     0
  9
$DIMBLK1
  1

  9
$DIMBLK2
  1

  9
$DIMSTYLE
  2
TEAM
  9
$DIMCLRD
 70
     9
  9
$DIMCLRE
 70
     9
  9
$DIMCLRT
 70
    11
  9
$DIMTFAC
 40
1.0
  9
$DIMGAP
 40
7.0
  9
$LUNITS
 70
     2
  9
$LUPREC
 70
     1
  9
$SKETCHINC
 40
1.0
  9
$FILLETRAD
 40
9.5
  9
$AUNITS
 70
     0
  9
$AUPREC
 70
     0
  9
$MENU
  1
ROPLANS
  9
$ELEVATION
 40
0.0
  9
$PELEVATION
 40
0.0
  9
$THICKNESS
 40
0.0
  9
$LIMCHECK
 70
     0
  9
$BLIPMODE
 70
     1
  9
$CHAMFERA
 40
0.0
  9
$CHAMFERB
 40
0.0
  9
$SKPOLY
 70
     0
  9
$TDCREATE
 40
2450392.957851
  9
$TDUPDATE
 40
2455944.717343
  9
$TDINDWG
 40
3.569992
  9
$TDUSRTIMER
 40
3.569992
  9
$USRTIMER
 70
     1
  9
$ANGBASE
 50
0.0
  9
$ANGDIR
 70
     0
  9
$PDMODE
 70
     0
  9
$PDSIZE
 40
0.0
  9
$PLINEWID
 40
0.0
  9
$COORDS
 70
     2
  9
$SPLFRAME
 70
     0
  9
$SPLINETYPE
 70
     6
  9
$SPLINESEGS
 70
     8
  9
$ATTDIA
 70
     0
  9
$ATTREQ
 70
     0
  9
$HANDLING
 70
     1
  9
$HANDSEED
  5
BA
  9
$SURFTAB1
 70
    24
  9
$SURFTAB2
 70
    24
  9
$SURFTYPE
 70
     6
  9
$SURFU
 70
     6
  9
$SURFV
 70
     6
  9
$UCSNAME
  2

  9
$UCSORG
 10
0.0
 20
0.0
 30
0.0
  9
$UCSXDIR
 10
1.0
 20
0.0
 30
0.0
  9
$UCSYDIR
 10
0.0
 20
1.0
 30
0.0
  9
$PUCSNAME
  2

  9
$PUCSORG
 10
0.0
 20
0.0
 30
0.0
  9
$PUCSXDIR
 10
1.0
 20
0.0
 30
0.0
  9
$PUCSYDIR
 10
0.0
 20
1.0
 30
0.0
  9
$USERI1
 70
     0
  9
$USERI2
 70
     0
  9
$USERI3
 70
     0
  9
$USERI4
 70
     0
  9
$USERI5
 70
     0
  9
$USERR1
 40
0.0
  9
$USERR2
 40
0.0
  9
$USERR3
 40
0.0
  9
$USERR4
 40
0.0
  9
$USERR5
 40
0.0
  9
$WORLDVIEW
 70
     1
  9
$SHADEDGE
 70
     0
  9
$SHADEDIF
 70
    70
  9
$TILEMODE
 70
     1
  9
$MAXACTVP
 70
    16
  9
$PLIMCHECK
 70
     0
  9
$PEXTMIN
 10
-0.805942
 20
0.005011
 30
0.0
  9
$PEXTMAX
 10
20.250094
 20
11.356329
 30
0.0
  9
$PLIMMIN
 10
0.0
 20
0.0
  9
$PLIMMAX
 10
12.0
 20
9.0
  9
$UNITMODE
 70
     0
  9
$VISRETAIN
 70
     0
  9
$PLINEGEN
 70
     0
  9
$PSLTSCALE
 70
     0
  0
ENDSEC
  0
SECTION
  2
TABLES
  0
TABLE
  2
VPORT
 70
     2
  0
VPORT
  2
*ACTIVE
 70
     0
 10
0.0
 20
0.0
 11
1.0
 21
1.0
 12
36.149233
 22
341.63702
 13
0.0
 23
0.0
 14
1.0
 24
1.0
 15
50.0
 25
50.0
 16
0.0
 26
0.0
 36
1.0
 17
0.0
 27
0.0
 37
0.0
 40
935.350018
 41
1.903766
 42
50.0
 43
0.0
 44
0.0
 50
0.0
 51
0.0
 71
     0
 72
   100
 73
     1
 74
     1
 75
     0
 76
     0
 77
     0
 78
     0
  0
ENDTAB
  0
TABLE
  2
LTYPE
 70
     2
  0
LTYPE
  2
CONTINUOUS
 70
     0
  3
Solid Line
 72
    65
 73
     0
 40
0.0
  0
LTYPE
  2
31
 70
     0
  3

 72
    65
 73
     4
 40
2.1
 49
1.5
 49
-0.3
 49
0.0
 49
-0.3
  0
ENDTAB
  0
TABLE
  2
LAYER
 70
    10
  0
LAYER
  2
0
 70
     0
 62
     7
  6
CONTINUOUS
  0
LAYER
  2
DEFPOINTS
 70
     0
 62
     7
  6
CONTINUOUS
  0
LAYER
  2
TEAM-BODY
 70
     0
 62
     2
  6
CONTINUOUS
  0
LAYER
  2
TEAM-AXE
 70
     0
 62
    10
  6
31
  0
LAYER
  2
TEAM-MAS
 70
     0
 62
     9
  6
CONTINUOUS
  0
LAYER
  2
TEAM-TXT
 70
     0
 62
    11
  6
CONTINUOUS
  0
LAYER
  2
TEAM-DET1
 70
     0
 62
     4
  6
CONTINUOUS
  0
LAYER
  2
TEAM-KAN
 70
     0
 62
     6
  6
CONTINUOUS
  0
LAYER
  2
TEAM-DET3
 70
     0
 62
    14
  6
CONTINUOUS
  0
LAYER
  2
TEAM-INSP
 70
     0
 62
     5
  6
CONTINUOUS
  0
ENDTAB
  0
TABLE
  2
STYLE
 70
     2
  0
STYLE
  2
STANDARD
 70
     0
 40
0.0
 41
1.0
 50
0.0
 71
     0
 42
200.0
  3
txt
  4

  0
STYLE
  2
TEAM
 70
     0
 40
0.0
 41
0.8
 50
15.0
 71
     0
 42
7.0
  3
ROMANS.shx
  4

  0
ENDTAB
  0
TABLE
  2
VIEW
 70
     0
  0
ENDTAB
  0
TABLE
  2
UCS
 70
     0
  0
ENDTAB
  0
TABLE
  2
APPID
 70
     1
  0
APPID
  2
ACAD
 70
     0
  0
ENDTAB
  0
TABLE
  2
DIMSTYLE
 70
     1
  0
DIMSTYLE
  2
TEAM
 70
     0
  3

  4

  5

  6

  7

 40
0.0
 41
20.0
 42
10.0
 43
1.0
 44
1.0
 45
0.0
 46
0.0
 47
0.0
 48
0.0
140
35.0
141
1.0
142
0.0
143
25.4
144
1.0
145
0.0
146
1.0
147
7.0
 71
     0
 72
     0
 73
     0
 74
     0
 75
     0
 76
     0
 77
     0
 78
     0
170
     0
171
     2
172
     0
173
     0
174
     0
175
     0
176
     9
177
     9
178
    11
  0
ENDTAB
  0
ENDSEC
  0
SECTION
  2
BLOCKS
  0
BLOCK
  8
0
  2
$MODEL_SPACE
 70
     0
 10
0.0
 20
0.0
 30
0.0
  3
$MODEL_SPACE
  1

  0
ENDBLK
  5
B3
  8
0
  0
BLOCK
 67
     1
  8
0
  2
$PAPER_SPACE
 70
     0
 10
0.0
 20
0.0
 30
0.0
  3
$PAPER_SPACE
  1

  0
ENDBLK
  5
B1
 67
     1
  8
0
  0
BLOCK
  8
0
  2
*D0
 70
     1
 10
0.0
 20
0.0
 30
0.0
  3
*D0
  1

  0
LINE
  5
22
  8
0
  6
BYBLOCK
 62
     9
 10
12850.0
 20
8549.998817
 30
0.0
 11
12850.0
 21
8676.924038
 31
0.0
  0
LINE
  5
23
  8
0
  6
BYBLOCK
 62
     9
 10
11150.0
 20
8549.998817
 30
0.0
 11
11150.0
 21
8676.924038
 31
0.0
  0
LINE
  5
24
  8
0
  6
BYBLOCK
 62
     9
 10
12830.0
 20
8675.924038
 30
0.0
 11
12059.5
 21
8675.924038
 31
0.0
  0
LINE
  5
25
  8
0
  6
BYBLOCK
 62
     9
 10
11170.0
 20
8675.924038
 30
0.0
 11
11940.5
 21
8675.924038
 31
0.0
  0
SOLID
  5
26
  8
0
  6
BYBLOCK
 62
     9
 10
12830.0
 20
8679.257371
 30
0.0
 11
12830.0
 21
8672.590704
 31
0.0
 12
12850.0
 22
8675.924038
 32
0.0
 13
12850.0
 23
8675.924038
 33
0.0
  0
SOLID
  5
27
  8
0
  6
BYBLOCK
 62
     9
 10
11170.0
 20
8679.257371
 30
0.0
 11
11170.0
 21
8672.590704
 31
0.0
 12
11150.0
 22
8675.924038
 32
0.0
 13
11150.0
 23
8675.924038
 33
0.0
  0
TEXT
  5
28
  8
0
  6
BYBLOCK
 62
    11
 10
11947.5
 20
8658.424038
 30
0.0
 40
35.0
  1
1700
  0
POINT
  5
29
  8
DEFPOINTS
  6
BYBLOCK
 62
     0
 10
12850.0
 20
8539.998817
 30
0.0
  0
POINT
  5
2B
  8
DEFPOINTS
  6
BYBLOCK
 62
     0
 10
11150.0
 20
8539.998817
 30
0.0
  0
POINT
  5
2C
  8
DEFPOINTS
  6
BYBLOCK
 62
     0
 10
11150.0
 20
8675.924038
 30
0.0
  0
ENDBLK
  5
2E
  8
0
  0
BLOCK
  8
0
  2
*D1
 70
     1
 10
0.0
 20
0.0
 30
0.0
  3
*D1
  1

  0
LINE
  5
72
  8
0
  6
BYBLOCK
 62
     9
 10
12854.844212
 20
8600.0
 30
0.0
 11
12907.016234
 21
8600.0
 31
0.0
  0
LINE
  5
73
  8
0
  6
BYBLOCK
 62
     9
 10
12587.09791
 20
8119.999305
 30
0.0
 11
12907.016234
 21
8119.999305
 31
0.0
  0
LINE
  5
74
  8
0
  6
BYBLOCK
 62
     9
 10
12906.016234
 20
8580.0
 30
0.0
 11
12906.016234
 21
8410.749653
 31
0.0
  0
LINE
  5
75
  8
0
  6
BYBLOCK
 62
     9
 10
12906.016234
 20
8139.999305
 30
0.0
 11
12906.016234
 21
8309.249653
 31
0.0
  0
SOLID
  5
76
  8
0
  6
BYBLOCK
 62
     9
 10
12902.682901
 20
8580.0
 30
0.0
 11
12909.349568
 21
8580.0
 31
0.0
 12
12906.016234
 22
8600.0
 32
0.0
 13
12906.016234
 23
8600.0
 33
0.0
  0
SOLID
  5
77
  8
0
  6
BYBLOCK
 62
     9
 10
12902.682901
 20
8139.999305
 30
0.0
 11
12909.349568
 21
8139.999305
 31
0.0
 12
12906.016234
 22
8119.999305
 32
0.0
 13
12906.016234
 23
8119.999305
 33
0.0
  0
TEXT
  5
78
  8
0
  6
BYBLOCK
 62
    11
 10
12923.516234
 20
8316.249653
 30
0.0
 40
35.0
  1
480
 50
90.0
  0
POINT
  5
79
  8
DEFPOINTS
  6
BYBLOCK
 62
     0
 10
12844.844212
 20
8600.0
 30
0.0
  0
POINT
  5
7A
  8
DEFPOINTS
  6
BYBLOCK
 62
     0
 10
12577.09791
 20
8119.999305
 30
0.0
  0
POINT
  5
7B
  8
DEFPOINTS
  6
BYBLOCK
 62
     0
 10
12906.016234
 20
8119.999305
 30
0.0
  0
ENDBLK
  5
7D
  8
0
  0
ENDSEC
  0
SECTION
  2
ENTITIES
  0
DIMENSION
  5
20
  8
TEAM-MAS
  2
*D0
 10
-850.0
 20
675.774038
 30
0.0
 11
0.0
 21
675.774038
 31
0.0
 12
-12000.0
 22
-8000.15
 32
0.0
 13
850.0
 23
539.848817
 33
0.0
 14
-850.0
 24
539.848817
 34
0.0
1001
ACAD
1000
DSTYLE
1002
{
1070
    78
1070
     0
1070
    40
1040
1.0
1002
}
  0
LINE
  5
2F
  8
TEAM-BODY
 10
-839.999997
 20
599.848817
 30
0.0
 11
502.0
 21
599.848817
 31
0.0
  0
LINE
  5
31
  8
TEAM-DET3
 10
465.841037
 20
113.670505
 30
0.0
 11
-440.386941
 21
126.437888
 31
0.0
  0
LINE
  5
33
  8
TEAM-BODY
 10
-522.262861
 20
147.968541
 30
0.0
 11
500.026133
 21
133.484412
 31
0.0
  0
LINE
  5
34
  8
TEAM-BODY
 10
-522.108942
 20
152.966171
 30
0.0
 11
500.180052
 21
138.482043
 31
0.0
  0
CIRCLE
  5
35
  8
TEAM-INSP
 10
0.0
 20
0.0
 30
0.0
 40
10.0
  0
LINE
  5
37
  8
TEAM-BODY
 10
-845.000762
 20
539.761555
 30
0.0
 11
-844.125382
 21
589.912052
 31
0.0
  0
LINE
  5
38
  8
TEAM-BODY
 10
-850.0
 20
539.848817
 30
0.0
 11
-849.12462
 21
589.999315
 31
0.0
  0
LINE
  5
39
  8
TEAM-BODY
 10
-850.0
 20
539.848817
 30
0.0
 11
-792.621897
 21
539.848817
 31
0.0
  0
LINE
  5
3A
  8
TEAM-DET3
 10
-440.386941
 20
126.437888
 30
0.0
 11
-460.0
 21
146.050947
 31
0.0
  0
ARC
  5
3B
  8
TEAM-BODY
 10
-518.618993
 20
252.905254
 30
0.0
 40
100.0
 50
195.0
 51
268.0
  0
ARC
  5
3C
  8
TEAM-BODY
 10
-651.510839
 20
323.857012
 30
0.0
 40
10.0
 50
15.0
 51
33.27462
  0
LINE
  5
3D
  8
TEAM-BODY
 10
-641.851581
 20
326.445203
 30
0.0
 11
-615.211575
 21
227.023349
 31
0.0
  0
LINE
  5
3E
  8
TEAM-BODY
 10
-643.150334
 20
329.343537
 30
0.0
 11
-818.343638
 21
588.157486
 31
0.0
  0
LINE
  5
3F
  8
TEAM-BODY
 10
-647.330586
 20
326.600275
 30
0.0
 11
-822.52389
 21
585.414223
 31
0.0
  0
LINE
  5
40
  8
TEAM-BODY
 10
-646.68121
 20
325.151107
 30
0.0
 11
-620.041204
 21
225.729254
 31
0.0
  0
ARC
  5
41
  8
TEAM-BODY
 10
-651.510839
 20
323.857012
 30
0.0
 40
5.0
 50
15.0
 51
33.27462
  0
ARC
  5
42
  8
TEAM-BODY
 10
-518.618993
 20
252.905254
 30
0.0
 40
105.0
 50
195.0
 51
268.0
  0
TEXT
  5
43
  8
TEAM-TXT
 10
-758.481411
 20
525.822391
 30
0.0
 40
30.0
  1
team 121065
 41
0.8
 51
15.0
  7
TEAM
  0
ARC
  5
46
  8
TEAM-BODY
 10
-839.999997
 20
573.945645
 30
0.0
 40
20.903172
 50
33.27462
 51
86.850101
  0
ARC
  5
47
  8
TEAM-BODY
 10
-839.126143
 20
589.82479
 30
0.0
 40
5.0
 50
86.850101
 51
179.0
  0
ARC
  5
48
  8
TEAM-BODY
 10
-839.126143
 20
589.82479
 30
0.0
 40
10.0
 50
86.850101
 51
179.0
  0
ARC
  5
49
  8
TEAM-BODY
 10
-839.999997
 20
573.945645
 30
0.0
 40
25.903172
 50
33.27462
 51
86.850101
  0
ARC
  5
4A
  8
TEAM-DET1
 10
444.80814
 20
-1557.692047
 30
0.0
 40
2157.996579
 50
91.177516
 51
119.6988
  0
LINE
  5
4C
  8
TEAM-BODY
 10
840.0
 20
599.848817
 30
0.0
 11
502.0
 21
599.848817
 31
0.0
  0
LINE
  5
4D
  8
TEAM-BODY
 10
500.256015
 20
137.998406
 30
0.0
 11
603.760787
 21
137.999229
 31
0.0
  0
LINE
  5
4E
  8
TEAM-BODY
 10
504.766684
 20
136.670639
 30
0.0
 11
526.902089
 21
123.890757
 31
0.0
  0
LINE
  5
4F
  8
TEAM-BODY
 10
523.902089
 20
119.849305
 30
0.0
 11
526.902089
 21
119.849305
 31
0.0
  0
LINE
  5
50
  8
TEAM-DET3
 10
465.841037
 20
113.670505
 30
0.0
 11
484.282092
 21
132.11156
 31
0.0
  0
ARC
  5
51
  8
TEAM-BODY
 10
499.766684
 20
128.010385
 30
0.0
 40
10.0
 50
60.0
 51
87.195218
  0
ARC
  5
52
  8
TEAM-BODY
 10
499.766684
 20
128.010385
 30
0.0
 40
5.0
 50
60.0
 51
87.195218
  0
LINE
  5
53
  8
TEAM-BODY
 10
502.266684
 20
132.340512
 30
0.0
 11
523.902089
 21
119.849305
 31
0.0
  0
LINE
  5
54
  8
TEAM-BODY
 10
840.0
 20
599.848817
 30
0.0
 11
602.0
 21
599.848817
 31
0.0
  0
LINE
  5
55
  8
TEAM-BODY
 10
845.000761
 20
539.761555
 30
0.0
 11
844.125381
 21
589.912052
 31
0.0
  0
LINE
  5
56
  8
TEAM-BODY
 10
850.0
 20
539.848817
 30
0.0
 11
849.12462
 21
589.999315
 31
0.0
  0
LINE
  5
57
  8
TEAM-BODY
 10
850.0
 20
539.848817
 30
0.0
 11
814.890327
 21
539.848817
 31
0.0
  0
LINE
  5
58
  8
TEAM-KAN
 10
526.902089
 20
123.890757
 30
0.0
 11
577.09791
 21
123.890757
 31
0.0
  0
LINE
  5
5A
  8
TEAM-KAN
 10
577.09791
 20
119.849305
 30
0.0
 11
526.902089
 21
119.849305
 31
0.0
  0
LINE
  5
5B
  8
TEAM-BODY
 10
526.902089
 20
123.890757
 30
0.0
 11
526.902089
 21
119.849305
 31
0.0
  0
LINE
  5
5C
  8
TEAM-BODY
 10
577.09791
 20
123.890757
 30
0.0
 11
577.09791
 21
119.849305
 31
0.0
  0
LINE
  5
5D
  8
TEAM-BODY
 10
580.09791
 20
119.849305
 30
0.0
 11
577.09791
 21
119.849305
 31
0.0
  0
LINE
  5
5E
  8
TEAM-BODY
 10
601.733316
 20
132.340512
 30
0.0
 11
580.09791
 21
119.849305
 31
0.0
  0
ARC
  5
5F
  8
TEAM-BODY
 10
604.233316
 20
128.010385
 30
0.0
 40
5.0
 50
92.804782
 51
120.0
  0
ARC
  5
60
  8
TEAM-BODY
 10
604.233316
 20
128.010385
 30
0.0
 40
10.0
 50
92.804782
 51
120.0
  0
LINE
  5
61
  8
TEAM-BODY
 10
599.233316
 20
136.670639
 30
0.0
 11
577.09791
 21
123.890757
 31
0.0
  0
LINE
  5
62
  8
TEAM-BODY
 10
653.918072
 20
152.966171
 30
0.0
 11
603.819948
 21
138.482043
 31
0.0
  0
LINE
  5
63
  8
TEAM-BODY
 10
654.071991
 20
147.968541
 30
0.0
 11
603.973866
 21
133.484412
 31
0.0
  0
ARC
  5
64
  8
TEAM-BODY
 10
783.319968
 20
323.857012
 30
0.0
 40
5.0
 50
146.72538
 51
165.0
  0
LINE
  5
65
  8
TEAM-BODY
 10
778.490339
 20
325.151107
 30
0.0
 11
751.850334
 21
225.729254
 31
0.0
  0
ARC
  5
66
  8
TEAM-BODY
 10
650.428122
 20
252.905254
 30
0.0
 40
105.0
 50
272.0
 51
345.0
  0
LINE
  5
67
  8
TEAM-BODY
 10
773.66071
 20
326.445203
 30
0.0
 11
747.020705
 21
227.023349
 31
0.0
  0
ARC
  5
68
  8
TEAM-BODY
 10
783.319968
 20
323.857012
 30
0.0
 40
10.0
 50
146.72538
 51
165.0
  0
ARC
  5
69
  8
TEAM-BODY
 10
650.428122
 20
252.905254
 30
0.0
 40
100.0
 50
272.0
 51
345.0
  0
LINE
  5
6A
  8
TEAM-BODY
 10
779.139716
 20
326.600275
 30
0.0
 11
822.52389
 21
585.414223
 31
0.0
  0
LINE
  5
6B
  8
TEAM-BODY
 10
774.959464
 20
329.343537
 30
0.0
 11
818.343637
 21
588.157486
 31
0.0
  0
ARC
  5
6C
  8
TEAM-BODY
 10
839.126143
 20
589.82479
 30
0.0
 40
5.0
 50
1.0
 51
93.149899
  0
ARC
  5
6D
  8
TEAM-BODY
 10
839.999997
 20
573.945645
 30
0.0
 40
20.903172
 50
93.149899
 51
146.72538
  0
ARC
  5
6E
  8
TEAM-BODY
 10
839.126143
 20
589.82479
 30
0.0
 40
10.0
 50
1.0
 51
93.149899
  0
ARC
  5
6F
  8
TEAM-BODY
 10
839.999997
 20
573.945645
 30
0.0
 40
25.903172
 50
93.149899
 51
146.72538
  0
DIMENSION
  5
70
  8
TEAM-MAS
  2
*D1
 10
906.016234
 20
119.849305
 30
0.0
 11
906.016234
 21
359.849653
 31
0.0
 12
-12000.0
 22
-8000.15
 32
0.0
 13
844.844212
 23
599.85
 33
0.0
 14
577.09791
 24
119.849305
 34
0.0
 50
90.0
1001
ACAD
1000
DSTYLE
1002
{
1070
    40
1040
1.0
1002
}
  0
LINE
  5
7E
  8
TEAM-AXE
 10
552.0
 20
620.450462
 30
0.0
 11
552.0
 21
96.890192
 31
0.0
  0
ENDSEC
  0
EOF
