  0
SECTION
  2
HEADER
  9
$ACADVER
  1
AC1009
  9
$INSBASE
 10
0.0
 20
0.0
 30
0.0
  9
$EXTMIN
 10
-1008.350316
 20
-483.266043
 30
-0.001526
  9
$EXTMAX
 10
1003.963233
 20
402.115916
 30
0.0
  9
$LIMMIN
 10
-1008.350316
 20
-483.266043
  9
$LIMMAX
 10
1003.963233
 20
402.115916
  9
$ORTHOMODE
 70
     1
  9
$REGENMODE
 70
     1
  9
$FILLMODE
 70
     1
  9
$QTEXTMODE
 70
     0
  9
$MIRRTEXT
 70
     0
  9
$DRAGMODE
 70
     2
  9
$LTSCALE
 40
50.0
  9
$OSMODE
 70
     7
  9
$ATTMODE
 70
     1
  9
$TEXTSIZE
 40
200.0
  9
$TRACEWID
 40
1.0
  9
$TEXTSTYLE
  7
STANDARD
  9
$CLAYER
  8
TEAM-MAS
  9
$CELTYPE
  6
BYLAYER
  9
$CECOLOR
 62
   256
  9
$DIMSCALE
 40
0.0
  9
$DIMASZ
 40
20.0
  9
$DIMEXO
 40
10.0
  9
$DIMDLI
 40
1.0
  9
$DIMRND
 40
0.0
  9
$DIMDLE
 40
0.0
  9
$DIMEXE
 40
1.0
  9
$DIMTP
 40
0.0
  9
$DIMTM
 40
0.0
  9
$DIMTXT
 40
35.0
  9
$DIMCEN
 40
1.0
  9
$DIMTSZ
 40
0.0
  9
$DIMTOL
 70
     0
  9
$DIMLIM
 70
     0
  9
$DIMTIH
 70
     0
  9
$DIMTOH
 70
     0
  9
$DIMSE1
 70
     0
  9
$DIMSE2
 70
     0
  9
$DIMTAD
 70
     0
  9
$DIMZIN
 70
     0
  9
$DIMBLK
  1

  9
$DIMASO
 70
     1
  9
$DIMSHO
 70
     0
  9
$DIMPOST
  1

  9
$DIMAPOST
  1

  9
$DIMALT
 70
     0
  9
$DIMALTD
 70
     2
  9
$DIMALTF
 40
25.4
  9
$DIMLFAC
 40
1.0
  9
$DIMTOFL
 70
     0
  9
$DIMTVP
 40
0.0
  9
$DIMTIX
 70
     0
  9
$DIMSOXD
 70
     0
  9
$DIMSAH
 70
     0
  9
$DIMBLK1
  1

  9
$DIMBLK2
  1

  9
$DIMSTYLE
  2
TEAM
  9
$DIMCLRD
 70
     9
  9
$DIMCLRE
 70
     9
  9
$DIMCLRT
 70
    11
  9
$DIMTFAC
 40
1.0
  9
$DIMGAP
 40
7.0
  9
$LUNITS
 70
     2
  9
$LUPREC
 70
     1
  9
$SKETCHINC
 40
1.0
  9
$FILLETRAD
 40
9.5
  9
$AUNITS
 70
     0
  9
$AUPREC
 70
     0
  9
$MENU
  1
ROPLANS
  9
$ELEVATION
 40
0.0
  9
$PELEVATION
 40
0.0
  9
$THICKNESS
 40
0.0
  9
$LIMCHECK
 70
     0
  9
$BLIPMODE
 70
     1
  9
$CHAMFERA
 40
0.0
  9
$CHAMFERB
 40
0.0
  9
$SKPOLY
 70
     0
  9
$TDCREATE
 40
2450392.957851
  9
$TDUPDATE
 40
2455944.717343
  9
$TDINDWG
 40
3.569992
  9
$TDUSRTIMER
 40
3.569992
  9
$USRTIMER
 70
     1
  9
$ANGBASE
 50
0.0
  9
$ANGDIR
 70
     0
  9
$PDMODE
 70
     0
  9
$PDSIZE
 40
0.0
  9
$PLINEWID
 40
0.0
  9
$COORDS
 70
     2
  9
$SPLFRAME
 70
     0
  9
$SPLINETYPE
 70
     6
  9
$SPLINESEGS
 70
     8
  9
$ATTDIA
 70
     0
  9
$ATTREQ
 70
     0
  9
$HANDLING
 70
     1
  9
$HANDSEED
  5
134
  9
$SURFTAB1
 70
    24
  9
$SURFTAB2
 70
    24
  9
$SURFTYPE
 70
     6
  9
$SURFU
 70
     6
  9
$SURFV
 70
     6
  9
$UCSNAME
  2

  9
$UCSORG
 10
0.0
 20
0.0
 30
0.0
  9
$UCSXDIR
 10
1.0
 20
0.0
 30
0.0
  9
$UCSYDIR
 10
0.0
 20
1.0
 30
0.0
  9
$PUCSNAME
  2

  9
$PUCSORG
 10
0.0
 20
0.0
 30
0.0
  9
$PUCSXDIR
 10
1.0
 20
0.0
 30
0.0
  9
$PUCSYDIR
 10
0.0
 20
1.0
 30
0.0
  9
$USERI1
 70
     0
  9
$USERI2
 70
     0
  9
$USERI3
 70
     0
  9
$USERI4
 70
     0
  9
$USERI5
 70
     0
  9
$USERR1
 40
0.0
  9
$USERR2
 40
0.0
  9
$USERR3
 40
0.0
  9
$USERR4
 40
0.0
  9
$USERR5
 40
0.0
  9
$WORLDVIEW
 70
     1
  9
$SHADEDGE
 70
     0
  9
$SHADEDIF
 70
    70
  9
$TILEMODE
 70
     1
  9
$MAXACTVP
 70
    16
  9
$PLIMCHECK
 70
     0
  9
$PEXTMIN
 10
-0.805942
 20
0.005011
 30
0.0
  9
$PEXTMAX
 10
20.250094
 20
11.356329
 30
0.0
  9
$PLIMMIN
 10
0.0
 20
0.0
  9
$PLIMMAX
 10
12.0
 20
9.0
  9
$UNITMODE
 70
     0
  9
$VISRETAIN
 70
     0
  9
$PLINEGEN
 70
     0
  9
$PSLTSCALE
 70
     0
  0
ENDSEC
  0
SECTION
  2
TABLES
  0
TABLE
  2
VPORT
 70
     2
  0
VPORT
  2
*ACTIVE
 70
     0
 10
0.0
 20
0.0
 11
1.0
 21
1.0
 12
-2.193541
 22
-40.575063
 13
0.0
 23
0.0
 14
1.0
 24
1.0
 15
50.0
 25
50.0
 16
0.0
 26
0.0
 36
1.0
 17
0.0
 27
0.0
 37
0.0
 40
1060.498478
 41
1.903766
 42
50.0
 43
0.0
 44
0.0
 50
0.0
 51
0.0
 71
     0
 72
   100
 73
     1
 74
     1
 75
     0
 76
     0
 77
     0
 78
     0
  0
ENDTAB
  0
TABLE
  2
LTYPE
 70
     2
  0
LTYPE
  2
CONTINUOUS
 70
     0
  3
Solid Line
 72
    65
 73
     0
 40
0.0
  0
LTYPE
  2
31
 70
     0
  3

 72
    65
 73
     4
 40
2.1
 49
1.5
 49
-0.3
 49
0.0
 49
-0.3
  0
ENDTAB
  0
TABLE
  2
LAYER
 70
     9
  0
LAYER
  2
0
 70
     0
 62
     7
  6
CONTINUOUS
  0
LAYER
  2
DEFPOINTS
 70
     0
 62
     7
  6
CONTINUOUS
  0
LAYER
  2
TEAM-BODY
 70
     0
 62
     2
  6
CONTINUOUS
  0
LAYER
  2
TEAM-AXE
 70
     0
 62
    10
  6
31
  0
LAYER
  2
TEAM-MAS
 70
     0
 62
     9
  6
CONTINUOUS
  0
LAYER
  2
TEAM-TXT
 70
     0
 62
    11
  6
CONTINUOUS
  0
LAYER
  2
TEAM-DET1
 70
     0
 62
     4
  6
CONTINUOUS
  0
LAYER
  2
TEAM-DET3
 70
     0
 62
    14
  6
CONTINUOUS
  0
LAYER
  2
TEAM-INSP
 70
     0
 62
     5
  6
CONTINUOUS
  0
ENDTAB
  0
TABLE
  2
STYLE
 70
     2
  0
STYLE
  2
STANDARD
 70
     0
 40
0.0
 41
1.0
 50
0.0
 71
     0
 42
200.0
  3
txt
  4

  0
STYLE
  2
TEAM
 70
     0
 40
0.0
 41
0.8
 50
15.0
 71
     0
 42
7.0
  3
ROMANS.shx
  4

  0
ENDTAB
  0
TABLE
  2
VIEW
 70
     0
  0
ENDTAB
  0
TABLE
  2
UCS
 70
     0
  0
ENDTAB
  0
TABLE
  2
APPID
 70
     1
  0
APPID
  2
ACAD
 70
     0
  0
ENDTAB
  0
TABLE
  2
DIMSTYLE
 70
     1
  0
DIMSTYLE
  2
TEAM
 70
     0
  3

  4

  5

  6

  7

 40
0.0
 41
20.0
 42
10.0
 43
1.0
 44
1.0
 45
0.0
 46
0.0
 47
0.0
 48
0.0
140
35.0
141
1.0
142
0.0
143
25.4
144
1.0
145
0.0
146
1.0
147
7.0
 71
     0
 72
     0
 73
     0
 74
     0
 75
     0
 76
     0
 77
     0
 78
     0
170
     0
171
     2
172
     0
173
     0
174
     0
175
     0
176
     9
177
     9
178
    11
  0
ENDTAB
  0
ENDSEC
  0
SECTION
  2
BLOCKS
  0
BLOCK
  8
0
  2
$MODEL_SPACE
 70
     0
 10
0.0
 20
0.0
 30
0.0
  3
$MODEL_SPACE
  1

  0
ENDBLK
  5
104
  8
0
  0
BLOCK
 67
     1
  8
0
  2
$PAPER_SPACE
 70
     0
 10
0.0
 20
0.0
 30
0.0
  3
$PAPER_SPACE
  1

  0
ENDBLK
  5
102
 67
     1
  8
0
  0
BLOCK
  8
0
  2
*D0
 70
     1
 10
0.0
 20
0.0
 30
0.0
  3
*D0
  1

  0
LINE
  5
27
  8
0
  6
BYBLOCK
 62
     9
 10
8952.384423
 20
19990.0
 30
0.0
 11
8952.384423
 21
19533.26091
 31
0.0
  0
LINE
  5
28
  8
0
  6
BYBLOCK
 62
     9
 10
7052.384423
 20
19600.0
 30
0.0
 11
7052.384423
 21
19533.26091
 31
0.0
  0
LINE
  5
29
  8
0
  6
BYBLOCK
 62
     9
 10
8932.384423
 20
19534.26091
 30
0.0
 11
8061.884423
 21
19534.26091
 31
0.0
  0
LINE
  5
2A
  8
0
  6
BYBLOCK
 62
     9
 10
7072.384423
 20
19534.26091
 30
0.0
 11
7942.884423
 21
19534.26091
 31
0.0
  0
SOLID
  5
2B
  8
0
  6
BYBLOCK
 62
     9
 10
8932.384423
 20
19537.594243
 30
0.0
 11
8932.384423
 21
19530.927576
 31
0.0
 12
8952.384423
 22
19534.26091
 32
0.0
 13
8952.384423
 23
19534.26091
 33
0.0
  0
SOLID
  5
2C
  8
0
  6
BYBLOCK
 62
     9
 10
7072.384423
 20
19537.594243
 30
0.0
 11
7072.384423
 21
19530.927576
 31
0.0
 12
7052.384423
 22
19534.26091
 32
0.0
 13
7052.384423
 23
19534.26091
 33
0.0
  0
TEXT
  5
2D
  8
0
  6
BYBLOCK
 62
    11
 10
7949.884423
 20
19516.76091
 30
0.0
 40
35.0
  1
1900
  0
POINT
  5
2E
  8
DEFPOINTS
  6
BYBLOCK
 62
     0
 10
8952.384423
 20
20000.0
 30
0.0
  0
POINT
  5
30
  8
DEFPOINTS
  6
BYBLOCK
 62
     0
 10
7052.384423
 20
19610.0
 30
0.0
  0
POINT
  5
31
  8
DEFPOINTS
  6
BYBLOCK
 62
     0
 10
7052.384423
 20
19534.26091
 30
0.0
  0
ENDBLK
  5
33
  8
0
  0
BLOCK
  8
0
  2
*D1
 70
     1
 10
0.0
 20
0.0
 30
0.0
  3
*D1
  1

  0
LINE
  5
41
  8
0
  6
BYBLOCK
 62
     9
 10
7052.384423
 20
19600.0
 30
0.0
 11
7008.211087
 21
19600.0
 31
0.0
  0
LINE
  5
42
  8
0
  6
BYBLOCK
 62
     9
 10
7052.384423
 20
20400.0
 30
0.0
 11
7008.211087
 21
20400.0
 31
0.0
  0
LINE
  5
43
  8
0
  6
BYBLOCK
 62
     9
 10
7009.211087
 20
19620.0
 30
0.0
 11
7009.211087
 21
19952.166667
 31
0.0
  0
LINE
  5
44
  8
0
  6
BYBLOCK
 62
     9
 10
7009.211087
 20
20380.0
 30
0.0
 11
7009.211087
 21
20047.833333
 31
0.0
  0
SOLID
  5
45
  8
0
  6
BYBLOCK
 62
     9
 10
7005.877754
 20
19620.0
 30
0.0
 11
7012.54442
 21
19620.0
 31
0.0
 12
7009.211087
 22
19600.0
 32
0.0
 13
7009.211087
 23
19600.0
 33
0.0
  0
SOLID
  5
46
  8
0
  6
BYBLOCK
 62
     9
 10
7005.877754
 20
20380.0
 30
0.0
 11
7012.54442
 21
20380.0
 31
0.0
 12
7009.211087
 22
20400.0
 32
0.0
 13
7009.211087
 23
20400.0
 33
0.0
  0
TEXT
  5
47
  8
0
  6
BYBLOCK
 62
    11
 10
7026.711087
 20
19959.166667
 30
0.0
 40
35.0
  1
800
 50
90.0
  0
POINT
  5
48
  8
DEFPOINTS
  6
BYBLOCK
 62
     0
 10
7062.384423
 20
19600.0
 30
0.0
  0
POINT
  5
49
  8
DEFPOINTS
  6
BYBLOCK
 62
     0
 10
7062.384423
 20
20400.0
 30
0.0
  0
POINT
  5
4A
  8
DEFPOINTS
  6
BYBLOCK
 62
     0
 10
7009.211087
 20
20400.0
 30
0.0
  0
ENDBLK
  5
4C
  8
0
  0
BLOCK
  8
0
  2
*D2
 70
     1
 10
0.0
 20
0.0
 30
0.0
  3
*D2
  1

  0
LINE
  5
73
  8
0
  6
BYBLOCK
 62
     9
 10
8952.384423
 20
19600.0
 30
0.0
 11
8987.401821
 21
19600.0
 31
0.0
  0
LINE
  5
74
  8
0
  6
BYBLOCK
 62
     9
 10
8977.854272
 20
20000.0
 30
0.0
 11
8987.401821
 21
20000.0
 31
0.0
  0
LINE
  5
75
  8
0
  6
BYBLOCK
 62
     9
 10
8986.401821
 20
19620.0
 30
0.0
 11
8986.401821
 21
19752.166667
 31
0.0
  0
LINE
  5
76
  8
0
  6
BYBLOCK
 62
     9
 10
8986.401821
 20
19980.0
 30
0.0
 11
8986.401821
 21
19847.833333
 31
0.0
  0
SOLID
  5
77
  8
0
  6
BYBLOCK
 62
     9
 10
8983.068488
 20
19620.0
 30
0.0
 11
8989.735154
 21
19620.0
 31
0.0
 12
8986.401821
 22
19600.0
 32
0.0
 13
8986.401821
 23
19600.0
 33
0.0
  0
SOLID
  5
78
  8
0
  6
BYBLOCK
 62
     9
 10
8983.068488
 20
19980.0
 30
0.0
 11
8989.735154
 21
19980.0
 31
0.0
 12
8986.401821
 22
20000.0
 32
0.0
 13
8986.401821
 23
20000.0
 33
0.0
  0
TEXT
  5
79
  8
0
  6
BYBLOCK
 62
    11
 10
9003.901821
 20
19759.166667
 30
0.0
 40
35.0
  1
400
 50
90.0
  0
POINT
  5
7A
  8
DEFPOINTS
  6
BYBLOCK
 62
     0
 10
8942.384423
 20
19600.0
 30
0.0
  0
POINT
  5
7B
  8
DEFPOINTS
  6
BYBLOCK
 62
     0
 10
8967.854272
 20
20000.0
 30
0.0
  0
POINT
  5
7C
  8
DEFPOINTS
  6
BYBLOCK
 62
     0
 10
8986.401821
 20
20000.0
 30
0.0
  0
ENDBLK
  5
7E
  8
0
  0
BLOCK
  8
0
  2
*D3
 70
     1
 10
0.0
 20
0.0
 30
0.0
  3
*D3
  1

  0
LINE
  5
60
  8
0
  6
BYBLOCK
 62
     9
 10
8952.384423
 20
19990.0
 30
0.0
 11
8952.384423
 21
19564.90542
 31
0.0
  0
LINE
  5
61
  8
0
  6
BYBLOCK
 62
     9
 10
8672.384423
 20
19990.0
 30
0.0
 11
8672.384423
 21
19564.90542
 31
0.0
  0
LINE
  5
62
  8
0
  6
BYBLOCK
 62
     9
 10
8932.384423
 20
19565.90542
 30
0.0
 11
8863.134423
 21
19565.90542
 31
0.0
  0
LINE
  5
63
  8
0
  6
BYBLOCK
 62
     9
 10
8692.384423
 20
19565.90542
 30
0.0
 11
8761.634423
 21
19565.90542
 31
0.0
  0
SOLID
  5
64
  8
0
  6
BYBLOCK
 62
     9
 10
8932.384423
 20
19569.238753
 30
0.0
 11
8932.384423
 21
19562.572086
 31
0.0
 12
8952.384423
 22
19565.90542
 32
0.0
 13
8952.384423
 23
19565.90542
 33
0.0
  0
SOLID
  5
65
  8
0
  6
BYBLOCK
 62
     9
 10
8692.384423
 20
19569.238753
 30
0.0
 11
8692.384423
 21
19562.572086
 31
0.0
 12
8672.384423
 22
19565.90542
 32
0.0
 13
8672.384423
 23
19565.90542
 33
0.0
  0
TEXT
  5
66
  8
0
  6
BYBLOCK
 62
    11
 10
8768.634423
 20
19548.40542
 30
0.0
 40
35.0
  1
280
  0
POINT
  5
67
  8
DEFPOINTS
  6
BYBLOCK
 62
     0
 10
8952.384423
 20
20000.0
 30
0.0
  0
POINT
  5
68
  8
DEFPOINTS
  6
BYBLOCK
 62
     0
 10
8672.384423
 20
20000.0
 30
0.0
  0
POINT
  5
69
  8
DEFPOINTS
  6
BYBLOCK
 62
     0
 10
8672.384423
 20
19565.90542
 30
0.0
  0
ENDBLK
  5
6B
  8
0
  0
ENDSEC
  0
SECTION
  2
ENTITIES
  0
LINE
  5
20
  8
TEAM-AXE
 10
-967.854272
 20
0.0
 30
0.0
 11
967.854272
 21
0.0
 31
0.0
  0
LINE
  5
23
  8
TEAM-BODY
 10
942.384423
 20
-400.0
 30
0.0
 11
-937.615577
 21
-400.0
 31
0.0
  0
DIMENSION
  5
25
  8
TEAM-MAS
  2
*D0
 10
-947.615577
 20
-465.73909
 30
0.0
 11
2.384423
 21
-465.73909
 31
0.0
 12
-8000.0
 22
-20000.0
 32
0.0
 13
952.384423
 23
0.0
 33
0.0
 14
-947.615577
 24
-390.0
 34
0.0
1001
ACAD
1000
DSTYLE
1002
{
1070
    40
1040
1.0
1002
}
  0
LINE
  5
34
  8
TEAM-DET1
 10
827.386003
 20
-299.999536
 30
0.0
 11
-822.613997
 21
-299.999536
 31
0.0
  0
LINE
  5
36
  8
TEAM-BODY
 10
697.116231
 20
-233.225822
 30
0.0
 11
-692.35306
 21
-233.225822
 31
0.0
  0
LINE
  5
37
  8
TEAM-BODY
 10
-937.615577
 20
400.0
 30
0.0
 11
942.384423
 21
400.0
 31
0.0
  0
LINE
  5
38
  8
TEAM-DET1
 10
-822.613997
 20
300.000464
 30
0.0
 11
827.386003
 21
300.000464
 31
0.0
  0
LINE
  5
39
  8
TEAM-BODY
 10
697.116231
 20
233.22675
 30
0.0
 11
-692.35306
 21
233.22675
 31
0.0
  0
TEXT
  5
3A
  8
TEAM-TXT
 10
-925.516172
 20
344.271702
 30
0.0
 40
30.0
  1
team 121070
 41
0.8
 51
15.0
  7
TEAM
  0
LINE
  5
3D
  8
TEAM-BODY
 10
-772.35306
 20
-153.225822
 30
0.0
 11
-772.35306
 21
153.22675
 31
0.0
  0
LINE
  5
3E
  8
TEAM-DET1
 10
-847.613997
 20
275.000464
 30
0.0
 11
-847.613997
 21
-274.999536
 31
0.0
  0
DIMENSION
  5
3F
  8
TEAM-MAS
  2
*D1
 10
-990.788913
 20
400.0
 30
0.0
 11
-990.788913
 21
0.0
 31
0.0
 12
-8000.0
 22
-20000.0
 32
0.0
 13
-937.615577
 23
-400.0
 33
0.0
 14
-937.615577
 24
400.0
 34
0.0
 50
90.0
1001
ACAD
1000
DSTYLE
1002
{
1070
    40
1040
1.0
1002
}
  0
LINE
  5
4D
  8
TEAM-BODY
 10
-947.615577
 20
390.0
 30
0.0
 11
-947.615577
 21
-390.0
 31
0.0
  0
ARC
  5
4E
  8
TEAM-DET1
 10
-822.613997
 20
-274.999536
 30
0.0
 40
25.0
 50
180.0
 51
270.0
  0
ARC
  5
4F
  8
TEAM-BODY
 10
-937.615577
 20
-390.0
 30
0.0
 40
10.0
 50
180.0
 51
270.0
  0
ARC
  5
50
  8
TEAM-BODY
 10
-692.35306
 20
-153.225822
 30
0.0
 40
80.0
 50
180.0
 51
270.0
  0
ARC
  5
51
  8
TEAM-DET1
 10
-822.613997
 20
275.000464
 30
0.0
 40
25.0
 50
90.0
 51
180.0
  0
ARC
  5
52
  8
TEAM-BODY
 10
-937.615577
 20
390.0
 30
0.0
 40
10.0
 50
90.0
 51
180.0
  0
ARC
  5
53
  8
TEAM-BODY
 10
-692.35306
 20
153.22675
 30
0.0
 40
80.0
 50
90.0
 51
180.0
  0
LINE
  5
54
  8
TEAM-BODY
 10
952.384423
 20
390.0
 30
0.0
 11
952.384423
 21
-390.0
 31
0.0
  0
LINE
  5
55
  8
TEAM-DET1
 10
852.386003
 20
275.000464
 30
0.0
 11
852.386003
 21
-274.999536
 31
0.0
  0
LINE
  5
56
  8
TEAM-BODY
 10
777.116231
 20
-153.225822
 30
0.0
 11
777.116231
 21
153.22675
 31
0.0
  0
ARC
  5
57
  8
TEAM-BODY
 10
942.384423
 20
-390.0
 30
0.0
 40
10.0
 50
270.0
 51
0.0
  0
ARC
  5
58
  8
TEAM-DET1
 10
827.386003
 20
-274.999536
 30
0.0
 40
25.0
 50
270.0
 51
0.0
  0
POLYLINE
  5
59
  8
TEAM-DET1
 66
     1
 10
0.0
 20
0.0
 30
0.0
 70
     1
  0
VERTEX
  5
10A
  8
TEAM-DET1
 10
833.502891
 20
23.966352
 30
0.0
  0
VERTEX
  5
10B
  8
TEAM-DET1
 10
832.603393
 20
23.646248
 30
0.0
  0
VERTEX
  5
10C
  8
TEAM-DET1
 10
831.726043
 20
22.693821
 30
0.0
  0
VERTEX
  5
10D
  8
TEAM-DET1
 10
830.892445
 20
21.132521
 30
0.0
  0
VERTEX
  5
10E
  8
TEAM-DET1
 10
830.123125
 20
19.000793
 30
0.0
  0
VERTEX
  5
10F
  8
TEAM-DET1
 10
829.437027
 20
16.351128
 30
0.0
  0
VERTEX
  5
110
  8
TEAM-DET1
 10
828.851043
 20
13.248768
 30
0.0
  0
VERTEX
  5
111
  8
TEAM-DET1
 10
828.379603
 20
9.770105
 30
0.0
  0
VERTEX
  5
112
  8
TEAM-DET1
 10
828.034316
 20
6.000793
 30
0.0
  0
VERTEX
  5
113
  8
TEAM-DET1
 10
827.823683
 20
2.033648
 30
0.0
  0
VERTEX
  5
114
  8
TEAM-DET1
 10
827.752891
 20
-2.033648
 30
0.0
  0
VERTEX
  5
115
  8
TEAM-DET1
 10
827.823683
 20
-6.100944
 30
0.0
  0
VERTEX
  5
116
  8
TEAM-DET1
 10
828.034316
 20
-10.06809
 30
0.0
  0
VERTEX
  5
117
  8
TEAM-DET1
 10
828.379603
 20
-13.837401
 30
0.0
  0
VERTEX
  5
118
  8
TEAM-DET1
 10
828.851043
 20
-17.316065
 30
0.0
  0
VERTEX
  5
119
  8
TEAM-DET1
 10
829.437027
 20
-20.418425
 30
0.0
  0
VERTEX
  5
11A
  8
TEAM-DET1
 10
830.123125
 20
-23.06809
 30
0.0
  0
VERTEX
  5
11B
  8
TEAM-DET1
 10
830.892445
 20
-25.199818
 30
0.0
  0
VERTEX
  5
11C
  8
TEAM-DET1
 10
831.726043
 20
-26.761118
 30
0.0
  0
VERTEX
  5
11D
  8
TEAM-DET1
 10
832.603393
 20
-27.713545
 30
0.0
  0
VERTEX
  5
11E
  8
TEAM-DET1
 10
833.502891
 20
-28.033648
 30
0.0
  0
VERTEX
  5
11F
  8
TEAM-DET1
 10
834.402389
 20
-27.713545
 30
0.0
  0
VERTEX
  5
120
  8
TEAM-DET1
 10
835.279738
 20
-26.761118
 30
0.0
  0
VERTEX
  5
121
  8
TEAM-DET1
 10
836.113336
 20
-25.199818
 30
0.0
  0
VERTEX
  5
122
  8
TEAM-DET1
 10
836.882656
 20
-23.06809
 30
0.0
  0
VERTEX
  5
123
  8
TEAM-DET1
 10
837.568755
 20
-20.418425
 30
0.0
  0
VERTEX
  5
124
  8
TEAM-DET1
 10
838.154738
 20
-17.316065
 30
0.0
  0
VERTEX
  5
125
  8
TEAM-DET1
 10
838.626178
 20
-13.837401
 30
0.0
  0
VERTEX
  5
126
  8
TEAM-DET1
 10
838.971466
 20
-10.06809
 30
0.0
  0
VERTEX
  5
127
  8
TEAM-DET1
 10
839.182099
 20
-6.100944
 30
0.0
  0
VERTEX
  5
128
  8
TEAM-DET1
 10
839.252891
 20
-2.033648
 30
0.0
  0
VERTEX
  5
129
  8
TEAM-DET1
 10
839.182099
 20
2.033648
 30
0.0
  0
VERTEX
  5
12A
  8
TEAM-DET1
 10
838.971466
 20
6.000793
 30
0.0
  0
VERTEX
  5
12B
  8
TEAM-DET1
 10
838.626178
 20
9.770105
 30
0.0
  0
VERTEX
  5
12C
  8
TEAM-DET1
 10
838.154738
 20
13.248768
 30
0.0
  0
VERTEX
  5
12D
  8
TEAM-DET1
 10
837.568755
 20
16.351128
 30
0.0
  0
VERTEX
  5
12E
  8
TEAM-DET1
 10
836.882656
 20
19.000793
 30
0.0
  0
VERTEX
  5
12F
  8
TEAM-DET1
 10
836.113336
 20
21.132521
 30
0.0
  0
VERTEX
  5
130
  8
TEAM-DET1
 10
835.279738
 20
22.693821
 30
0.0
  0
VERTEX
  5
131
  8
TEAM-DET1
 10
834.402389
 20
23.646248
 30
0.0
  0
SEQEND
  5
132
  8
TEAM-DET1
  0
ARC
  5
5A
  8
TEAM-BODY
 10
697.116231
 20
-153.225822
 30
0.0
 40
80.0
 50
270.0
 51
0.0
  0
CIRCLE
  5
5B
  8
TEAM-DET1
 10
672.384423
 20
0.0
 30
0.0
 40
52.0
  0
CIRCLE
  5
5C
  8
TEAM-DET3
 10
672.384423
 20
0.0
 30
0.0
 40
26.0
  0
DIMENSION
  5
5E
  8
TEAM-MAS
  2
*D3
 10
672.384423
 20
-434.09458
 30
0.0
 11
812.384423
 21
-434.09458
 31
0.0
 12
-8000.0
 22
-20000.0
 32
0.0
 13
952.384423
 23
0.0
 33
0.0
 14
672.384423
 24
0.0
 34
0.0
1001
ACAD
1000
DSTYLE
1002
{
1070
    40
1040
1.0
1002
}
  0
ARC
  5
6C
  8
TEAM-BODY
 10
942.384423
 20
390.0
 30
0.0
 40
10.0
 50
0.0
 51
90.0
  0
ARC
  5
6D
  8
TEAM-DET1
 10
827.386003
 20
275.000464
 30
0.0
 40
25.0
 50
0.0
 51
90.0
  0
ARC
  5
6E
  8
TEAM-BODY
 10
697.116231
 20
153.22675
 30
0.0
 40
80.0
 50
0.0
 51
90.0
  0
CIRCLE
  5
6F
  8
TEAM-INSP
 10
0.0
 20
0.0
 30
0.0
 40
10.0
  0
DIMENSION
  5
71
  8
TEAM-MAS
  2
*D2
 10
986.401821
 20
0.0
 30
0.0
 11
986.401821
 21
-200.0
 31
0.0
 12
-8000.0
 22
-20000.0
 32
0.0
 13
942.384423
 23
-400.0
 33
0.0
 14
967.854272
 24
0.0
 34
0.0
 50
90.0
1001
ACAD
1000
DSTYLE
1002
{
1070
    78
1070
     0
1070
    40
1040
1.0
1002
}
  0
ENDSEC
  0
EOF
