  0
SECTION
  2
HEADER
  9
$ACADVER
  1
AC1009
  9
$INSBASE
 10
0.0
 20
0.0
 30
0.0
  9
$EXTMIN
 10
-401.256412
 20
-10.020126
 30
-0.001526
  9
$EXTMAX
 10
495.02688
 20
649.554719
 30
0.0
  9
$LIMMIN
 10
-401.256412
 20
-10.020126
  9
$LIMMAX
 10
495.02688
 20
649.554719
  9
$ORTHOMODE
 70
     1
  9
$REGENMODE
 70
     1
  9
$FILLMODE
 70
     1
  9
$QTEXTMODE
 70
     0
  9
$MIRRTEXT
 70
     0
  9
$DRAGMODE
 70
     2
  9
$LTSCALE
 40
50.0
  9
$OSMODE
 70
     7
  9
$ATTMODE
 70
     1
  9
$TEXTSIZE
 40
200.0
  9
$TRACEWID
 40
1.0
  9
$TEXTSTYLE
  7
STANDARD
  9
$CLAYER
  8
TEAM-MAS
  9
$CELTYPE
  6
BYLAYER
  9
$CECOLOR
 62
   256
  9
$DIMSCALE
 40
0.0
  9
$DIMASZ
 40
20.0
  9
$DIMEXO
 40
10.0
  9
$DIMDLI
 40
1.0
  9
$DIMRND
 40
0.0
  9
$DIMDLE
 40
0.0
  9
$DIMEXE
 40
1.0
  9
$DIMTP
 40
0.0
  9
$DIMTM
 40
0.0
  9
$DIMTXT
 40
35.0
  9
$DIMCEN
 40
1.0
  9
$DIMTSZ
 40
0.0
  9
$DIMTOL
 70
     0
  9
$DIMLIM
 70
     0
  9
$DIMTIH
 70
     0
  9
$DIMTOH
 70
     0
  9
$DIMSE1
 70
     0
  9
$DIMSE2
 70
     0
  9
$DIMTAD
 70
     0
  9
$DIMZIN
 70
     0
  9
$DIMBLK
  1

  9
$DIMASO
 70
     1
  9
$DIMSHO
 70
     0
  9
$DIMPOST
  1

  9
$DIMAPOST
  1

  9
$DIMALT
 70
     0
  9
$DIMALTD
 70
     2
  9
$DIMALTF
 40
25.4
  9
$DIMLFAC
 40
1.0
  9
$DIMTOFL
 70
     0
  9
$DIMTVP
 40
0.0
  9
$DIMTIX
 70
     0
  9
$DIMSOXD
 70
     0
  9
$DIMSAH
 70
     0
  9
$DIMBLK1
  1

  9
$DIMBLK2
  1

  9
$DIMSTYLE
  2
TEAM
  9
$DIMCLRD
 70
     9
  9
$DIMCLRE
 70
     9
  9
$DIMCLRT
 70
    11
  9
$DIMTFAC
 40
1.0
  9
$DIMGAP
 40
7.0
  9
$LUNITS
 70
     2
  9
$LUPREC
 70
     1
  9
$SKETCHINC
 40
1.0
  9
$FILLETRAD
 40
9.5
  9
$AUNITS
 70
     0
  9
$AUPREC
 70
     0
  9
$MENU
  1
ROPLANS
  9
$ELEVATION
 40
0.0
  9
$PELEVATION
 40
0.0
  9
$THICKNESS
 40
0.0
  9
$LIMCHECK
 70
     0
  9
$BLIPMODE
 70
     1
  9
$CHAMFERA
 40
0.0
  9
$CHAMFERB
 40
0.0
  9
$SKPOLY
 70
     0
  9
$TDCREATE
 40
2450392.957851
  9
$TDUPDATE
 40
2455944.717343
  9
$TDINDWG
 40
3.569992
  9
$TDUSRTIMER
 40
3.569992
  9
$USRTIMER
 70
     1
  9
$ANGBASE
 50
0.0
  9
$ANGDIR
 70
     0
  9
$PDMODE
 70
     0
  9
$PDSIZE
 40
0.0
  9
$PLINEWID
 40
0.0
  9
$COORDS
 70
     2
  9
$SPLFRAME
 70
     0
  9
$SPLINETYPE
 70
     6
  9
$SPLINESEGS
 70
     8
  9
$ATTDIA
 70
     0
  9
$ATTREQ
 70
     0
  9
$HANDLING
 70
     1
  9
$HANDSEED
  5
9E
  9
$SURFTAB1
 70
    24
  9
$SURFTAB2
 70
    24
  9
$SURFTYPE
 70
     6
  9
$SURFU
 70
     6
  9
$SURFV
 70
     6
  9
$UCSNAME
  2

  9
$UCSORG
 10
0.0
 20
0.0
 30
0.0
  9
$UCSXDIR
 10
1.0
 20
0.0
 30
0.0
  9
$UCSYDIR
 10
0.0
 20
1.0
 30
0.0
  9
$PUCSNAME
  2

  9
$PUCSORG
 10
0.0
 20
0.0
 30
0.0
  9
$PUCSXDIR
 10
1.0
 20
0.0
 30
0.0
  9
$PUCSYDIR
 10
0.0
 20
1.0
 30
0.0
  9
$USERI1
 70
     0
  9
$USERI2
 70
     0
  9
$USERI3
 70
     0
  9
$USERI4
 70
     0
  9
$USERI5
 70
     0
  9
$USERR1
 40
0.0
  9
$USERR2
 40
0.0
  9
$USERR3
 40
0.0
  9
$USERR4
 40
0.0
  9
$USERR5
 40
0.0
  9
$WORLDVIEW
 70
     1
  9
$SHADEDGE
 70
     0
  9
$SHADEDIF
 70
    70
  9
$TILEMODE
 70
     1
  9
$MAXACTVP
 70
    16
  9
$PLIMCHECK
 70
     0
  9
$PEXTMIN
 10
-0.805942
 20
0.005011
 30
0.0
  9
$PEXTMAX
 10
20.250094
 20
11.356329
 30
0.0
  9
$PLIMMIN
 10
0.0
 20
0.0
  9
$PLIMMAX
 10
12.0
 20
9.0
  9
$UNITMODE
 70
     0
  9
$VISRETAIN
 70
     0
  9
$PLINEGEN
 70
     0
  9
$PSLTSCALE
 70
     0
  0
ENDSEC
  0
SECTION
  2
TABLES
  0
TABLE
  2
VPORT
 70
     2
  0
VPORT
  2
*ACTIVE
 70
     0
 10
0.0
 20
0.0
 11
1.0
 21
1.0
 12
46.885234
 22
319.767297
 13
0.0
 23
0.0
 14
1.0
 24
1.0
 15
50.0
 25
50.0
 16
0.0
 26
0.0
 36
1.0
 17
0.0
 27
0.0
 37
0.0
 40
663.710111
 41
1.903766
 42
50.0
 43
0.0
 44
0.0
 50
0.0
 51
0.0
 71
     0
 72
   100
 73
     1
 74
     1
 75
     0
 76
     0
 77
     0
 78
     0
  0
ENDTAB
  0
TABLE
  2
LTYPE
 70
     1
  0
LTYPE
  2
CONTINUOUS
 70
     0
  3
Solid Line
 72
    65
 73
     0
 40
0.0
  0
ENDTAB
  0
TABLE
  2
LAYER
 70
     7
  0
LAYER
  2
0
 70
     0
 62
     7
  6
CONTINUOUS
  0
LAYER
  2
DEFPOINTS
 70
     0
 62
     7
  6
CONTINUOUS
  0
LAYER
  2
TEAM-BODY
 70
     0
 62
     2
  6
CONTINUOUS
  0
LAYER
  2
TEAM-MAS
 70
     0
 62
     9
  6
CONTINUOUS
  0
LAYER
  2
TEAM-TXT
 70
     0
 62
    11
  6
CONTINUOUS
  0
LAYER
  2
TEAM-KAN
 70
     0
 62
     6
  6
CONTINUOUS
  0
LAYER
  2
TEAM-INSP
 70
     0
 62
     5
  6
CONTINUOUS
  0
ENDTAB
  0
TABLE
  2
STYLE
 70
     2
  0
STYLE
  2
STANDARD
 70
     0
 40
0.0
 41
1.0
 50
0.0
 71
     0
 42
200.0
  3
txt
  4

  0
STYLE
  2
TEAM
 70
     0
 40
0.0
 41
0.8
 50
15.0
 71
     0
 42
7.0
  3
ROMANS.shx
  4

  0
ENDTAB
  0
TABLE
  2
VIEW
 70
     0
  0
ENDTAB
  0
TABLE
  2
UCS
 70
     0
  0
ENDTAB
  0
TABLE
  2
APPID
 70
     1
  0
APPID
  2
ACAD
 70
     0
  0
ENDTAB
  0
TABLE
  2
DIMSTYLE
 70
     1
  0
DIMSTYLE
  2
TEAM
 70
     0
  3

  4

  5

  6

  7

 40
0.0
 41
20.0
 42
10.0
 43
1.0
 44
1.0
 45
0.0
 46
0.0
 47
0.0
 48
0.0
140
35.0
141
1.0
142
0.0
143
25.4
144
1.0
145
0.0
146
1.0
147
7.0
 71
     0
 72
     0
 73
     0
 74
     0
 75
     0
 76
     0
 77
     0
 78
     0
170
     0
171
     2
172
     0
173
     0
174
     0
175
     0
176
     9
177
     9
178
    11
  0
ENDTAB
  0
ENDSEC
  0
SECTION
  2
BLOCKS
  0
BLOCK
  8
0
  2
$MODEL_SPACE
 70
     0
 10
0.0
 20
0.0
 30
0.0
  3
$MODEL_SPACE
  1

  0
ENDBLK
  5
97
  8
0
  0
BLOCK
 67
     1
  8
0
  2
$PAPER_SPACE
 70
     0
 10
0.0
 20
0.0
 30
0.0
  3
$PAPER_SPACE
  1

  0
ENDBLK
  5
95
 67
     1
  8
0
  0
BLOCK
  8
0
  2
*D0
 70
     1
 10
0.0
 20
0.0
 30
0.0
  3
*D0
  1

  0
LINE
  5
31
  8
0
  6
BYBLOCK
 62
     9
 10
12404.000006
 20
20600.0
 30
0.0
 11
12478.499564
 21
20600.0
 31
0.0
  0
LINE
  5
32
  8
0
  6
BYBLOCK
 62
     9
 10
12010.0
 20
20000.0
 30
0.0
 11
12478.499564
 21
20000.0
 31
0.0
  0
LINE
  5
33
  8
0
  6
BYBLOCK
 62
     9
 10
12477.499564
 20
20580.0
 30
0.0
 11
12477.499564
 21
20347.833333
 31
0.0
  0
LINE
  5
34
  8
0
  6
BYBLOCK
 62
     9
 10
12477.499564
 20
20020.0
 30
0.0
 11
12477.499564
 21
20252.166667
 31
0.0
  0
SOLID
  5
35
  8
0
  6
BYBLOCK
 62
     9
 10
12474.166231
 20
20580.0
 30
0.0
 11
12480.832898
 21
20580.0
 31
0.0
 12
12477.499564
 22
20600.0
 32
0.0
 13
12477.499564
 23
20600.0
 33
0.0
  0
SOLID
  5
36
  8
0
  6
BYBLOCK
 62
     9
 10
12474.166231
 20
20020.0
 30
0.0
 11
12480.832898
 21
20020.0
 31
0.0
 12
12477.499564
 22
20000.0
 32
0.0
 13
12477.499564
 23
20000.0
 33
0.0
  0
TEXT
  5
37
  8
0
  6
BYBLOCK
 62
    11
 10
12494.999564
 20
20259.166667
 30
0.0
 40
35.0
  1
600
 50
90.0
  0
POINT
  5
38
  8
DEFPOINTS
  6
BYBLOCK
 62
     0
 10
12394.000006
 20
20600.0
 30
0.0
  0
POINT
  5
39
  8
DEFPOINTS
  6
BYBLOCK
 62
     0
 10
12000.0
 20
20000.0
 30
0.0
  0
POINT
  5
3A
  8
DEFPOINTS
  6
BYBLOCK
 62
     0
 10
12477.499564
 20
20000.0
 30
0.0
  0
ENDBLK
  5
3C
  8
0
  0
BLOCK
  8
0
  2
*D1
 70
     1
 10
0.0
 20
0.0
 30
0.0
  3
*D1
  1

  0
LINE
  5
22
  8
0
  6
BYBLOCK
 62
     9
 10
12404.000006
 20
20600.0
 30
0.0
 11
12432.126701
 21
20600.0
 31
0.0
  0
LINE
  5
23
  8
0
  6
BYBLOCK
 62
     9
 10
12035.825
 20
20119.999994
 30
0.0
 11
12432.126701
 21
20119.999994
 31
0.0
  0
LINE
  5
24
  8
0
  6
BYBLOCK
 62
     9
 10
12431.126701
 20
20580.0
 30
0.0
 11
12431.126701
 21
20410.749997
 31
0.0
  0
LINE
  5
25
  8
0
  6
BYBLOCK
 62
     9
 10
12431.126701
 20
20139.999994
 30
0.0
 11
12431.126701
 21
20309.249997
 31
0.0
  0
SOLID
  5
26
  8
0
  6
BYBLOCK
 62
     9
 10
12427.793367
 20
20580.0
 30
0.0
 11
12434.460034
 21
20580.0
 31
0.0
 12
12431.126701
 22
20600.0
 32
0.0
 13
12431.126701
 23
20600.0
 33
0.0
  0
SOLID
  5
27
  8
0
  6
BYBLOCK
 62
     9
 10
12427.793367
 20
20139.999994
 30
0.0
 11
12434.460034
 21
20139.999994
 31
0.0
 12
12431.126701
 22
20119.999994
 32
0.0
 13
12431.126701
 23
20119.999994
 33
0.0
  0
TEXT
  5
28
  8
0
  6
BYBLOCK
 62
    11
 10
12448.626701
 20
20316.249997
 30
0.0
 40
35.0
  1
480
 50
90.0
  0
POINT
  5
29
  8
DEFPOINTS
  6
BYBLOCK
 62
     0
 10
12394.000006
 20
20600.0
 30
0.0
  0
POINT
  5
2B
  8
DEFPOINTS
  6
BYBLOCK
 62
     0
 10
12025.825
 20
20119.999994
 30
0.0
  0
POINT
  5
2C
  8
DEFPOINTS
  6
BYBLOCK
 62
     0
 10
12431.126701
 20
20119.999994
 30
0.0
  0
ENDBLK
  5
2E
  8
0
  0
BLOCK
  8
0
  2
*D2
 70
     1
 10
0.0
 20
0.0
 30
0.0
  3
*D2
  1

  0
LINE
  5
3F
  8
0
  6
BYBLOCK
 62
     9
 10
12400.000006
 20
20604.0
 30
0.0
 11
12400.000006
 21
20633.03459
 31
0.0
  0
LINE
  5
40
  8
0
  6
BYBLOCK
 62
     9
 10
11599.999994
 20
20604.0
 30
0.0
 11
11599.999994
 21
20633.03459
 31
0.0
  0
LINE
  5
41
  8
0
  6
BYBLOCK
 62
     9
 10
12380.000006
 20
20632.03459
 30
0.0
 11
12047.833333
 21
20632.03459
 31
0.0
  0
LINE
  5
42
  8
0
  6
BYBLOCK
 62
     9
 10
11619.999994
 20
20632.03459
 30
0.0
 11
11952.166667
 21
20632.03459
 31
0.0
  0
SOLID
  5
43
  8
0
  6
BYBLOCK
 62
     9
 10
12380.000006
 20
20635.367924
 30
0.0
 11
12380.000006
 21
20628.701257
 31
0.0
 12
12400.000006
 22
20632.03459
 32
0.0
 13
12400.000006
 23
20632.03459
 33
0.0
  0
SOLID
  5
44
  8
0
  6
BYBLOCK
 62
     9
 10
11619.999994
 20
20635.367924
 30
0.0
 11
11619.999994
 21
20628.701257
 31
0.0
 12
11599.999994
 22
20632.03459
 32
0.0
 13
11599.999994
 23
20632.03459
 33
0.0
  0
TEXT
  5
45
  8
0
  6
BYBLOCK
 62
    11
 10
11959.166667
 20
20614.53459
 30
0.0
 40
35.0
  1
800
  0
POINT
  5
46
  8
DEFPOINTS
  6
BYBLOCK
 62
     0
 10
12400.000006
 20
20594.0
 30
0.0
  0
POINT
  5
47
  8
DEFPOINTS
  6
BYBLOCK
 62
     0
 10
11599.999994
 20
20594.0
 30
0.0
  0
POINT
  5
48
  8
DEFPOINTS
  6
BYBLOCK
 62
     0
 10
11599.999994
 20
20632.03459
 30
0.0
  0
ENDBLK
  5
4A
  8
0
  0
ENDSEC
  0
SECTION
  2
ENTITIES
  0
DIMENSION
  5
20
  8
TEAM-MAS
  2
*D1
 10
431.126701
 20
119.999994
 30
0.0
 11
431.126701
 21
359.999997
 31
0.0
 12
-12000.0
 22
-20000.0
 32
0.0
 13
394.000006
 23
600.0
 33
0.0
 14
25.825
 24
119.999994
 34
0.0
 50
90.0
1001
ACAD
1000
DSTYLE
1002
{
1070
    40
1040
1.0
1002
}
  0
DIMENSION
  5
2F
  8
TEAM-MAS
  2
*D0
 10
477.499564
 20
0.0
 30
0.0
 11
477.499564
 21
300.0
 31
0.0
 12
-12000.0
 22
-20000.0
 32
0.0
 13
394.000006
 23
600.0
 33
0.0
 14
0.0
 24
0.0
 34
0.0
 50
90.0
1001
ACAD
1000
DSTYLE
1002
{
1070
    40
1040
1.0
1002
}
  0
DIMENSION
  5
3D
  8
TEAM-MAS
  2
*D2
 10
-400.000006
 20
632.03459
 30
0.0
 11
0.0
 21
632.03459
 31
0.0
 12
-12000.0
 22
-20000.0
 32
0.0
 13
400.000006
 23
594.0
 33
0.0
 14
-400.000006
 24
594.0
 34
0.0
1001
ACAD
1000
DSTYLE
1002
{
1070
    40
1040
1.0
1002
}
  0
LINE
  5
4B
  8
TEAM-BODY
 10
394.000006
 20
568.0
 30
0.0
 11
-394.000006
 21
568.0
 31
0.0
  0
LINE
  5
4D
  8
TEAM-BODY
 10
-394.000006
 20
600.0
 30
0.0
 11
394.000006
 21
600.0
 31
0.0
  0
ARC
  5
4E
  8
TEAM-BODY
 10
45.535686
 20
1243.134243
 30
0.0
 40
1112.357877
 50
269.932401
 51
276.500289
  0
TEXT
  5
4F
  8
TEAM-TXT
 10
-289.687372
 20
515.75601
 30
0.0
 40
30.0
  1
team 121070
 41
0.8
 51
15.0
  7
TEAM
  0
ARC
  5
52
  8
TEAM-BODY
 10
-45.525797
 20
1243.3084
 30
0.0
 40
1112.532034
 50
263.500221
 51
270.067594
  0
LINE
  5
53
  8
TEAM-BODY
 10
-400.000006
 20
594.0
 30
0.0
 11
-400.000006
 21
574.0
 31
0.0
  0
ARC
  5
54
  8
TEAM-BODY
 10
-394.000006
 20
594.0
 30
0.0
 40
6.0
 50
90.0
 51
180.0
  0
ARC
  5
55
  8
TEAM-BODY
 10
-394.000006
 20
574.0
 30
0.0
 40
6.0
 50
180.0
 51
270.0
  0
ARC
  5
56
  8
TEAM-BODY
 10
5004.703699
 20
1086.969057
 30
0.0
 40
5326.520312
 50
185.591264
 51
189.557327
  0
ARC
  5
57
  8
TEAM-BODY
 10
-169.370003
 20
217.899995
 30
0.0
 40
80.000001
 50
191.0378
 51
268.5003
  0
ARC
  5
58
  8
TEAM-KAN
 10
63.592999
 20
233.918269
 30
0.0
 40
149.19883
 50
223.733092
 51
227.646248
  0
LINE
  5
5A
  8
TEAM-BODY
 10
-44.213302
 20
130.77714
 30
0.0
 11
44.223302
 21
130.77714
 31
0.0
  0
ARC
  5
5B
  8
TEAM-KAN
 10
-29.252097
 20
129.85104
 30
0.0
 40
9.851212
 50
218.907319
 51
270.33208
  0
ARC
  5
5C
  8
TEAM-KAN
 10
-26.986376
 20
205.429586
 30
0.0
 40
103.168823
 50
307.573074
 51
313.647904
  0
ARC
  5
5D
  8
TEAM-KAN
 10
29.195
 20
127.999994
 30
0.0
 40
8.0
 50
270.0
 51
327.179
  0
LINE
  5
5E
  8
TEAM-KAN
 10
-25.825
 20
119.999994
 30
0.0
 11
-25.825
 21
122.999994
 31
0.0
  0
LINE
  5
5F
  8
TEAM-KAN
 10
25.825
 20
119.999994
 30
0.0
 11
25.825
 21
122.999994
 31
0.0
  0
LINE
  5
60
  8
TEAM-KAN
 10
29.195
 20
119.999994
 30
0.0
 11
-29.195
 21
119.999994
 31
0.0
  0
CIRCLE
  5
61
  8
TEAM-INSP
 10
0.0
 20
0.0
 30
0.0
 40
10.0
  0
ARC
  5
63
  8
TEAM-BODY
 10
394.000006
 20
594.0
 30
0.0
 40
6.0
 50
0.0
 51
90.0
  0
ARC
  5
64
  8
TEAM-BODY
 10
394.000006
 20
574.0
 30
0.0
 40
6.0
 50
270.0
 51
0.0
  0
LINE
  5
65
  8
TEAM-BODY
 10
400.000006
 20
594.0
 30
0.0
 11
400.000006
 21
574.0
 31
0.0
  0
ARC
  5
66
  8
TEAM-BODY
 10
-5004.703699
 20
1086.969057
 30
0.0
 40
5326.520312
 50
350.442673
 51
354.408736
  0
ARC
  5
67
  8
TEAM-BODY
 10
169.370003
 20
217.899995
 30
0.0
 40
80.000001
 50
271.4997
 51
348.9622
  0
ENDSEC
  0
EOF
