  0
SECTION
  2
HEADER
  9
$ACADVER
  1
AC1009
  9
$INSBASE
 10
0.0
 20
0.0
 30
0.0
  9
$EXTMIN
 10
-1102.139329
 20
-10.020108
 30
-0.001526
  9
$EXTMAX
 10
847.328123
 20
648.954711
 30
0.0
  9
$LIMMIN
 10
-1102.139329
 20
-10.020108
  9
$LIMMAX
 10
847.328123
 20
648.954711
  9
$ORTHOMODE
 70
     1
  9
$REGENMODE
 70
     1
  9
$FILLMODE
 70
     1
  9
$QTEXTMODE
 70
     0
  9
$MIRRTEXT
 70
     0
  9
$DRAGMODE
 70
     2
  9
$LTSCALE
 40
50.0
  9
$OSMODE
 70
     7
  9
$ATTMODE
 70
     1
  9
$TEXTSIZE
 40
200.0
  9
$TRACEWID
 40
1.0
  9
$TEXTSTYLE
  7
STANDARD
  9
$CLAYER
  8
TEAM-MAS
  9
$CELTYPE
  6
BYLAYER
  9
$CECOLOR
 62
   256
  9
$DIMSCALE
 40
0.0
  9
$DIMASZ
 40
20.0
  9
$DIMEXO
 40
10.0
  9
$DIMDLI
 40
1.0
  9
$DIMRND
 40
0.0
  9
$DIMDLE
 40
0.0
  9
$DIMEXE
 40
1.0
  9
$DIMTP
 40
0.0
  9
$DIMTM
 40
0.0
  9
$DIMTXT
 40
35.0
  9
$DIMCEN
 40
1.0
  9
$DIMTSZ
 40
0.0
  9
$DIMTOL
 70
     0
  9
$DIMLIM
 70
     0
  9
$DIMTIH
 70
     0
  9
$DIMTOH
 70
     0
  9
$DIMSE1
 70
     0
  9
$DIMSE2
 70
     0
  9
$DIMTAD
 70
     0
  9
$DIMZIN
 70
     0
  9
$DIMBLK
  1

  9
$DIMASO
 70
     1
  9
$DIMSHO
 70
     0
  9
$DIMPOST
  1

  9
$DIMAPOST
  1

  9
$DIMALT
 70
     0
  9
$DIMALTD
 70
     2
  9
$DIMALTF
 40
25.4
  9
$DIMLFAC
 40
1.0
  9
$DIMTOFL
 70
     0
  9
$DIMTVP
 40
0.0
  9
$DIMTIX
 70
     0
  9
$DIMSOXD
 70
     0
  9
$DIMSAH
 70
     0
  9
$DIMBLK1
  1

  9
$DIMBLK2
  1

  9
$DIMSTYLE
  2
TEAM
  9
$DIMCLRD
 70
     9
  9
$DIMCLRE
 70
     9
  9
$DIMCLRT
 70
    11
  9
$DIMTFAC
 40
1.0
  9
$DIMGAP
 40
7.0
  9
$LUNITS
 70
     2
  9
$LUPREC
 70
     1
  9
$SKETCHINC
 40
1.0
  9
$FILLETRAD
 40
9.5
  9
$AUNITS
 70
     0
  9
$AUPREC
 70
     0
  9
$MENU
  1
ROPLANS
  9
$ELEVATION
 40
0.0
  9
$PELEVATION
 40
0.0
  9
$THICKNESS
 40
0.0
  9
$LIMCHECK
 70
     0
  9
$BLIPMODE
 70
     1
  9
$CHAMFERA
 40
0.0
  9
$CHAMFERB
 40
0.0
  9
$SKPOLY
 70
     0
  9
$TDCREATE
 40
2450392.957851
  9
$TDUPDATE
 40
2455944.717343
  9
$TDINDWG
 40
3.569992
  9
$TDUSRTIMER
 40
3.569992
  9
$USRTIMER
 70
     1
  9
$ANGBASE
 50
0.0
  9
$ANGDIR
 70
     0
  9
$PDMODE
 70
     0
  9
$PDSIZE
 40
0.0
  9
$PLINEWID
 40
0.0
  9
$COORDS
 70
     2
  9
$SPLFRAME
 70
     0
  9
$SPLINETYPE
 70
     6
  9
$SPLINESEGS
 70
     8
  9
$ATTDIA
 70
     0
  9
$ATTREQ
 70
     0
  9
$HANDLING
 70
     1
  9
$HANDSEED
  5
AC
  9
$SURFTAB1
 70
    24
  9
$SURFTAB2
 70
    24
  9
$SURFTYPE
 70
     6
  9
$SURFU
 70
     6
  9
$SURFV
 70
     6
  9
$UCSNAME
  2

  9
$UCSORG
 10
0.0
 20
0.0
 30
0.0
  9
$UCSXDIR
 10
1.0
 20
0.0
 30
0.0
  9
$UCSYDIR
 10
0.0
 20
1.0
 30
0.0
  9
$PUCSNAME
  2

  9
$PUCSORG
 10
0.0
 20
0.0
 30
0.0
  9
$PUCSXDIR
 10
1.0
 20
0.0
 30
0.0
  9
$PUCSYDIR
 10
0.0
 20
1.0
 30
0.0
  9
$USERI1
 70
     0
  9
$USERI2
 70
     0
  9
$USERI3
 70
     0
  9
$USERI4
 70
     0
  9
$USERI5
 70
     0
  9
$USERR1
 40
0.0
  9
$USERR2
 40
0.0
  9
$USERR3
 40
0.0
  9
$USERR4
 40
0.0
  9
$USERR5
 40
0.0
  9
$WORLDVIEW
 70
     1
  9
$SHADEDGE
 70
     0
  9
$SHADEDIF
 70
    70
  9
$TILEMODE
 70
     1
  9
$MAXACTVP
 70
    16
  9
$PLIMCHECK
 70
     0
  9
$PEXTMIN
 10
-0.805942
 20
0.005011
 30
0.0
  9
$PEXTMAX
 10
20.250094
 20
11.356329
 30
0.0
  9
$PLIMMIN
 10
0.0
 20
0.0
  9
$PLIMMAX
 10
12.0
 20
9.0
  9
$UNITMODE
 70
     0
  9
$VISRETAIN
 70
     0
  9
$PLINEGEN
 70
     0
  9
$PSLTSCALE
 70
     0
  0
ENDSEC
  0
SECTION
  2
TABLES
  0
TABLE
  2
VPORT
 70
     2
  0
VPORT
  2
*ACTIVE
 70
     0
 10
0.0
 20
0.0
 11
1.0
 21
1.0
 12
-127.405603
 22
319.467302
 13
0.0
 23
0.0
 14
1.0
 24
1.0
 15
50.0
 25
50.0
 16
0.0
 26
0.0
 36
1.0
 17
0.0
 27
0.0
 37
0.0
 40
1027.378296
 41
1.903766
 42
50.0
 43
0.0
 44
0.0
 50
0.0
 51
0.0
 71
     0
 72
   100
 73
     1
 74
     1
 75
     0
 76
     0
 77
     0
 78
     0
  0
ENDTAB
  0
TABLE
  2
LTYPE
 70
     2
  0
LTYPE
  2
CONTINUOUS
 70
     0
  3
Solid Line
 72
    65
 73
     0
 40
0.0
  0
LTYPE
  2
31
 70
     0
  3

 72
    65
 73
     4
 40
2.1
 49
1.5
 49
-0.3
 49
0.0
 49
-0.3
  0
ENDTAB
  0
TABLE
  2
LAYER
 70
    10
  0
LAYER
  2
0
 70
     0
 62
     7
  6
CONTINUOUS
  0
LAYER
  2
DEFPOINTS
 70
     0
 62
     7
  6
CONTINUOUS
  0
LAYER
  2
TEAM-BODY
 70
     0
 62
     2
  6
CONTINUOUS
  0
LAYER
  2
TEAM-AXE
 70
     0
 62
    10
  6
31
  0
LAYER
  2
TEAM-MAS
 70
     0
 62
     9
  6
CONTINUOUS
  0
LAYER
  2
TEAM-TXT
 70
     0
 62
    11
  6
CONTINUOUS
  0
LAYER
  2
TEAM-DET1
 70
     0
 62
     4
  6
CONTINUOUS
  0
LAYER
  2
TEAM-KAN
 70
     0
 62
     6
  6
CONTINUOUS
  0
LAYER
  2
TEAM-DET3
 70
     0
 62
    14
  6
CONTINUOUS
  0
LAYER
  2
TEAM-INSP
 70
     0
 62
     5
  6
CONTINUOUS
  0
ENDTAB
  0
TABLE
  2
STYLE
 70
     2
  0
STYLE
  2
STANDARD
 70
     0
 40
0.0
 41
1.0
 50
0.0
 71
     0
 42
200.0
  3
txt
  4

  0
STYLE
  2
TEAM
 70
     0
 40
0.0
 41
0.8
 50
15.0
 71
     0
 42
7.0
  3
ROMANS.shx
  4

  0
ENDTAB
  0
TABLE
  2
VIEW
 70
     0
  0
ENDTAB
  0
TABLE
  2
UCS
 70
     0
  0
ENDTAB
  0
TABLE
  2
APPID
 70
     1
  0
APPID
  2
ACAD
 70
     0
  0
ENDTAB
  0
TABLE
  2
DIMSTYLE
 70
     1
  0
DIMSTYLE
  2
TEAM
 70
     0
  3

  4

  5

  6

  7

 40
0.0
 41
20.0
 42
10.0
 43
1.0
 44
1.0
 45
0.0
 46
0.0
 47
0.0
 48
0.0
140
35.0
141
1.0
142
0.0
143
25.4
144
1.0
145
0.0
146
1.0
147
7.0
 71
     0
 72
     0
 73
     0
 74
     0
 75
     0
 76
     0
 77
     0
 78
     0
170
     0
171
     2
172
     0
173
     0
174
     0
175
     0
176
     9
177
     9
178
    11
  0
ENDTAB
  0
ENDSEC
  0
SECTION
  2
BLOCKS
  0
BLOCK
  8
0
  2
$MODEL_SPACE
 70
     0
 10
0.0
 20
0.0
 30
0.0
  3
$MODEL_SPACE
  1

  0
ENDBLK
  5
A5
  8
0
  0
BLOCK
 67
     1
  8
0
  2
$PAPER_SPACE
 70
     0
 10
0.0
 20
0.0
 30
0.0
  3
$PAPER_SPACE
  1

  0
ENDBLK
  5
A3
 67
     1
  8
0
  0
BLOCK
  8
0
  2
*D0
 70
     1
 10
0.0
 20
0.0
 30
0.0
  3
*D0
  1

  0
LINE
  5
36
  8
0
  6
BYBLOCK
 62
     9
 10
800.0
 20
24580.0
 30
0.0
 11
800.0
 21
24632.434601
 31
0.0
  0
LINE
  5
37
  8
0
  6
BYBLOCK
 62
     9
 10
-1100.0
 20
24580.0
 30
0.0
 11
-1100.0
 21
24632.434601
 31
0.0
  0
LINE
  5
38
  8
0
  6
BYBLOCK
 62
     9
 10
780.0
 20
24631.434601
 30
0.0
 11
-90.5
 21
24631.434601
 31
0.0
  0
LINE
  5
39
  8
0
  6
BYBLOCK
 62
     9
 10
-1080.0
 20
24631.434601
 30
0.0
 11
-209.5
 21
24631.434601
 31
0.0
  0
SOLID
  5
3A
  8
0
  6
BYBLOCK
 62
     9
 10
780.0
 20
24634.767934
 30
0.0
 11
780.0
 21
24628.101267
 31
0.0
 12
800.0
 22
24631.434601
 32
0.0
 13
800.0
 23
24631.434601
 33
0.0
  0
SOLID
  5
3B
  8
0
  6
BYBLOCK
 62
     9
 10
-1080.0
 20
24634.767934
 30
0.0
 11
-1080.0
 21
24628.101267
 31
0.0
 12
-1100.0
 22
24631.434601
 32
0.0
 13
-1100.0
 23
24631.434601
 33
0.0
  0
TEXT
  5
3C
  8
0
  6
BYBLOCK
 62
    11
 10
-202.5
 20
24613.934601
 30
0.0
 40
35.0
  1
1900
  0
POINT
  5
3D
  8
DEFPOINTS
  6
BYBLOCK
 62
     0
 10
800.0
 20
24570.0
 30
0.0
  0
POINT
  5
3E
  8
DEFPOINTS
  6
BYBLOCK
 62
     0
 10
-1100.0
 20
24570.0
 30
0.0
  0
POINT
  5
3F
  8
DEFPOINTS
  6
BYBLOCK
 62
     0
 10
-1100.0
 20
24631.434601
 30
0.0
  0
ENDBLK
  5
41
  8
0
  0
BLOCK
  8
0
  2
*D1
 70
     1
 10
0.0
 20
0.0
 30
0.0
  3
*D1
  1

  0
LINE
  5
26
  8
0
  6
BYBLOCK
 62
     9
 10
545.8
 20
24109.998548
 30
0.0
 11
545.8
 21
24057.835691
 31
0.0
  0
LINE
  5
27
  8
0
  6
BYBLOCK
 62
     9
 10
493.8
 20
24109.998548
 30
0.0
 11
493.8
 21
24057.835691
 31
0.0
  0
LINE
  5
28
  8
0
  6
BYBLOCK
 62
     9
 10
565.8
 20
24058.835691
 30
0.0
 11
585.8
 21
24058.835691
 31
0.0
  0
LINE
  5
29
  8
0
  6
BYBLOCK
 62
     9
 10
473.8
 20
24058.835691
 30
0.0
 11
453.8
 21
24058.835691
 31
0.0
  0
TEXT
  5
2A
  8
0
  6
BYBLOCK
 62
    11
 10
601.598857
 20
24041.335691
 30
0.0
 40
35.0
  1
52
  0
LINE
  5
2B
  8
0
  6
BYBLOCK
 62
     9
 10
545.8
 20
24058.835691
 30
0.0
 11
493.8
 21
24058.835691
 31
0.0
  0
SOLID
  5
2C
  8
0
  6
BYBLOCK
 62
     9
 10
565.8
 20
24062.169024
 30
0.0
 11
565.8
 21
24055.502358
 31
0.0
 12
545.8
 22
24058.835691
 32
0.0
 13
545.8
 23
24058.835691
 33
0.0
  0
SOLID
  5
2D
  8
0
  6
BYBLOCK
 62
     9
 10
473.8
 20
24062.169024
 30
0.0
 11
473.8
 21
24055.502358
 31
0.0
 12
493.8
 22
24058.835691
 32
0.0
 13
493.8
 23
24058.835691
 33
0.0
  0
POINT
  5
2E
  8
DEFPOINTS
  6
BYBLOCK
 62
     0
 10
545.8
 20
24119.998548
 30
0.0
  0
POINT
  5
30
  8
DEFPOINTS
  6
BYBLOCK
 62
     0
 10
493.8
 20
24119.998548
 30
0.0
  0
POINT
  5
31
  8
DEFPOINTS
  6
BYBLOCK
 62
     0
 10
493.8
 20
24058.835691
 30
0.0
  0
ENDBLK
  5
33
  8
0
  0
BLOCK
  8
0
  2
*D2
 70
     1
 10
0.0
 20
0.0
 30
0.0
  3
*D2
  1

  0
LINE
  5
65
  8
0
  6
BYBLOCK
 62
     9
 10
800.0
 20
24600.0
 30
0.0
 11
830.768692
 21
24600.0
 31
0.0
  0
LINE
  5
66
  8
0
  6
BYBLOCK
 62
     9
 10
555.8
 20
24119.998548
 30
0.0
 11
830.768692
 21
24119.998548
 31
0.0
  0
LINE
  5
67
  8
0
  6
BYBLOCK
 62
     9
 10
829.768692
 20
24580.0
 30
0.0
 11
829.768692
 21
24410.749274
 31
0.0
  0
LINE
  5
68
  8
0
  6
BYBLOCK
 62
     9
 10
829.768692
 20
24139.998548
 30
0.0
 11
829.768692
 21
24309.249274
 31
0.0
  0
SOLID
  5
69
  8
0
  6
BYBLOCK
 62
     9
 10
826.435359
 20
24580.0
 30
0.0
 11
833.102026
 21
24580.0
 31
0.0
 12
829.768692
 22
24600.0
 32
0.0
 13
829.768692
 23
24600.0
 33
0.0
  0
SOLID
  5
6A
  8
0
  6
BYBLOCK
 62
     9
 10
826.435359
 20
24139.998548
 30
0.0
 11
833.102026
 21
24139.998548
 31
0.0
 12
829.768692
 22
24119.998548
 32
0.0
 13
829.768692
 23
24119.998548
 33
0.0
  0
TEXT
  5
6B
  8
0
  6
BYBLOCK
 62
    11
 10
847.268692
 20
24316.249274
 30
0.0
 40
35.0
  1
480
 50
90.0
  0
POINT
  5
6C
  8
DEFPOINTS
  6
BYBLOCK
 62
     0
 10
790.0
 20
24600.0
 30
0.0
  0
POINT
  5
6D
  8
DEFPOINTS
  6
BYBLOCK
 62
     0
 10
545.8
 20
24119.998548
 30
0.0
  0
POINT
  5
6E
  8
DEFPOINTS
  6
BYBLOCK
 62
     0
 10
829.768692
 20
24119.998548
 30
0.0
  0
ENDBLK
  5
70
  8
0
  0
ENDSEC
  0
SECTION
  2
ENTITIES
  0
LINE
  5
20
  8
TEAM-BODY
 10
472.468582
 20
137.313496
 30
0.0
 11
567.131418
 21
137.313496
 31
0.0
  0
LINE
  5
22
  8
TEAM-KAN
 10
493.8
 20
119.998548
 30
0.0
 11
545.8
 21
119.998548
 31
0.0
  0
DIMENSION
  5
24
  8
TEAM-MAS
  2
*D1
 10
493.8
 20
58.835691
 30
0.0
 11
630.765524
 21
58.835691
 31
0.0
 12
0.0
 22
-24000.0
 32
0.0
 70
   128
 13
545.8
 23
119.998548
 33
0.0
 14
493.8
 24
119.998548
 34
0.0
1001
ACAD
1000
DSTYLE
1002
{
1070
    78
1070
     0
1070
    40
1040
1.0
1002
}
  0
DIMENSION
  5
34
  8
TEAM-MAS
  2
*D0
 10
-1100.0
 20
631.434601
 30
0.0
 11
-150.0
 21
631.434601
 31
0.0
 12
0.0
 22
-24000.0
 32
0.0
 13
800.0
 23
570.0
 33
0.0
 14
-1100.0
 24
570.0
 34
0.0
1001
ACAD
1000
DSTYLE
1002
{
1070
    78
1070
     0
1070
    40
1040
1.0
1002
}
  0
LINE
  5
42
  8
TEAM-BODY
 10
-1090.0
 20
600.0
 30
0.0
 11
790.0
 21
600.0
 31
0.0
  0
LINE
  5
43
  8
TEAM-KAN
 10
493.8
 20
119.998548
 30
0.0
 11
493.8
 21
124.04
 31
0.0
  0
LINE
  5
44
  8
TEAM-DET1
 10
472.468582
 20
137.313496
 30
0.0
 11
493.8
 21
119.998548
 31
0.0
  0
LINE
  5
46
  8
TEAM-AXE
 10
519.8
 20
104.31826
 30
0.0
 11
519.8
 21
135.678836
 31
0.0
  0
LINE
  5
49
  8
TEAM-DET3
 10
429.772131
 20
115.991145
 30
0.0
 11
452.419806
 21
138.475159
 31
0.0
  0
ARC
  5
4B
  8
TEAM-BODY
 10
-1445.992548
 20
-104.351902
 30
0.0
 40
847.944977
 50
22.479765
 51
54.893744
  0
TEXT
  5
4C
  8
TEAM-TXT
 10
-816.620829
 20
539.007724
 30
0.0
 40
30.0
  1
team 121070
 41
0.8
 51
15.0
  7
TEAM
  0
ARC
  5
4F
  8
TEAM-BODY
 10
-968.270113
 20
588.127542
 30
0.0
 40
10.0
 50
6.968472
 51
89.118742
  0
LINE
  5
50
  8
TEAM-DET3
 10
-537.784883
 20
131.703571
 30
0.0
 11
-563.979624
 21
158.859071
 31
0.0
  0
ARC
  5
51
  8
TEAM-BODY
 10
-525.597136
 20
330.850134
 30
0.0
 40
176.221851
 50
219.035247
 51
257.419695
  0
LINE
  5
52
  8
TEAM-DET3
 10
-537.784883
 20
131.703571
 30
0.0
 11
429.772131
 21
115.991145
 31
0.0
  0
LINE
  5
53
  8
TEAM-BODY
 10
-563.979624
 20
158.859071
 30
0.0
 11
472.468582
 21
137.313496
 31
0.0
  0
CIRCLE
  5
54
  8
TEAM-INSP
 10
0.0
 20
0.0
 30
0.0
 40
10.0
  0
ARC
  5
56
  8
TEAM-BODY
 10
-1090.0
 20
590.0
 30
0.0
 40
10.0
 50
89.118742
 51
180.0
  0
LINE
  5
57
  8
TEAM-BODY
 10
-1100.0
 20
570.0
 30
0.0
 11
-1100.0
 21
590.0
 31
0.0
  0
LINE
  5
58
  8
TEAM-BODY
 10
-968.11631
 20
598.126359
 30
0.0
 11
-1089.846198
 21
599.998817
 31
0.0
  0
LINE
  5
59
  8
TEAM-DET1
 10
-1100.0
 20
570.0
 30
0.0
 11
-930.661691
 21
570.0
 31
0.0
  0
LINE
  5
5A
  8
TEAM-DET1
 10
656.143005
 20
570.0
 30
0.0
 11
800.0
 21
570.0
 31
0.0
  0
LINE
  5
5B
  8
TEAM-BODY
 10
668.11631
 20
598.126359
 30
0.0
 11
789.846197
 21
599.998817
 31
0.0
  0
ARC
  5
5C
  8
TEAM-BODY
 10
668.270112
 20
588.127542
 30
0.0
 40
10.0
 50
90.881258
 51
173.031528
  0
ARC
  5
5D
  8
TEAM-BODY
 10
790.0
 20
590.0
 30
0.0
 40
10.0
 50
0.0
 51
90.881258
  0
LINE
  5
5E
  8
TEAM-BODY
 10
800.0
 20
570.0
 30
0.0
 11
800.0
 21
590.0
 31
0.0
  0
LINE
  5
5F
  8
TEAM-BODY
 10
567.131418
 20
137.313496
 30
0.0
 11
585.816919
 21
146.50151
 31
0.0
  0
ARC
  5
60
  8
TEAM-BODY
 10
527.105736
 20
260.985482
 30
0.0
 40
128.660727
 50
297.150258
 51
339.055422
  0
LINE
  5
61
  8
TEAM-KAN
 10
545.8
 20
119.998548
 30
0.0
 11
545.8
 21
124.04
 31
0.0
  0
LINE
  5
62
  8
TEAM-DET1
 10
545.8
 20
119.998548
 30
0.0
 11
567.131418
 21
137.313496
 31
0.0
  0
DIMENSION
  5
63
  8
TEAM-MAS
  2
*D2
 10
829.768692
 20
119.998548
 30
0.0
 11
829.768692
 21
359.999274
 31
0.0
 12
0.0
 22
-24000.0
 32
0.0
 13
790.0
 23
600.0
 33
0.0
 14
545.8
 24
119.998548
 34
0.0
 50
90.0
1001
ACAD
1000
DSTYLE
1002
{
1070
    40
1040
1.0
1002
}
  0
ARC
  5
71
  8
TEAM-BODY
 10
-2733.108806
 20
502.3713
 30
0.0
 40
3392.567718
 50
355.140769
 51
1.468956
  0
ENDSEC
  0
EOF
