  0
SECTION
  2
HEADER
  9
$ACADVER
  1
AC1009
  9
$INSBASE
 10
0.0
 20
0.0
 30
0.0
  9
$EXTMIN
 10
-850.054463
 20
-456.730391
 30
-0.001526
  9
$EXTMAX
 10
934.826904
 20
375.025384
 30
0.0
  9
$LIMMIN
 10
-850.054463
 20
-456.730391
  9
$LIMMAX
 10
934.826904
 20
375.025384
  9
$ORTHOMODE
 70
     1
  9
$REGENMODE
 70
     1
  9
$FILLMODE
 70
     1
  9
$QTEXTMODE
 70
     0
  9
$MIRRTEXT
 70
     0
  9
$DRAGMODE
 70
     2
  9
$LTSCALE
 40
50.0
  9
$OSMODE
 70
     7
  9
$ATTMODE
 70
     1
  9
$TEXTSIZE
 40
200.0
  9
$TRACEWID
 40
1.0
  9
$TEXTSTYLE
  7
STANDARD
  9
$CLAYER
  8
TEAM-MAS
  9
$CELTYPE
  6
BYLAYER
  9
$CECOLOR
 62
   256
  9
$DIMSCALE
 40
0.0
  9
$DIMASZ
 40
20.0
  9
$DIMEXO
 40
10.0
  9
$DIMDLI
 40
1.0
  9
$DIMRND
 40
0.0
  9
$DIMDLE
 40
0.0
  9
$DIMEXE
 40
1.0
  9
$DIMTP
 40
0.0
  9
$DIMTM
 40
0.0
  9
$DIMTXT
 40
35.0
  9
$DIMCEN
 40
1.0
  9
$DIMTSZ
 40
0.0
  9
$DIMTOL
 70
     0
  9
$DIMLIM
 70
     0
  9
$DIMTIH
 70
     0
  9
$DIMTOH
 70
     0
  9
$DIMSE1
 70
     0
  9
$DIMSE2
 70
     0
  9
$DIMTAD
 70
     0
  9
$DIMZIN
 70
     0
  9
$DIMBLK
  1

  9
$DIMASO
 70
     1
  9
$DIMSHO
 70
     0
  9
$DIMPOST
  1

  9
$DIMAPOST
  1

  9
$DIMALT
 70
     0
  9
$DIMALTD
 70
     2
  9
$DIMALTF
 40
25.4
  9
$DIMLFAC
 40
1.0
  9
$DIMTOFL
 70
     0
  9
$DIMTVP
 40
0.0
  9
$DIMTIX
 70
     0
  9
$DIMSOXD
 70
     0
  9
$DIMSAH
 70
     0
  9
$DIMBLK1
  1

  9
$DIMBLK2
  1

  9
$DIMSTYLE
  2
TEAM
  9
$DIMCLRD
 70
     9
  9
$DIMCLRE
 70
     9
  9
$DIMCLRT
 70
    11
  9
$DIMTFAC
 40
1.0
  9
$DIMGAP
 40
7.0
  9
$LUNITS
 70
     2
  9
$LUPREC
 70
     1
  9
$SKETCHINC
 40
1.0
  9
$FILLETRAD
 40
9.5
  9
$AUNITS
 70
     0
  9
$AUPREC
 70
     0
  9
$MENU
  1
ROPLANS
  9
$ELEVATION
 40
0.0
  9
$PELEVATION
 40
0.0
  9
$THICKNESS
 40
0.0
  9
$LIMCHECK
 70
     0
  9
$BLIPMODE
 70
     1
  9
$CHAMFERA
 40
0.0
  9
$CHAMFERB
 40
0.0
  9
$SKPOLY
 70
     0
  9
$TDCREATE
 40
2450392.957851
  9
$TDUPDATE
 40
2455944.717343
  9
$TDINDWG
 40
3.569992
  9
$TDUSRTIMER
 40
3.569992
  9
$USRTIMER
 70
     1
  9
$ANGBASE
 50
0.0
  9
$ANGDIR
 70
     0
  9
$PDMODE
 70
     0
  9
$PDSIZE
 40
0.0
  9
$PLINEWID
 40
0.0
  9
$COORDS
 70
     2
  9
$SPLFRAME
 70
     0
  9
$SPLINETYPE
 70
     6
  9
$SPLINESEGS
 70
     8
  9
$ATTDIA
 70
     0
  9
$ATTREQ
 70
     0
  9
$HANDLING
 70
     1
  9
$HANDSEED
  5
192
  9
$SURFTAB1
 70
    24
  9
$SURFTAB2
 70
    24
  9
$SURFTYPE
 70
     6
  9
$SURFU
 70
     6
  9
$SURFV
 70
     6
  9
$UCSNAME
  2

  9
$UCSORG
 10
0.0
 20
0.0
 30
0.0
  9
$UCSXDIR
 10
1.0
 20
0.0
 30
0.0
  9
$UCSYDIR
 10
0.0
 20
1.0
 30
0.0
  9
$PUCSNAME
  2

  9
$PUCSORG
 10
0.0
 20
0.0
 30
0.0
  9
$PUCSXDIR
 10
1.0
 20
0.0
 30
0.0
  9
$PUCSYDIR
 10
0.0
 20
1.0
 30
0.0
  9
$USERI1
 70
     0
  9
$USERI2
 70
     0
  9
$USERI3
 70
     0
  9
$USERI4
 70
     0
  9
$USERI5
 70
     0
  9
$USERR1
 40
0.0
  9
$USERR2
 40
0.0
  9
$USERR3
 40
0.0
  9
$USERR4
 40
0.0
  9
$USERR5
 40
0.0
  9
$WORLDVIEW
 70
     1
  9
$SHADEDGE
 70
     0
  9
$SHADEDIF
 70
    70
  9
$TILEMODE
 70
     1
  9
$MAXACTVP
 70
    16
  9
$PLIMCHECK
 70
     0
  9
$PEXTMIN
 10
-0.805942
 20
0.005011
 30
0.0
  9
$PEXTMAX
 10
20.250094
 20
11.356329
 30
0.0
  9
$PLIMMIN
 10
0.0
 20
0.0
  9
$PLIMMAX
 10
12.0
 20
9.0
  9
$UNITMODE
 70
     0
  9
$VISRETAIN
 70
     0
  9
$PLINEGEN
 70
     0
  9
$PSLTSCALE
 70
     0
  0
ENDSEC
  0
SECTION
  2
TABLES
  0
TABLE
  2
VPORT
 70
     2
  0
VPORT
  2
*ACTIVE
 70
     0
 10
0.0
 20
0.0
 11
1.0
 21
1.0
 12
42.386221
 22
-40.852504
 13
0.0
 23
0.0
 14
1.0
 24
1.0
 15
50.0
 25
50.0
 16
0.0
 26
0.0
 36
1.0
 17
0.0
 27
0.0
 37
0.0
 40
940.640674
 41
1.903766
 42
50.0
 43
0.0
 44
0.0
 50
0.0
 51
0.0
 71
     0
 72
   100
 73
     1
 74
     1
 75
     0
 76
     0
 77
     0
 78
     0
  0
ENDTAB
  0
TABLE
  2
LTYPE
 70
     2
  0
LTYPE
  2
CONTINUOUS
 70
     0
  3
Solid Line
 72
    65
 73
     0
 40
0.0
  0
LTYPE
  2
31
 70
     0
  3

 72
    65
 73
     4
 40
2.1
 49
1.5
 49
-0.3
 49
0.0
 49
-0.3
  0
ENDTAB
  0
TABLE
  2
LAYER
 70
     8
  0
LAYER
  2
0
 70
     0
 62
     7
  6
CONTINUOUS
  0
LAYER
  2
DEFPOINTS
 70
     0
 62
     7
  6
CONTINUOUS
  0
LAYER
  2
TEAM-BODY
 70
     0
 62
     2
  6
CONTINUOUS
  0
LAYER
  2
TEAM-AXE
 70
     0
 62
    10
  6
31
  0
LAYER
  2
TEAM-MAS
 70
     0
 62
     9
  6
CONTINUOUS
  0
LAYER
  2
TEAM-TXT
 70
     0
 62
    11
  6
CONTINUOUS
  0
LAYER
  2
TEAM-DET1
 70
     0
 62
     4
  6
CONTINUOUS
  0
LAYER
  2
TEAM-INSP
 70
     0
 62
     5
  6
CONTINUOUS
  0
ENDTAB
  0
TABLE
  2
STYLE
 70
     2
  0
STYLE
  2
STANDARD
 70
     0
 40
0.0
 41
1.0
 50
0.0
 71
     0
 42
200.0
  3
txt
  4

  0
STYLE
  2
TEAM
 70
     0
 40
0.0
 41
0.8
 50
15.0
 71
     0
 42
7.0
  3
ROMANS.shx
  4

  0
ENDTAB
  0
TABLE
  2
VIEW
 70
     0
  0
ENDTAB
  0
TABLE
  2
UCS
 70
     0
  0
ENDTAB
  0
TABLE
  2
APPID
 70
     1
  0
APPID
  2
ACAD
 70
     0
  0
ENDTAB
  0
TABLE
  2
DIMSTYLE
 70
     1
  0
DIMSTYLE
  2
TEAM
 70
     0
  3

  4

  5

  6

  7

 40
0.0
 41
20.0
 42
10.0
 43
1.0
 44
1.0
 45
0.0
 46
0.0
 47
0.0
 48
0.0
140
35.0
141
1.0
142
0.0
143
25.4
144
1.0
145
0.0
146
1.0
147
7.0
 71
     0
 72
     0
 73
     0
 74
     0
 75
     0
 76
     0
 77
     0
 78
     0
170
     0
171
     2
172
     0
173
     0
174
     0
175
     0
176
     9
177
     9
178
    11
  0
ENDTAB
  0
ENDSEC
  0
SECTION
  2
BLOCKS
  0
BLOCK
  8
0
  2
$MODEL_SPACE
 70
     0
 10
0.0
 20
0.0
 30
0.0
  3
$MODEL_SPACE
  1

  0
ENDBLK
  5
13D
  8
0
  0
BLOCK
 67
     1
  8
0
  2
$PAPER_SPACE
 70
     0
 10
0.0
 20
0.0
 30
0.0
  3
$PAPER_SPACE
  1

  0
ENDBLK
  5
13B
 67
     1
  8
0
  0
BLOCK
  8
0
  2
*D0
 70
     1
 10
0.0
 20
0.0
 30
0.0
  3
*D0
  1

  0
LINE
  5
49
  8
0
  6
BYBLOCK
 62
     9
 10
850.0
 20
35615.0
 30
0.0
 11
850.0
 21
35591.417979
 31
0.0
  0
LINE
  5
4A
  8
0
  6
BYBLOCK
 62
     9
 10
95.0
 20
36010.0
 30
0.0
 11
95.0
 21
35591.417979
 31
0.0
  0
LINE
  5
4B
  8
0
  6
BYBLOCK
 62
     9
 10
830.0
 20
35592.417979
 30
0.0
 11
526.166667
 21
35592.417979
 31
0.0
  0
LINE
  5
4C
  8
0
  6
BYBLOCK
 62
     9
 10
115.0
 20
35592.417979
 30
0.0
 11
418.833333
 21
35592.417979
 31
0.0
  0
SOLID
  5
4D
  8
0
  6
BYBLOCK
 62
     9
 10
830.0
 20
35595.751313
 30
0.0
 11
830.0
 21
35589.084646
 31
0.0
 12
850.0
 22
35592.417979
 32
0.0
 13
850.0
 23
35592.417979
 33
0.0
  0
SOLID
  5
4E
  8
0
  6
BYBLOCK
 62
     9
 10
115.0
 20
35595.751313
 30
0.0
 11
115.0
 21
35589.084646
 31
0.0
 12
95.0
 22
35592.417979
 32
0.0
 13
95.0
 23
35592.417979
 33
0.0
  0
TEXT
  5
4F
  8
0
  6
BYBLOCK
 62
    11
 10
425.833333
 20
35574.917979
 30
0.0
 40
35.0
  1
755
  0
POINT
  5
50
  8
DEFPOINTS
  6
BYBLOCK
 62
     0
 10
850.0
 20
35625.0
 30
0.0
  0
POINT
  5
51
  8
DEFPOINTS
  6
BYBLOCK
 62
     0
 10
95.0
 20
36020.0
 30
0.0
  0
POINT
  5
52
  8
DEFPOINTS
  6
BYBLOCK
 62
     0
 10
95.0
 20
35592.417979
 30
0.0
  0
ENDBLK
  5
54
  8
0
  0
BLOCK
  8
0
  2
*D1
 70
     1
 10
0.0
 20
0.0
 30
0.0
  3
*D1
  1

  0
LINE
  5
3B
  8
0
  6
BYBLOCK
 62
     9
 10
180.0
 20
36040.0
 30
0.0
 11
882.551798
 21
36040.0
 31
0.0
  0
LINE
  5
3C
  8
0
  6
BYBLOCK
 62
     9
 10
860.0
 20
36375.0
 30
0.0
 11
882.551798
 21
36375.0
 31
0.0
  0
LINE
  5
3D
  8
0
  6
BYBLOCK
 62
     9
 10
881.551798
 20
36060.0
 30
0.0
 11
881.551798
 21
36153.833333
 31
0.0
  0
LINE
  5
3E
  8
0
  6
BYBLOCK
 62
     9
 10
881.551798
 20
36355.0
 30
0.0
 11
881.551798
 21
36261.166667
 31
0.0
  0
SOLID
  5
3F
  8
0
  6
BYBLOCK
 62
     9
 10
878.218465
 20
36060.0
 30
0.0
 11
884.885131
 21
36060.0
 31
0.0
 12
881.551798
 22
36040.0
 32
0.0
 13
881.551798
 23
36040.0
 33
0.0
  0
SOLID
  5
40
  8
0
  6
BYBLOCK
 62
     9
 10
878.218465
 20
36355.0
 30
0.0
 11
884.885131
 21
36355.0
 31
0.0
 12
881.551798
 22
36375.0
 32
0.0
 13
881.551798
 23
36375.0
 33
0.0
  0
TEXT
  5
41
  8
0
  6
BYBLOCK
 62
    11
 10
899.051798
 20
36160.833333
 30
0.0
 40
35.0
  1
335
 50
90.0
  0
POINT
  5
42
  8
DEFPOINTS
  6
BYBLOCK
 62
     0
 10
170.0
 20
36040.0
 30
0.0
  0
POINT
  5
43
  8
DEFPOINTS
  6
BYBLOCK
 62
     0
 10
850.0
 20
36375.0
 30
0.0
  0
POINT
  5
44
  8
DEFPOINTS
  6
BYBLOCK
 62
     0
 10
881.551798
 20
36375.0
 30
0.0
  0
ENDBLK
  5
46
  8
0
  0
BLOCK
  8
0
  2
*D2
 70
     1
 10
0.0
 20
0.0
 30
0.0
  3
*D2
  1

  0
LINE
  5
22
  8
0
  6
BYBLOCK
 62
     9
 10
850.0
 20
35615.0
 30
0.0
 11
850.0
 21
35559.794989
 31
0.0
  0
LINE
  5
23
  8
0
  6
BYBLOCK
 62
     9
 10
-850.0
 20
35615.0
 30
0.0
 11
-850.0
 21
35559.794989
 31
0.0
  0
LINE
  5
24
  8
0
  6
BYBLOCK
 62
     9
 10
830.0
 20
35560.794989
 30
0.0
 11
59.5
 21
35560.794989
 31
0.0
  0
LINE
  5
25
  8
0
  6
BYBLOCK
 62
     9
 10
-830.0
 20
35560.794989
 30
0.0
 11
-59.5
 21
35560.794989
 31
0.0
  0
SOLID
  5
26
  8
0
  6
BYBLOCK
 62
     9
 10
830.0
 20
35564.128322
 30
0.0
 11
830.0
 21
35557.461656
 31
0.0
 12
850.0
 22
35560.794989
 32
0.0
 13
850.0
 23
35560.794989
 33
0.0
  0
SOLID
  5
27
  8
0
  6
BYBLOCK
 62
     9
 10
-830.0
 20
35564.128322
 30
0.0
 11
-830.0
 21
35557.461656
 31
0.0
 12
-850.0
 22
35560.794989
 32
0.0
 13
-850.0
 23
35560.794989
 33
0.0
  0
TEXT
  5
28
  8
0
  6
BYBLOCK
 62
    11
 10
-52.5
 20
35543.294989
 30
0.0
 40
35.0
  1
1700
  0
POINT
  5
29
  8
DEFPOINTS
  6
BYBLOCK
 62
     0
 10
850.0
 20
35625.0
 30
0.0
  0
POINT
  5
2B
  8
DEFPOINTS
  6
BYBLOCK
 62
     0
 10
-850.0
 20
35625.0
 30
0.0
  0
POINT
  5
2C
  8
DEFPOINTS
  6
BYBLOCK
 62
     0
 10
-850.0
 20
35560.794989
 30
0.0
  0
ENDBLK
  5
2E
  8
0
  0
BLOCK
  8
0
  2
*D3
 70
     1
 10
0.0
 20
0.0
 30
0.0
  3
*D3
  1

  0
LINE
  5
62
  8
0
  6
BYBLOCK
 62
     9
 10
860.0
 20
35625.0
 30
0.0
 11
918.272433
 21
35625.0
 31
0.0
  0
LINE
  5
63
  8
0
  6
BYBLOCK
 62
     9
 10
860.0
 20
36375.0
 30
0.0
 11
918.272433
 21
36375.0
 31
0.0
  0
LINE
  5
64
  8
0
  6
BYBLOCK
 62
     9
 10
917.272433
 20
35645.0
 30
0.0
 11
917.272433
 21
35949.25
 31
0.0
  0
LINE
  5
65
  8
0
  6
BYBLOCK
 62
     9
 10
917.272433
 20
36355.0
 30
0.0
 11
917.272433
 21
36050.75
 31
0.0
  0
SOLID
  5
66
  8
0
  6
BYBLOCK
 62
     9
 10
913.9391
 20
35645.0
 30
0.0
 11
920.605767
 21
35645.0
 31
0.0
 12
917.272433
 22
35625.0
 32
0.0
 13
917.272433
 23
35625.0
 33
0.0
  0
SOLID
  5
67
  8
0
  6
BYBLOCK
 62
     9
 10
913.9391
 20
36355.0
 30
0.0
 11
920.605767
 21
36355.0
 31
0.0
 12
917.272433
 22
36375.0
 32
0.0
 13
917.272433
 23
36375.0
 33
0.0
  0
TEXT
  5
68
  8
0
  6
BYBLOCK
 62
    11
 10
934.772433
 20
35956.25
 30
0.0
 40
35.0
  1
750
 50
90.0
  0
POINT
  5
69
  8
DEFPOINTS
  6
BYBLOCK
 62
     0
 10
850.0
 20
35625.0
 30
0.0
  0
POINT
  5
6A
  8
DEFPOINTS
  6
BYBLOCK
 62
     0
 10
850.0
 20
36375.0
 30
0.0
  0
POINT
  5
6B
  8
DEFPOINTS
  6
BYBLOCK
 62
     0
 10
917.272433
 20
36375.0
 30
0.0
  0
ENDBLK
  5
6D
  8
0
  0
ENDSEC
  0
SECTION
  2
ENTITIES
  0
DIMENSION
  5
20
  8
TEAM-MAS
  2
*D2
 10
-850.0
 20
-439.205011
 30
0.0
 11
0.0
 21
-439.205011
 31
0.0
 12
0.0
 22
-36000.0
 32
0.0
 13
850.0
 23
-375.0
 33
0.0
 14
-850.0
 24
-375.0
 34
0.0
1001
ACAD
1000
DSTYLE
1002
{
1070
    40
1040
1.0
1002
}
  0
POLYLINE
  5
2F
  8
TEAM-BODY
 66
     1
 10
0.0
 20
0.0
 30
0.0
  0
VERTEX
  5
143
  8
TEAM-BODY
 10
-710.0
 20
0.0
 30
0.0
 42
-0.414214
  0
VERTEX
  5
144
  8
TEAM-BODY
 10
-415.0
 20
295.0
 30
0.0
  0
VERTEX
  5
145
  8
TEAM-BODY
 10
577.046505
 20
295.0
 30
0.0
 42
-0.221127
  0
VERTEX
  5
146
  8
TEAM-BODY
 10
691.744176
 20
241.666667
 30
0.0
 42
-0.176885
  0
VERTEX
  5
147
  8
TEAM-BODY
 10
780.0
 20
0.0
 30
0.0
  0
SEQEND
  5
148
  8
TEAM-BODY
  0
POLYLINE
  5
31
  8
TEAM-BODY
 66
     1
 10
0.0
 20
0.0
 30
0.0
  0
VERTEX
  5
149
  8
TEAM-BODY
 10
-457.5
 20
0.0
 30
0.0
 42
-0.414214
  0
VERTEX
  5
14A
  8
TEAM-BODY
 10
-222.5
 20
235.0
 30
0.0
  0
VERTEX
  5
14B
  8
TEAM-BODY
 10
564.732784
 20
235.0
 30
0.0
 42
-0.170954
  0
VERTEX
  5
14C
  8
TEAM-BODY
 10
647.5
 20
0.0
 30
0.0
  0
SEQEND
  5
14D
  8
TEAM-BODY
  0
POLYLINE
  5
32
  8
TEAM-BODY
 66
     1
 10
0.0
 20
0.0
 30
0.0
  0
VERTEX
  5
14E
  8
TEAM-BODY
 10
850.0
 20
0.0
 30
0.0
  0
VERTEX
  5
14F
  8
TEAM-BODY
 10
850.0
 20
375.0
 30
0.0
  0
VERTEX
  5
150
  8
TEAM-BODY
 10
-850.0
 20
375.0
 30
0.0
  0
VERTEX
  5
151
  8
TEAM-BODY
 10
-850.0
 20
0.0
 30
0.0
  0
SEQEND
  5
152
  8
TEAM-BODY
  0
LINE
  5
33
  8
TEAM-AXE
 10
-850.0
 20
0.0
 30
0.0
 11
850.0
 21
0.0
 31
0.0
  0
POLYLINE
  5
36
  8
TEAM-BODY
 66
     1
 10
0.0
 20
0.0
 30
0.0
  0
VERTEX
  5
153
  8
TEAM-BODY
 10
-457.5
 20
0.0
 30
0.0
 42
0.414214
  0
VERTEX
  5
154
  8
TEAM-BODY
 10
-222.5
 20
-235.0
 30
0.0
  0
VERTEX
  5
155
  8
TEAM-BODY
 10
564.732784
 20
-235.0
 30
0.0
 42
0.170954
  0
VERTEX
  5
156
  8
TEAM-BODY
 10
647.5
 20
0.0
 30
0.0
  0
SEQEND
  5
157
  8
TEAM-BODY
  0
POLYLINE
  5
37
  8
TEAM-BODY
 66
     1
 10
0.0
 20
0.0
 30
0.0
  0
VERTEX
  5
158
  8
TEAM-BODY
 10
-710.0
 20
0.0
 30
0.0
 42
0.414214
  0
VERTEX
  5
159
  8
TEAM-BODY
 10
-415.0
 20
-295.0
 30
0.0
  0
VERTEX
  5
15A
  8
TEAM-BODY
 10
577.046505
 20
-295.0
 30
0.0
 42
0.221127
  0
VERTEX
  5
15B
  8
TEAM-BODY
 10
691.744176
 20
-241.666667
 30
0.0
 42
0.176885
  0
VERTEX
  5
15C
  8
TEAM-BODY
 10
780.0
 20
0.0
 30
0.0
  0
SEQEND
  5
15D
  8
TEAM-BODY
  0
POLYLINE
  5
38
  8
TEAM-BODY
 66
     1
 10
0.0
 20
0.0
 30
0.0
  0
VERTEX
  5
15E
  8
TEAM-BODY
 10
850.0
 20
0.0
 30
0.0
  0
VERTEX
  5
15F
  8
TEAM-BODY
 10
850.0
 20
-375.0
 30
0.0
  0
VERTEX
  5
160
  8
TEAM-BODY
 10
-850.0
 20
-375.0
 30
0.0
  0
VERTEX
  5
161
  8
TEAM-BODY
 10
-850.0
 20
0.0
 30
0.0
  0
SEQEND
  5
162
  8
TEAM-BODY
  0
DIMENSION
  5
39
  8
TEAM-MAS
  2
*D1
 10
881.551798
 20
375.0
 30
0.0
 11
881.551798
 21
207.5
 31
0.0
 12
0.0
 22
-36000.0
 32
0.0
 13
170.0
 23
40.0
 33
0.0
 14
850.0
 24
375.0
 34
0.0
 50
90.0
1001
ACAD
1000
DSTYLE
1002
{
1070
    78
1070
     0
1070
    40
1040
1.0
1002
}
  0
DIMENSION
  5
47
  8
TEAM-MAS
  2
*D0
 10
95.0
 20
-407.582021
 30
0.0
 11
472.5
 21
-407.582021
 31
0.0
 12
0.0
 22
-36000.0
 32
0.0
 13
850.0
 23
-375.0
 33
0.0
 14
95.0
 24
20.0
 34
0.0
1001
ACAD
1000
DSTYLE
1002
{
1070
    40
1040
1.0
1002
}
  0
LINE
  5
55
  8
TEAM-BODY
 10
-850.0
 20
295.0
 30
0.0
 11
-415.0
 21
295.0
 31
0.0
  0
LINE
  5
56
  8
TEAM-AXE
 10
20.0
 20
40.0
 30
0.0
 11
170.0
 21
40.0
 31
0.0
  0
POLYLINE
  5
57
  8
TEAM-BODY
 66
     1
 10
0.0
 20
0.0
 30
0.0
 70
     1
  0
VERTEX
  5
163
  8
TEAM-BODY
 10
20.0
 20
-35.0
 30
0.0
  0
VERTEX
  5
164
  8
TEAM-BODY
 10
170.0
 20
-35.0
 30
0.0
  0
VERTEX
  5
165
  8
TEAM-BODY
 10
170.0
 20
115.0
 30
0.0
  0
VERTEX
  5
166
  8
TEAM-BODY
 10
20.0
 20
115.0
 30
0.0
  0
SEQEND
  5
167
  8
TEAM-BODY
  0
TEXT
  5
58
  8
TEAM-TXT
 10
-264.671266
 20
149.1957
 30
0.0
 40
30.0
  1
team 121075
 41
0.8
 51
15.0
  7
TEAM
  0
POLYLINE
  5
5B
  8
TEAM-DET1
 66
     1
 10
0.0
 20
0.0
 30
0.0
 70
     1
  0
VERTEX
  5
168
  8
TEAM-DET1
 10
121.0
 20
284.177799
 30
0.0
  0
VERTEX
  5
169
  8
TEAM-DET1
 10
120.679896
 20
285.077297
 30
0.0
  0
VERTEX
  5
16A
  8
TEAM-DET1
 10
119.727469
 20
285.954647
 30
0.0
  0
VERTEX
  5
16B
  8
TEAM-DET1
 10
118.166169
 20
286.788245
 30
0.0
  0
VERTEX
  5
16C
  8
TEAM-DET1
 10
116.034441
 20
287.557565
 30
0.0
  0
VERTEX
  5
16D
  8
TEAM-DET1
 10
113.384776
 20
288.243663
 30
0.0
  0
VERTEX
  5
16E
  8
TEAM-DET1
 10
110.282416
 20
288.829647
 30
0.0
  0
VERTEX
  5
16F
  8
TEAM-DET1
 10
106.803753
 20
289.301087
 30
0.0
  0
VERTEX
  5
170
  8
TEAM-DET1
 10
103.034441
 20
289.646374
 30
0.0
  0
VERTEX
  5
171
  8
TEAM-DET1
 10
99.067296
 20
289.857007
 30
0.0
  0
VERTEX
  5
172
  8
TEAM-DET1
 10
95.0
 20
289.927799
 30
0.0
  0
VERTEX
  5
173
  8
TEAM-DET1
 10
90.932704
 20
289.857007
 30
0.0
  0
VERTEX
  5
174
  8
TEAM-DET1
 10
86.965558
 20
289.646374
 30
0.0
  0
VERTEX
  5
175
  8
TEAM-DET1
 10
83.196247
 20
289.301087
 30
0.0
  0
VERTEX
  5
176
  8
TEAM-DET1
 10
79.717583
 20
288.829647
 30
0.0
  0
VERTEX
  5
177
  8
TEAM-DET1
 10
76.615223
 20
288.243663
 30
0.0
  0
VERTEX
  5
178
  8
TEAM-DET1
 10
73.965558
 20
287.557565
 30
0.0
  0
VERTEX
  5
179
  8
TEAM-DET1
 10
71.83383
 20
286.788245
 30
0.0
  0
VERTEX
  5
17A
  8
TEAM-DET1
 10
70.27253
 20
285.954647
 30
0.0
  0
VERTEX
  5
17B
  8
TEAM-DET1
 10
69.320103
 20
285.077297
 30
0.0
  0
VERTEX
  5
17C
  8
TEAM-DET1
 10
69.0
 20
284.177799
 30
0.0
  0
VERTEX
  5
17D
  8
TEAM-DET1
 10
69.320103
 20
283.278301
 30
0.0
  0
VERTEX
  5
17E
  8
TEAM-DET1
 10
70.27253
 20
282.400952
 30
0.0
  0
VERTEX
  5
17F
  8
TEAM-DET1
 10
71.83383
 20
281.567354
 30
0.0
  0
VERTEX
  5
180
  8
TEAM-DET1
 10
73.965558
 20
280.798034
 30
0.0
  0
VERTEX
  5
181
  8
TEAM-DET1
 10
76.615223
 20
280.111935
 30
0.0
  0
VERTEX
  5
182
  8
TEAM-DET1
 10
79.717583
 20
279.525952
 30
0.0
  0
VERTEX
  5
183
  8
TEAM-DET1
 10
83.196247
 20
279.054512
 30
0.0
  0
VERTEX
  5
184
  8
TEAM-DET1
 10
86.965558
 20
278.709224
 30
0.0
  0
VERTEX
  5
185
  8
TEAM-DET1
 10
90.932704
 20
278.498591
 30
0.0
  0
VERTEX
  5
186
  8
TEAM-DET1
 10
95.0
 20
278.427799
 30
0.0
  0
VERTEX
  5
187
  8
TEAM-DET1
 10
99.067296
 20
278.498591
 30
0.0
  0
VERTEX
  5
188
  8
TEAM-DET1
 10
103.034441
 20
278.709224
 30
0.0
  0
VERTEX
  5
189
  8
TEAM-DET1
 10
106.803753
 20
279.054512
 30
0.0
  0
VERTEX
  5
18A
  8
TEAM-DET1
 10
110.282416
 20
279.525952
 30
0.0
  0
VERTEX
  5
18B
  8
TEAM-DET1
 10
113.384776
 20
280.111935
 30
0.0
  0
VERTEX
  5
18C
  8
TEAM-DET1
 10
116.034441
 20
280.798034
 30
0.0
  0
VERTEX
  5
18D
  8
TEAM-DET1
 10
118.166169
 20
281.567354
 30
0.0
  0
VERTEX
  5
18E
  8
TEAM-DET1
 10
119.727469
 20
282.400952
 30
0.0
  0
VERTEX
  5
18F
  8
TEAM-DET1
 10
120.679896
 20
283.278301
 30
0.0
  0
SEQEND
  5
190
  8
TEAM-DET1
  0
CIRCLE
  5
5D
  8
TEAM-INSP
 10
0.0
 20
0.0
 30
0.0
 40
10.0
  0
LINE
  5
5F
  8
TEAM-AXE
 10
95.0
 20
-375.0
 30
0.0
 11
95.0
 21
375.0
 31
0.0
  0
DIMENSION
  5
60
  8
TEAM-MAS
  2
*D3
 10
917.272433
 20
375.0
 30
0.0
 11
917.272433
 21
0.0
 31
0.0
 12
0.0
 22
-36000.0
 32
0.0
 13
850.0
 23
-375.0
 33
0.0
 14
850.0
 24
375.0
 34
0.0
 50
90.0
1001
ACAD
1000
DSTYLE
1002
{
1070
    40
1040
1.0
1002
}
  0
LINE
  5
6E
  8
TEAM-BODY
 10
577.046505
 20
-295.0
 30
0.0
 11
850.0
 21
-295.0
 31
0.0
  0
ENDSEC
  0
EOF
