  0
SECTION
  2
HEADER
  9
$ACADVER
  1
AC1009
  9
$INSBASE
 10
0.0
 20
0.0
 30
0.0
  9
$EXTMIN
 10
-376.301584
 20
-10.050337
 30
0.0
  9
$EXTMAX
 10
483.539467
 20
653.747601
 30
0.000005
  9
$LIMMIN
 10
-376.301584
 20
-10.050337
  9
$LIMMAX
 10
483.539467
 20
653.747601
  9
$ORTHOMODE
 70
     1
  9
$REGENMODE
 70
     1
  9
$FILLMODE
 70
     1
  9
$QTEXTMODE
 70
     0
  9
$MIRRTEXT
 70
     0
  9
$DRAGMODE
 70
     2
  9
$LTSCALE
 40
50.0
  9
$OSMODE
 70
     7
  9
$ATTMODE
 70
     1
  9
$TEXTSIZE
 40
200.0
  9
$TRACEWID
 40
1.0
  9
$TEXTSTYLE
  7
STANDARD
  9
$CLAYER
  8
TEAM-MAS
  9
$CELTYPE
  6
BYLAYER
  9
$CECOLOR
 62
   256
  9
$DIMSCALE
 40
1.0
  9
$DIMASZ
 40
20.0
  9
$DIMEXO
 40
10.0
  9
$DIMDLI
 40
1.0
  9
$DIMRND
 40
0.0
  9
$DIMDLE
 40
0.0
  9
$DIMEXE
 40
1.0
  9
$DIMTP
 40
0.0
  9
$DIMTM
 40
0.0
  9
$DIMTXT
 40
35.0
  9
$DIMCEN
 40
1.0
  9
$DIMTSZ
 40
0.0
  9
$DIMTOL
 70
     0
  9
$DIMLIM
 70
     0
  9
$DIMTIH
 70
     0
  9
$DIMTOH
 70
     0
  9
$DIMSE1
 70
     0
  9
$DIMSE2
 70
     0
  9
$DIMTAD
 70
     0
  9
$DIMZIN
 70
     0
  9
$DIMBLK
  1

  9
$DIMASO
 70
     1
  9
$DIMSHO
 70
     0
  9
$DIMPOST
  1

  9
$DIMAPOST
  1

  9
$DIMALT
 70
     0
  9
$DIMALTD
 70
     2
  9
$DIMALTF
 40
25.4
  9
$DIMLFAC
 40
1.0
  9
$DIMTOFL
 70
     0
  9
$DIMTVP
 40
0.0
  9
$DIMTIX
 70
     0
  9
$DIMSOXD
 70
     0
  9
$DIMSAH
 70
     0
  9
$DIMBLK1
  1

  9
$DIMBLK2
  1

  9
$DIMSTYLE
  2
TEAM
  9
$DIMCLRD
 70
     9
  9
$DIMCLRE
 70
     9
  9
$DIMCLRT
 70
    11
  9
$DIMTFAC
 40
1.0
  9
$DIMGAP
 40
15.0
  9
$LUNITS
 70
     2
  9
$LUPREC
 70
     1
  9
$SKETCHINC
 40
1.0
  9
$FILLETRAD
 40
300.0
  9
$AUNITS
 70
     0
  9
$AUPREC
 70
     0
  9
$MENU
  1
ROPLANS
  9
$ELEVATION
 40
0.0
  9
$PELEVATION
 40
0.0
  9
$THICKNESS
 40
0.0
  9
$LIMCHECK
 70
     0
  9
$BLIPMODE
 70
     1
  9
$CHAMFERA
 40
0.0
  9
$CHAMFERB
 40
0.0
  9
$SKPOLY
 70
     0
  9
$TDCREATE
 40
2450392.957851
  9
$TDUPDATE
 40
2455843.591272
  9
$TDINDWG
 40
2.850297
  9
$TDUSRTIMER
 40
2.850297
  9
$USRTIMER
 70
     1
  9
$ANGBASE
 50
0.0
  9
$ANGDIR
 70
     0
  9
$PDMODE
 70
     0
  9
$PDSIZE
 40
0.0
  9
$PLINEWID
 40
0.0
  9
$COORDS
 70
     2
  9
$SPLFRAME
 70
     0
  9
$SPLINETYPE
 70
     6
  9
$SPLINESEGS
 70
     8
  9
$ATTDIA
 70
     0
  9
$ATTREQ
 70
     0
  9
$HANDLING
 70
     1
  9
$HANDSEED
  5
B2
  9
$SURFTAB1
 70
    64
  9
$SURFTAB2
 70
    64
  9
$SURFTYPE
 70
     6
  9
$SURFU
 70
     6
  9
$SURFV
 70
     6
  9
$UCSNAME
  2

  9
$UCSORG
 10
0.0
 20
0.0
 30
0.0
  9
$UCSXDIR
 10
1.0
 20
0.0
 30
0.0
  9
$UCSYDIR
 10
0.0
 20
1.0
 30
0.0
  9
$PUCSNAME
  2

  9
$PUCSORG
 10
0.0
 20
0.0
 30
0.0
  9
$PUCSXDIR
 10
1.0
 20
0.0
 30
0.0
  9
$PUCSYDIR
 10
0.0
 20
1.0
 30
0.0
  9
$USERI1
 70
     0
  9
$USERI2
 70
     0
  9
$USERI3
 70
     0
  9
$USERI4
 70
     0
  9
$USERI5
 70
     0
  9
$USERR1
 40
0.0
  9
$USERR2
 40
0.0
  9
$USERR3
 40
0.0
  9
$USERR4
 40
0.0
  9
$USERR5
 40
0.0
  9
$WORLDVIEW
 70
     1
  9
$SHADEDGE
 70
     0
  9
$SHADEDIF
 70
    70
  9
$TILEMODE
 70
     1
  9
$MAXACTVP
 70
    16
  9
$PLIMCHECK
 70
     0
  9
$PEXTMIN
 10
-0.805942
 20
0.005011
 30
0.0
  9
$PEXTMAX
 10
20.250094
 20
11.356329
 30
0.0
  9
$PLIMMIN
 10
0.0
 20
0.0
  9
$PLIMMAX
 10
12.0
 20
9.0
  9
$UNITMODE
 70
     0
  9
$VISRETAIN
 70
     0
  9
$PLINEGEN
 70
     0
  9
$PSLTSCALE
 70
     0
  0
ENDSEC
  0
SECTION
  2
TABLES
  0
TABLE
  2
VPORT
 70
     2
  0
VPORT
  2
*ACTIVE
 70
     0
 10
0.0
 20
0.0
 11
1.0
 21
1.0
 12
53.618941
 22
321.848632
 13
0.0
 23
0.0
 14
1.0
 24
1.0
 15
50.0
 25
50.0
 16
0.0
 26
0.0
 36
1.0
 17
0.0
 27
0.0
 37
0.0
 40
667.959681
 41
1.903766
 42
50.0
 43
0.0
 44
0.0
 50
0.0
 51
0.0
 71
     0
 72
   100
 73
     1
 74
     1
 75
     0
 76
     0
 77
     0
 78
     0
  0
ENDTAB
  0
TABLE
  2
LTYPE
 70
     2
  0
LTYPE
  2
CONTINUOUS
 70
     0
  3
Solid Line
 72
    65
 73
     0
 40
0.0
  0
LTYPE
  2
31
 70
     0
  3

 72
    65
 73
     4
 40
2.1
 49
1.5
 49
-0.3
 49
0.0
 49
-0.3
  0
ENDTAB
  0
TABLE
  2
LAYER
 70
     9
  0
LAYER
  2
0
 70
     0
 62
     7
  6
CONTINUOUS
  0
LAYER
  2
DEFPOINTS
 70
     0
 62
     7
  6
CONTINUOUS
  0
LAYER
  2
TEAM-BODY
 70
     0
 62
     2
  6
CONTINUOUS
  0
LAYER
  2
TEAM-AXE
 70
     0
 62
    10
  6
31
  0
LAYER
  2
TEAM-MAS
 70
     0
 62
     9
  6
CONTINUOUS
  0
LAYER
  2
TEAM-TXT
 70
     0
 62
    11
  6
CONTINUOUS
  0
LAYER
  2
TEAM-DET1
 70
     0
 62
     4
  6
CONTINUOUS
  0
LAYER
  2
TEAM-KAN
 70
     0
 62
     6
  6
CONTINUOUS
  0
LAYER
  2
TEAM-INSP
 70
     0
 62
     5
  6
CONTINUOUS
  0
ENDTAB
  0
TABLE
  2
STYLE
 70
     2
  0
STYLE
  2
STANDARD
 70
     0
 40
0.0
 41
1.0
 50
0.0
 71
     0
 42
200.0
  3
txt
  4

  0
STYLE
  2
TEAM
 70
     0
 40
0.0
 41
0.8
 50
15.0
 71
     0
 42
7.0
  3
ROMANS.shx
  4

  0
ENDTAB
  0
TABLE
  2
VIEW
 70
     0
  0
ENDTAB
  0
TABLE
  2
UCS
 70
     0
  0
ENDTAB
  0
TABLE
  2
APPID
 70
     1
  0
APPID
  2
ACAD
 70
     0
  0
ENDTAB
  0
TABLE
  2
DIMSTYLE
 70
     1
  0
DIMSTYLE
  2
TEAM
 70
     0
  3

  4

  5

  6

  7

 40
1.0
 41
20.0
 42
10.0
 43
1.0
 44
1.0
 45
0.0
 46
0.0
 47
0.0
 48
0.0
140
35.0
141
1.0
142
0.0
143
25.4
144
1.0
145
0.0
146
1.0
147
15.0
 71
     0
 72
     0
 73
     0
 74
     0
 75
     0
 76
     0
 77
     0
 78
     0
170
     0
171
     2
172
     0
173
     0
174
     0
175
     0
176
     9
177
     9
178
    11
  0
ENDTAB
  0
ENDSEC
  0
SECTION
  2
BLOCKS
  0
BLOCK
  8
0
  2
$MODEL_SPACE
 70
     0
 10
0.0
 20
0.0
 30
0.0
  3
$MODEL_SPACE
  1

  0
ENDBLK
  5
AB
  8
0
  0
BLOCK
 67
     1
  8
0
  2
$PAPER_SPACE
 70
     0
 10
0.0
 20
0.0
 30
0.0
  3
$PAPER_SPACE
  1

  0
ENDBLK
  5
A9
 67
     1
  8
0
  0
BLOCK
  8
0
  2
*D0
 70
     1
 10
0.0
 20
0.0
 30
0.0
  3
*D0
  1

  0
LINE
  5
32
  8
0
  6
BYBLOCK
 62
     9
 10
8379.0
 20
600.0
 30
0.0
 11
8467.017187
 21
600.0
 31
0.0
  0
LINE
  5
33
  8
0
  6
BYBLOCK
 62
     9
 10
8010.0
 20
0.0
 30
0.0
 11
8467.017187
 21
0.0
 31
0.0
  0
LINE
  5
34
  8
0
  6
BYBLOCK
 62
     9
 10
8466.017187
 20
580.0
 30
0.0
 11
8466.017187
 21
355.833333
 31
0.0
  0
LINE
  5
35
  8
0
  6
BYBLOCK
 62
     9
 10
8466.017187
 20
20.0
 30
0.0
 11
8466.017187
 21
244.166667
 31
0.0
  0
SOLID
  5
36
  8
0
  6
BYBLOCK
 62
     9
 10
8462.683853
 20
580.0
 30
0.0
 11
8469.35052
 21
580.0
 31
0.0
 12
8466.017187
 22
600.0
 32
0.0
 13
8466.017187
 23
600.0
 33
0.0
  0
SOLID
  5
37
  8
0
  6
BYBLOCK
 62
     9
 10
8462.683853
 20
20.0
 30
0.0
 11
8469.35052
 21
20.0
 31
0.0
 12
8466.017187
 22
0.0
 32
0.0
 13
8466.017187
 23
0.0
 33
0.0
  0
TEXT
  5
38
  8
0
  6
BYBLOCK
 62
    11
 10
8483.517187
 20
259.166667
 30
0.0
 40
35.0
  1
600
 50
90.0
  0
POINT
  5
39
  8
DEFPOINTS
  6
BYBLOCK
 62
     0
 10
8369.0
 20
600.0
 30
0.0
  0
POINT
  5
3A
  8
DEFPOINTS
  6
BYBLOCK
 62
     0
 10
8000.0
 20
0.0
 30
0.0
  0
POINT
  5
3B
  8
DEFPOINTS
  6
BYBLOCK
 62
     0
 10
8466.017187
 20
0.0
 30
0.0
  0
ENDBLK
  5
3D
  8
0
  0
BLOCK
  8
0
  2
*D1
 70
     1
 10
0.0
 20
0.0
 30
0.0
  3
*D1
  1

  0
LINE
  5
5F
  8
0
  6
BYBLOCK
 62
     9
 10
8379.505
 20
600.0
 30
0.0
 11
8421.349707
 21
600.0
 31
0.0
  0
LINE
  5
60
  8
0
  6
BYBLOCK
 62
     9
 10
8106.167892
 20
110.0
 30
0.0
 11
8421.349707
 21
110.0
 31
0.0
  0
LINE
  5
61
  8
0
  6
BYBLOCK
 62
     9
 10
8420.349707
 20
580.0
 30
0.0
 11
8420.349707
 21
413.75
 31
0.0
  0
LINE
  5
62
  8
0
  6
BYBLOCK
 62
     9
 10
8420.349707
 20
130.0
 30
0.0
 11
8420.349707
 21
296.25
 31
0.0
  0
SOLID
  5
63
  8
0
  6
BYBLOCK
 62
     9
 10
8417.016374
 20
580.0
 30
0.0
 11
8423.683041
 21
580.0
 31
0.0
 12
8420.349707
 22
600.0
 32
0.0
 13
8420.349707
 23
600.0
 33
0.0
  0
SOLID
  5
64
  8
0
  6
BYBLOCK
 62
     9
 10
8417.016374
 20
130.0
 30
0.0
 11
8423.683041
 21
130.0
 31
0.0
 12
8420.349707
 22
110.0
 32
0.0
 13
8420.349707
 23
110.0
 33
0.0
  0
TEXT
  5
65
  8
0
  6
BYBLOCK
 62
    11
 10
8437.849707
 20
311.25
 30
0.0
 40
35.0
  1
490
 50
90.0
  0
POINT
  5
66
  8
DEFPOINTS
  6
BYBLOCK
 62
     0
 10
8369.505
 20
600.0
 30
0.0
  0
POINT
  5
67
  8
DEFPOINTS
  6
BYBLOCK
 62
     0
 10
8096.167892
 20
110.0
 30
0.0
  0
POINT
  5
68
  8
DEFPOINTS
  6
BYBLOCK
 62
     0
 10
8420.349707
 20
110.0
 30
0.0
  0
ENDBLK
  5
6A
  8
0
  0
BLOCK
  8
0
  2
*D2
 70
     1
 10
0.0
 20
0.0
 30
0.0
  3
*D2
  1

  0
LINE
  5
40
  8
0
  6
BYBLOCK
 62
     9
 10
8375.0
 20
604.0
 30
0.0
 11
8375.0
 21
637.225557
 31
0.0
  0
LINE
  5
41
  8
0
  6
BYBLOCK
 62
     9
 10
7625.0
 20
604.0
 30
0.0
 11
7625.0
 21
637.225557
 31
0.0
  0
LINE
  5
42
  8
0
  6
BYBLOCK
 62
     9
 10
8355.0
 20
636.225557
 30
0.0
 11
8058.75
 21
636.225557
 31
0.0
  0
LINE
  5
43
  8
0
  6
BYBLOCK
 62
     9
 10
7645.0
 20
636.225557
 30
0.0
 11
7941.25
 21
636.225557
 31
0.0
  0
SOLID
  5
44
  8
0
  6
BYBLOCK
 62
     9
 10
8355.0
 20
639.558891
 30
0.0
 11
8355.0
 21
632.892224
 31
0.0
 12
8375.0
 22
636.225557
 32
0.0
 13
8375.0
 23
636.225557
 33
0.0
  0
SOLID
  5
45
  8
0
  6
BYBLOCK
 62
     9
 10
7645.0
 20
639.558891
 30
0.0
 11
7645.0
 21
632.892224
 31
0.0
 12
7625.0
 22
636.225557
 32
0.0
 13
7625.0
 23
636.225557
 33
0.0
  0
TEXT
  5
46
  8
0
  6
BYBLOCK
 62
    11
 10
7956.25
 20
618.725557
 30
0.0
 40
35.0
  1
750
  0
POINT
  5
47
  8
DEFPOINTS
  6
BYBLOCK
 62
     0
 10
8375.0
 20
594.0
 30
0.0
  0
POINT
  5
48
  8
DEFPOINTS
  6
BYBLOCK
 62
     0
 10
7625.0
 20
594.0
 30
0.0
  0
POINT
  5
49
  8
DEFPOINTS
  6
BYBLOCK
 62
     0
 10
7625.0
 20
636.225557
 30
0.0
  0
ENDBLK
  5
4B
  8
0
  0
BLOCK
  8
0
  2
*D3
 70
     1
 10
0.0
 20
0.0
 30
0.0
  3
*D3
  1

  0
LINE
  5
22
  8
0
  6
BYBLOCK
 62
     9
 10
8121.0
 20
72.685052
 30
0.0
 11
8121.0
 21
44.556898
 31
0.0
  0
LINE
  5
23
  8
0
  6
BYBLOCK
 62
     9
 10
8069.0
 20
72.685052
 30
0.0
 11
8069.0
 21
44.556898
 31
0.0
  0
LINE
  5
24
  8
0
  6
BYBLOCK
 62
     9
 10
8141.0
 20
45.556898
 30
0.0
 11
8161.0
 21
45.556898
 31
0.0
  0
LINE
  5
25
  8
0
  6
BYBLOCK
 62
     9
 10
8049.0
 20
45.556898
 30
0.0
 11
8029.0
 21
45.556898
 31
0.0
  0
TEXT
  5
26
  8
0
  6
BYBLOCK
 62
    11
 10
8170.184572
 20
28.528811
 30
0.0
 40
35.0
  1
52
  0
LINE
  5
27
  8
0
  6
BYBLOCK
 62
     9
 10
8121.0
 20
45.556898
 30
0.0
 11
8069.0
 21
45.556898
 31
0.0
  0
SOLID
  5
28
  8
0
  6
BYBLOCK
 62
     9
 10
8141.0
 20
48.890231
 30
0.0
 11
8141.0
 21
42.223565
 31
0.0
 12
8121.0
 22
45.556898
 32
0.0
 13
8121.0
 23
45.556898
 33
0.0
  0
SOLID
  5
29
  8
0
  6
BYBLOCK
 62
     9
 10
8049.0
 20
48.890231
 30
0.0
 11
8049.0
 21
42.223565
 31
0.0
 12
8069.0
 22
45.556898
 32
0.0
 13
8069.0
 23
45.556898
 33
0.0
  0
POINT
  5
2A
  8
DEFPOINTS
  6
BYBLOCK
 62
     0
 10
8121.0
 20
82.685052
 30
0.0
  0
POINT
  5
2C
  8
DEFPOINTS
  6
BYBLOCK
 62
     0
 10
8069.0
 20
82.685052
 30
0.0
  0
POINT
  5
2D
  8
DEFPOINTS
  6
BYBLOCK
 62
     0
 10
8069.0
 20
45.556898
 30
0.0
  0
ENDBLK
  5
2F
  8
0
  0
ENDSEC
  0
SECTION
  2
ENTITIES
  0
DIMENSION
  5
20
  8
TEAM-MAS
  2
*D3
 10
69.0
 20
45.556898
 30
0.0
 11
199.351238
 21
46.028811
 31
0.0
 12
-8000.0
 22
0.0
 32
0.0
 70
   128
 13
121.0
 23
82.685052
 33
0.0
 14
69.0
 24
82.685052
 34
0.0
1001
ACAD
1000
DSTYLE
1002
{
1070
    78
1070
     0
1070
    40
1040
1.0
1002
}
  0
DIMENSION
  5
30
  8
TEAM-MAS
  2
*D0
 10
466.017187
 20
0.0
 30
0.0
 11
466.017187
 21
300.0
 31
0.0
 12
-8000.0
 22
0.0
 32
0.0
 13
369.0
 23
600.0
 33
0.0
 14
0.0
 24
0.0
 34
0.0
 50
90.0
1001
ACAD
1000
DSTYLE
1002
{
1070
    40
1040
1.0
1002
}
  0
DIMENSION
  5
3E
  8
TEAM-MAS
  2
*D2
 10
-375.0
 20
636.225557
 30
0.0
 11
0.0
 21
636.225557
 31
0.0
 12
-8000.0
 22
0.0
 32
0.0
 13
375.0
 23
594.0
 33
0.0
 14
-375.0
 24
594.0
 34
0.0
1001
ACAD
1000
DSTYLE
1002
{
1070
    40
1040
1.0
1002
}
  0
LINE
  5
4C
  8
TEAM-BODY
 10
22.335784
 20
110.0
 30
0.0
 11
170.0
 21
110.0
 31
0.0
  0
LINE
  5
4E
  8
TEAM-DET1
 10
20.0
 20
111.164958
 30
0.0
 11
69.0
 21
86.726504
 31
0.0
  0
LINE
  5
50
  8
TEAM-BODY
 10
-369.0
 20
600.0
 30
0.0
 11
369.0
 21
600.0
 31
0.0
  0
LINE
  5
51
  8
TEAM-DET1
 10
369.0
 20
568.0
 30
0.0
 11
-369.0
 21
568.0
 31
0.0
  0
CIRCLE
  5
52
  8
TEAM-INSP
 10
0.0
 20
0.0
 30
0.0
 40
10.0
  0
TEXT
  5
54
  8
TEAM-TXT
 10
-264.687366
 20
515.75601
 30
0.0
 40
30.0
  1
team 121075
 41
0.8
 51
15.0
  7
TEAM
  0
ARC
  5
57
  8
TEAM-BODY
 10
57.650892
 20
1624.86558
 30
0.0
 40
1514.168802
 50
261.184314
 51
268.575153
  0
ARC
  5
58
  8
TEAM-BODY
 10
4994.762885
 20
955.145824
 30
0.0
 40
5303.91113
 50
184.185886
 51
188.160394
  0
ARC
  5
59
  8
TEAM-BODY
 10
-163.951956
 20
221.41679
 30
0.0
 40
93.47685
 50
191.811067
 51
263.267807
  0
ARC
  5
5A
  8
TEAM-BODY
 10
-369.0
 20
594.0
 30
0.0
 40
6.0
 50
90.0
 51
180.0
  0
ARC
  5
5B
  8
TEAM-BODY
 10
-369.0
 20
574.0
 30
0.0
 40
6.0
 50
180.0
 51
270.0
  0
LINE
  5
5C
  8
TEAM-BODY
 10
-375.0
 20
594.0
 30
0.0
 11
-375.0
 21
574.0
 31
0.0
  0
DIMENSION
  5
5D
  8
TEAM-MAS
  2
*D1
 10
420.349707
 20
110.0
 30
0.0
 11
420.349707
 21
355.0
 31
0.0
 12
-8000.0
 22
0.0
 32
0.0
 13
369.505
 23
600.0
 33
0.0
 14
96.167892
 24
110.0
 34
0.0
 50
90.0
1001
ACAD
1000
DSTYLE
1002
{
1070
    40
1040
1.0
1002
}
  0
LINE
  5
6B
  8
TEAM-DET1
 10
121.0
 20
86.726504
 30
0.0
 11
170.0
 21
110.0
 31
0.0
  0
LINE
  5
6C
  8
TEAM-KAN
 10
69.0
 20
82.685052
 30
0.0
 11
69.0
 21
86.726504
 31
0.0
  0
LINE
  5
6E
  8
TEAM-KAN
 10
69.0
 20
82.685052
 30
0.0
 11
121.0
 21
82.685052
 31
0.0
  0
LINE
  5
6F
  8
TEAM-KAN
 10
121.0
 20
82.685052
 30
0.0
 11
121.0
 21
86.726504
 31
0.0
  0
LINE
  5
70
  8
TEAM-AXE
 10
95.0
 20
67.004764
 30
0.0
 11
95.0
 21
108.36534
 31
0.0
  0
ARC
  5
73
  8
TEAM-BODY
 10
142.347649
 20
203.704241
 30
0.0
 40
97.699219
 50
286.441459
 51
347.743309
  0
ARC
  5
74
  8
TEAM-BODY
 10
369.0
 20
594.0
 30
0.0
 40
6.0
 50
0.0
 51
90.0
  0
ARC
  5
75
  8
TEAM-BODY
 10
369.0
 20
574.0
 30
0.0
 40
6.0
 50
270.0
 51
0.0
  0
LINE
  5
76
  8
TEAM-BODY
 10
375.0
 20
594.0
 30
0.0
 11
375.0
 21
574.0
 31
0.0
  0
ARC
  5
77
  8
TEAM-BODY
 10
-5605.108954
 20
1247.522711
 30
0.0
 40
5939.110774
 50
349.674184
 51
353.430122
  0
ENDSEC
  0
EOF
