  0
SECTION
  2
HEADER
  9
$ACADVER
  1
AC1009
  9
$INSBASE
 10
0.0
 20
0.0
 30
0.0
  9
$EXTMIN
 10
-921.788157
 20
-10.008387
 30
0.0
  9
$EXTMAX
 10
983.744344
 20
653.750187
 30
0.000005
  9
$LIMMIN
 10
-921.788157
 20
-10.008387
  9
$LIMMAX
 10
983.744344
 20
653.750187
  9
$ORTHOMODE
 70
     1
  9
$REGENMODE
 70
     1
  9
$FILLMODE
 70
     1
  9
$QTEXTMODE
 70
     0
  9
$MIRRTEXT
 70
     0
  9
$DRAGMODE
 70
     2
  9
$LTSCALE
 40
50.0
  9
$OSMODE
 70
     0
  9
$ATTMODE
 70
     1
  9
$TEXTSIZE
 40
200.0
  9
$TRACEWID
 40
1.0
  9
$TEXTSTYLE
  7
STANDARD
  9
$CLAYER
  8
0
  9
$CELTYPE
  6
BYLAYER
  9
$CECOLOR
 62
   256
  9
$DIMSCALE
 40
0.0
  9
$DIMASZ
 40
20.0
  9
$DIMEXO
 40
10.0
  9
$DIMDLI
 40
1.0
  9
$DIMRND
 40
0.0
  9
$DIMDLE
 40
0.0
  9
$DIMEXE
 40
1.0
  9
$DIMTP
 40
0.0
  9
$DIMTM
 40
0.0
  9
$DIMTXT
 40
35.0
  9
$DIMCEN
 40
1.0
  9
$DIMTSZ
 40
0.0
  9
$DIMTOL
 70
     0
  9
$DIMLIM
 70
     0
  9
$DIMTIH
 70
     0
  9
$DIMTOH
 70
     0
  9
$DIMSE1
 70
     0
  9
$DIMSE2
 70
     0
  9
$DIMTAD
 70
     0
  9
$DIMZIN
 70
     0
  9
$DIMBLK
  1

  9
$DIMASO
 70
     1
  9
$DIMSHO
 70
     0
  9
$DIMPOST
  1

  9
$DIMAPOST
  1

  9
$DIMALT
 70
     0
  9
$DIMALTD
 70
     2
  9
$DIMALTF
 40
25.4
  9
$DIMLFAC
 40
1.0
  9
$DIMTOFL
 70
     0
  9
$DIMTVP
 40
0.0
  9
$DIMTIX
 70
     0
  9
$DIMSOXD
 70
     0
  9
$DIMSAH
 70
     0
  9
$DIMBLK1
  1

  9
$DIMBLK2
  1

  9
$DIMSTYLE
  2
TEAM
  9
$DIMCLRD
 70
     9
  9
$DIMCLRE
 70
     9
  9
$DIMCLRT
 70
    11
  9
$DIMTFAC
 40
1.0
  9
$DIMGAP
 40
7.0
  9
$LUNITS
 70
     2
  9
$LUPREC
 70
     1
  9
$SKETCHINC
 40
1.0
  9
$FILLETRAD
 40
30.0
  9
$AUNITS
 70
     0
  9
$AUPREC
 70
     0
  9
$MENU
  1
ROPLANS
  9
$ELEVATION
 40
0.0
  9
$PELEVATION
 40
0.0
  9
$THICKNESS
 40
0.0
  9
$LIMCHECK
 70
     0
  9
$BLIPMODE
 70
     1
  9
$CHAMFERA
 40
0.0
  9
$CHAMFERB
 40
0.0
  9
$SKPOLY
 70
     0
  9
$TDCREATE
 40
2450392.957851
  9
$TDUPDATE
 40
2457455.962239
  9
$TDINDWG
 40
2.150969
  9
$TDUSRTIMER
 40
2.150969
  9
$USRTIMER
 70
     1
  9
$ANGBASE
 50
0.0
  9
$ANGDIR
 70
     0
  9
$PDMODE
 70
     0
  9
$PDSIZE
 40
0.0
  9
$PLINEWID
 40
0.0
  9
$COORDS
 70
     2
  9
$SPLFRAME
 70
     0
  9
$SPLINETYPE
 70
     6
  9
$SPLINESEGS
 70
     8
  9
$ATTDIA
 70
     0
  9
$ATTREQ
 70
     0
  9
$HANDLING
 70
     1
  9
$HANDSEED
  5
CE
  9
$SURFTAB1
 70
    36
  9
$SURFTAB2
 70
    36
  9
$SURFTYPE
 70
     6
  9
$SURFU
 70
     6
  9
$SURFV
 70
     6
  9
$UCSNAME
  2

  9
$UCSORG
 10
0.0
 20
0.0
 30
0.0
  9
$UCSXDIR
 10
1.0
 20
0.0
 30
0.0
  9
$UCSYDIR
 10
0.0
 20
1.0
 30
0.0
  9
$PUCSNAME
  2

  9
$PUCSORG
 10
0.0
 20
0.0
 30
0.0
  9
$PUCSXDIR
 10
1.0
 20
0.0
 30
0.0
  9
$PUCSYDIR
 10
0.0
 20
1.0
 30
0.0
  9
$USERI1
 70
     0
  9
$USERI2
 70
     0
  9
$USERI3
 70
     0
  9
$USERI4
 70
     0
  9
$USERI5
 70
     0
  9
$USERR1
 40
0.0
  9
$USERR2
 40
0.0
  9
$USERR3
 40
0.0
  9
$USERR4
 40
0.0
  9
$USERR5
 40
0.0
  9
$WORLDVIEW
 70
     1
  9
$SHADEDGE
 70
     0
  9
$SHADEDIF
 70
    70
  9
$TILEMODE
 70
     1
  9
$MAXACTVP
 70
    16
  9
$PLIMCHECK
 70
     0
  9
$PEXTMIN
 10
-0.805942
 20
0.005011
 30
0.0
  9
$PEXTMAX
 10
20.250094
 20
11.356329
 30
0.0
  9
$PLIMMIN
 10
0.0
 20
0.0
  9
$PLIMMAX
 10
12.0
 20
9.0
  9
$UNITMODE
 70
     0
  9
$VISRETAIN
 70
     0
  9
$PLINEGEN
 70
     0
  9
$PSLTSCALE
 70
     0
  0
ENDSEC
  0
SECTION
  2
TABLES
  0
TABLE
  2
VPORT
 70
     2
  0
VPORT
  2
*ACTIVE
 70
     0
 10
0.0
 20
0.0
 11
1.0
 21
1.0
 12
30.978094
 22
321.8709
 13
0.0
 23
0.0
 14
1.0
 24
1.0
 15
50.0
 25
50.0
 16
0.0
 26
0.0
 36
1.0
 17
0.0
 27
0.0
 37
0.0
 40
992.344082
 41
1.926425
 42
50.0
 43
0.0
 44
0.0
 50
0.0
 51
0.0
 71
     0
 72
   100
 73
     1
 74
     1
 75
     0
 76
     0
 77
     0
 78
     0
  0
ENDTAB
  0
TABLE
  2
LTYPE
 70
     2
  0
LTYPE
  2
CONTINUOUS
 70
     0
  3
Solid Line
 72
    65
 73
     0
 40
0.0
  0
LTYPE
  2
31
 70
     0
  3

 72
    65
 73
     4
 40
2.1
 49
1.5
 49
-0.3
 49
0.0
 49
-0.3
  0
ENDTAB
  0
TABLE
  2
LAYER
 70
    10
  0
LAYER
  2
0
 70
     0
 62
     7
  6
CONTINUOUS
  0
LAYER
  2
DEFPOINTS
 70
     0
 62
     7
  6
CONTINUOUS
  0
LAYER
  2
TEAM-BODY
 70
     0
 62
     2
  6
CONTINUOUS
  0
LAYER
  2
TEAM-AXE
 70
     0
 62
    10
  6
31
  0
LAYER
  2
TEAM-MAS
 70
     0
 62
     9
  6
CONTINUOUS
  0
LAYER
  2
TEAM-TXT
 70
     0
 62
    11
  6
CONTINUOUS
  0
LAYER
  2
TEAM-DET1
 70
     0
 62
     4
  6
CONTINUOUS
  0
LAYER
  2
TEAM-KAN
 70
     0
 62
     6
  6
CONTINUOUS
  0
LAYER
  2
TEAM-DET3
 70
     0
 62
    14
  6
CONTINUOUS
  0
LAYER
  2
TEAM-INSP
 70
     0
 62
     5
  6
CONTINUOUS
  0
ENDTAB
  0
TABLE
  2
STYLE
 70
     2
  0
STYLE
  2
STANDARD
 70
     0
 40
0.0
 41
1.0
 50
0.0
 71
     0
 42
200.0
  3
txt
  4

  0
STYLE
  2
TEAM
 70
     0
 40
0.0
 41
0.8
 50
15.0
 71
     0
 42
7.0
  3
ROMANS.shx
  4

  0
ENDTAB
  0
TABLE
  2
VIEW
 70
     0
  0
ENDTAB
  0
TABLE
  2
UCS
 70
     0
  0
ENDTAB
  0
TABLE
  2
APPID
 70
     1
  0
APPID
  2
ACAD
 70
     0
  0
ENDTAB
  0
TABLE
  2
DIMSTYLE
 70
     1
  0
DIMSTYLE
  2
TEAM
 70
     0
  3

  4

  5

  6

  7

 40
0.0
 41
20.0
 42
10.0
 43
1.0
 44
1.0
 45
0.0
 46
0.0
 47
0.0
 48
0.0
140
35.0
141
1.0
142
0.0
143
25.4
144
1.0
145
0.0
146
1.0
147
7.0
 71
     0
 72
     0
 73
     0
 74
     0
 75
     0
 76
     0
 77
     0
 78
     0
170
     0
171
     2
172
     0
173
     0
174
     0
175
     0
176
     9
177
     9
178
    11
  0
ENDTAB
  0
ENDSEC
  0
SECTION
  2
BLOCKS
  0
BLOCK
  8
0
  2
$MODEL_SPACE
 70
     0
 10
0.0
 20
0.0
 30
0.0
  3
$MODEL_SPACE
  1

  0
ENDBLK
  5
C7
  8
0
  0
BLOCK
 67
     1
  8
0
  2
$PAPER_SPACE
 70
     0
 10
0.0
 20
0.0
 30
0.0
  3
$PAPER_SPACE
  1

  0
ENDBLK
  5
C5
 67
     1
  8
0
  0
BLOCK
  8
0
  2
*D0
 70
     1
 10
0.0
 20
0.0
 30
0.0
  3
*D0
  1

  0
LINE
  5
79
  8
0
  6
BYBLOCK
 62
     9
 10
12880.0
 20
580.0
 30
0.0
 11
12880.0
 21
637.225557
 31
0.0
  0
LINE
  5
7A
  8
0
  6
BYBLOCK
 62
     9
 10
11130.0
 20
580.0
 30
0.0
 11
11130.0
 21
637.225557
 31
0.0
  0
LINE
  5
7B
  8
0
  6
BYBLOCK
 62
     9
 10
12860.0
 20
636.225557
 30
0.0
 11
12093.843241
 21
636.225557
 31
0.0
  0
LINE
  5
7C
  8
0
  6
BYBLOCK
 62
     9
 10
11150.0
 20
636.225557
 30
0.0
 11
11899.009908
 21
636.225557
 31
0.0
  0
TEXT
  5
7D
  8
0
  6
BYBLOCK
 62
    11
 10
11906.009908
 20
618.725557
 30
0.0
 40
35.0
  1
1750.00
  0
SOLID
  5
7E
  8
0
  6
BYBLOCK
 62
     9
 10
12860.0
 20
639.558891
 30
0.0
 11
12860.0
 21
632.892224
 31
0.0
 12
12880.0
 22
636.225557
 32
0.0
 13
12880.0
 23
636.225557
 33
0.0
  0
SOLID
  5
7F
  8
0
  6
BYBLOCK
 62
     9
 10
11150.0
 20
639.558891
 30
0.0
 11
11150.0
 21
632.892224
 31
0.0
 12
11130.0
 22
636.225557
 32
0.0
 13
11130.0
 23
636.225557
 33
0.0
  0
POINT
  5
80
  8
DEFPOINTS
  6
BYBLOCK
 62
     0
 10
12880.0
 20
570.0
 30
0.0
  0
POINT
  5
81
  8
DEFPOINTS
  6
BYBLOCK
 62
     0
 10
11130.0
 20
570.0
 30
0.0
  0
POINT
  5
82
  8
DEFPOINTS
  6
BYBLOCK
 62
     0
 10
11130.0
 20
636.225557
 30
0.0
  0
ENDBLK
  5
84
  8
0
  0
BLOCK
  8
0
  2
*D1
 70
     1
 10
0.0
 20
0.0
 30
0.0
  3
*D1
  1

  0
LINE
  5
42
  8
0
  6
BYBLOCK
 62
     9
 10
11130.153802
 20
599.998817
 30
0.0
 11
11094.724199
 21
599.998817
 31
0.0
  0
LINE
  5
43
  8
0
  6
BYBLOCK
 62
     9
 10
11120.0
 20
570.0
 30
0.0
 11
11094.724199
 21
570.0
 31
0.0
  0
LINE
  5
44
  8
0
  6
BYBLOCK
 62
     9
 10
11095.724199
 20
619.998817
 30
0.0
 11
11095.724199
 21
639.998817
 31
0.0
  0
LINE
  5
45
  8
0
  6
BYBLOCK
 62
     9
 10
11095.724199
 20
550.0
 30
0.0
 11
11095.724199
 21
530.0
 31
0.0
  0
TEXT
  5
46
  8
0
  6
BYBLOCK
 62
    11
 10
11113.224199
 20
421.108608
 30
0.0
 40
35.0
  1
30.00
 50
90.0
  0
LINE
  5
47
  8
0
  6
BYBLOCK
 62
     9
 10
11095.724199
 20
599.998817
 30
0.0
 11
11095.724199
 21
570.0
 31
0.0
  0
SOLID
  5
48
  8
0
  6
BYBLOCK
 62
     9
 10
11092.390866
 20
619.998817
 30
0.0
 11
11099.057532
 21
619.998817
 31
0.0
 12
11095.724199
 22
599.998817
 32
0.0
 13
11095.724199
 23
599.998817
 33
0.0
  0
SOLID
  5
49
  8
0
  6
BYBLOCK
 62
     9
 10
11092.390866
 20
550.0
 30
0.0
 11
11099.057532
 21
550.0
 31
0.0
 12
11095.724199
 22
570.0
 32
0.0
 13
11095.724199
 23
570.0
 33
0.0
  0
POINT
  5
4A
  8
DEFPOINTS
  6
BYBLOCK
 62
     0
 10
11140.153802
 20
599.998817
 30
0.0
  0
POINT
  5
4B
  8
DEFPOINTS
  6
BYBLOCK
 62
     0
 10
11130.0
 20
570.0
 30
0.0
  0
POINT
  5
4C
  8
DEFPOINTS
  6
BYBLOCK
 62
     0
 10
11095.724199
 20
570.0
 30
0.0
  0
ENDBLK
  5
4E
  8
0
  0
BLOCK
  8
0
  2
*D2
 70
     1
 10
0.0
 20
0.0
 30
0.0
  3
*D2
  1

  0
LINE
  5
34
  8
0
  6
BYBLOCK
 62
     9
 10
12880.0
 20
600.0
 30
0.0
 11
12967.182896
 21
600.0
 31
0.0
  0
LINE
  5
35
  8
0
  6
BYBLOCK
 62
     9
 10
12010.0
 20
0.0
 30
0.0
 11
12967.182896
 21
0.0
 31
0.0
  0
LINE
  5
36
  8
0
  6
BYBLOCK
 62
     9
 10
12966.182896
 20
580.0
 30
0.0
 11
12966.182896
 21
382.833333
 31
0.0
  0
LINE
  5
37
  8
0
  6
BYBLOCK
 62
     9
 10
12966.182896
 20
20.0
 30
0.0
 11
12966.182896
 21
217.166667
 31
0.0
  0
SOLID
  5
38
  8
0
  6
BYBLOCK
 62
     9
 10
12962.849562
 20
580.0
 30
0.0
 11
12969.516229
 21
580.0
 31
0.0
 12
12966.182896
 22
600.0
 32
0.0
 13
12966.182896
 23
600.0
 33
0.0
  0
SOLID
  5
39
  8
0
  6
BYBLOCK
 62
     9
 10
12962.849562
 20
20.0
 30
0.0
 11
12969.516229
 21
20.0
 31
0.0
 12
12966.182896
 22
0.0
 32
0.0
 13
12966.182896
 23
0.0
 33
0.0
  0
TEXT
  5
3A
  8
0
  6
BYBLOCK
 62
    11
 10
12983.682896
 20
224.166667
 30
0.0
 40
35.0
  1
600.00
 50
90.0
  0
POINT
  5
3B
  8
DEFPOINTS
  6
BYBLOCK
 62
     0
 10
12870.0
 20
600.0
 30
0.0
  0
POINT
  5
3C
  8
DEFPOINTS
  6
BYBLOCK
 62
     0
 10
12000.0
 20
0.0
 30
0.0
  0
POINT
  5
3D
  8
DEFPOINTS
  6
BYBLOCK
 62
     0
 10
12966.182896
 20
0.0
 30
0.0
  0
ENDBLK
  5
3F
  8
0
  0
BLOCK
  8
0
  2
*D3
 70
     1
 10
0.0
 20
0.0
 30
0.0
  3
*D3
  1

  0
LINE
  5
25
  8
0
  6
BYBLOCK
 62
     9
 10
12880.0
 20
600.0
 30
0.0
 11
12919.933484
 21
600.0
 31
0.0
  0
LINE
  5
26
  8
0
  6
BYBLOCK
 62
     9
 10
12111.167892
 20
110.0
 30
0.0
 11
12919.933484
 21
110.0
 31
0.0
  0
LINE
  5
27
  8
0
  6
BYBLOCK
 62
     9
 10
12918.933484
 20
580.0
 30
0.0
 11
12918.933484
 21
440.75
 31
0.0
  0
LINE
  5
28
  8
0
  6
BYBLOCK
 62
     9
 10
12918.933484
 20
130.0
 30
0.0
 11
12918.933484
 21
269.25
 31
0.0
  0
SOLID
  5
29
  8
0
  6
BYBLOCK
 62
     9
 10
12915.600151
 20
580.0
 30
0.0
 11
12922.266818
 21
580.0
 31
0.0
 12
12918.933484
 22
600.0
 32
0.0
 13
12918.933484
 23
600.0
 33
0.0
  0
SOLID
  5
2A
  8
0
  6
BYBLOCK
 62
     9
 10
12915.600151
 20
130.0
 30
0.0
 11
12922.266818
 21
130.0
 31
0.0
 12
12918.933484
 22
110.0
 32
0.0
 13
12918.933484
 23
110.0
 33
0.0
  0
TEXT
  5
2B
  8
0
  6
BYBLOCK
 62
    11
 10
12936.433484
 20
276.25
 30
0.0
 40
35.0
  1
490.00
 50
90.0
  0
POINT
  5
2C
  8
DEFPOINTS
  6
BYBLOCK
 62
     0
 10
12870.0
 20
600.0
 30
0.0
  0
POINT
  5
2E
  8
DEFPOINTS
  6
BYBLOCK
 62
     0
 10
12101.167892
 20
110.0
 30
0.0
  0
POINT
  5
2F
  8
DEFPOINTS
  6
BYBLOCK
 62
     0
 10
12918.933484
 20
110.0
 30
0.0
  0
ENDBLK
  5
31
  8
0
  0
BLOCK
  8
0
  2
*D4
 70
     1
 10
0.0
 20
0.0
 30
0.0
  3
*D4
  1

  0
LINE
  5
67
  8
0
  6
BYBLOCK
 62
     9
 10
12126.0
 20
72.685052
 30
0.0
 11
12126.0
 21
44.556898
 31
0.0
  0
LINE
  5
68
  8
0
  6
BYBLOCK
 62
     9
 10
12074.0
 20
72.685052
 30
0.0
 11
12074.0
 21
44.556898
 31
0.0
  0
LINE
  5
69
  8
0
  6
BYBLOCK
 62
     9
 10
12146.0
 20
45.556898
 30
0.0
 11
12166.0
 21
45.556898
 31
0.0
  0
LINE
  5
6A
  8
0
  6
BYBLOCK
 62
     9
 10
12054.0
 20
45.556898
 30
0.0
 11
12034.0
 21
45.556898
 31
0.0
  0
TEXT
  5
6B
  8
0
  6
BYBLOCK
 62
    11
 10
12161.752643
 20
28.056898
 30
0.0
 40
35.0
  1
52.00
  0
LINE
  5
6C
  8
0
  6
BYBLOCK
 62
     9
 10
12126.0
 20
45.556898
 30
0.0
 11
12074.0
 21
45.556898
 31
0.0
  0
SOLID
  5
6D
  8
0
  6
BYBLOCK
 62
     9
 10
12146.0
 20
48.890231
 30
0.0
 11
12146.0
 21
42.223565
 31
0.0
 12
12126.0
 22
45.556898
 32
0.0
 13
12126.0
 23
45.556898
 33
0.0
  0
SOLID
  5
6E
  8
0
  6
BYBLOCK
 62
     9
 10
12054.0
 20
48.890231
 30
0.0
 11
12054.0
 21
42.223565
 31
0.0
 12
12074.0
 22
45.556898
 32
0.0
 13
12074.0
 23
45.556898
 33
0.0
  0
POINT
  5
6F
  8
DEFPOINTS
  6
BYBLOCK
 62
     0
 10
12126.0
 20
82.685052
 30
0.0
  0
POINT
  5
70
  8
DEFPOINTS
  6
BYBLOCK
 62
     0
 10
12074.0
 20
82.685052
 30
0.0
  0
POINT
  5
71
  8
DEFPOINTS
  6
BYBLOCK
 62
     0
 10
12074.0
 20
45.556898
 30
0.0
  0
ENDBLK
  5
73
  8
0
  0
ENDSEC
  0
SECTION
  2
ENTITIES
  0
ARC
  5
1F
  8
TEAM-BODY
 10
-1292.146712
 20
-2.632305
 30
0.0
 40
750.210226
 50
20.97283
 51
52.534713
  0
ARC
  5
21
  8
TEAM-BODY
 10
-3249.44191
 20
1359.600533
 30
0.0
 40
4130.614945
 50
343.517907
 51
349.252813
  0
DIMENSION
  5
22
  8
TEAM-MAS
  2
*D3
 10
918.933484
 20
110.0
 30
0.0
 11
918.933484
 21
355.0
 31
0.0
 12
-12000.0
 22
0.0
 32
0.0
 13
870.0
 23
600.0
 33
0.0
 14
101.167892
 24
110.0
 34
0.0
 50
90.0
1001
ACAD
1000
DSTYLE
1002
{
1070
    40
1040
1.0
1002
}
  0
DIMENSION
  5
32
  8
TEAM-MAS
  2
*D2
 10
966.182896
 20
0.0
 30
0.0
 11
966.182896
 21
300.0
 31
0.0
 12
-12000.0
 22
0.0
 32
0.0
 13
870.0
 23
600.0
 33
0.0
 14
0.0
 24
0.0
 34
0.0
 50
90.0
1001
ACAD
1000
DSTYLE
1002
{
1070
    40
1040
1.0
1002
}
  0
DIMENSION
  5
40
  8
TEAM-MAS
  2
*D1
 10
-904.275801
 20
570.0
 30
0.0
 11
-904.275801
 21
482.358608
 31
0.0
 12
-12000.0
 22
0.0
 32
0.0
 70
   128
 13
-859.846198
 23
599.998817
 33
0.0
 14
-870.0
 24
570.0
 34
0.0
 50
90.0
1001
ACAD
1000
DSTYLE
1002
{
1070
    40
1040
1.0
1002
}
  0
LINE
  5
4F
  8
TEAM-BODY
 10
175.0
 20
110.0
 30
0.0
 11
636.507059
 21
119.188014
 31
0.0
  0
LINE
  5
50
  8
TEAM-DET3
 10
619.455047
 20
92.686873
 30
0.0
 11
296.579316
 21
88.677649
 31
0.0
  0
ARC
  5
52
  8
TEAM-BODY
 10
-429.522391
 20
296.216978
 30
0.0
 40
164.928156
 50
190.596952
 51
273.197458
  0
LINE
  5
53
  8
TEAM-DET3
 10
-394.128417
 20
104.390075
 30
0.0
 11
-94.833707
 21
91.92797
 31
0.0
  0
LINE
  5
54
  8
TEAM-DET3
 10
-394.128417
 20
104.390075
 30
0.0
 11
-420.323159
 21
131.545575
 31
0.0
  0
LINE
  5
55
  8
TEAM-BODY
 10
-420.323159
 20
131.545575
 30
0.0
 11
25.0
 21
111.164958
 31
0.0
  0
LINE
  5
56
  8
TEAM-DET3
 10
-94.833707
 20
91.92797
 30
0.0
 11
-67.436738
 21
115.404588
 31
0.0
  0
CIRCLE
  5
57
  8
TEAM-INSP
 10
0.0
 20
0.0
 30
0.0
 40
10.0
  0
LINE
  5
59
  8
TEAM-BODY
 10
27.335784
 20
110.0
 30
0.0
 11
175.0
 21
110.0
 31
0.0
  0
LINE
  5
5A
  8
TEAM-DET1
 10
25.0
 20
111.164958
 30
0.0
 11
74.0
 21
86.726504
 31
0.0
  0
LINE
  5
5C
  8
TEAM-DET1
 10
126.0
 20
86.726504
 30
0.0
 11
175.0
 21
110.0
 31
0.0
  0
LINE
  5
5D
  8
TEAM-KAN
 10
74.0
 20
82.685052
 30
0.0
 11
74.0
 21
86.726504
 31
0.0
  0
LINE
  5
5F
  8
TEAM-KAN
 10
74.0
 20
82.685052
 30
0.0
 11
126.0
 21
82.685052
 31
0.0
  0
LINE
  5
60
  8
TEAM-KAN
 10
126.0
 20
82.685052
 30
0.0
 11
126.0
 21
86.726504
 31
0.0
  0
LINE
  5
61
  8
TEAM-AXE
 10
100.0
 20
67.004764
 30
0.0
 11
100.0
 21
108.36534
 31
0.0
  0
LINE
  5
64
  8
TEAM-DET3
 10
296.579316
 20
88.677649
 30
0.0
 11
275.422667
 21
112.113792
 31
0.0
  0
DIMENSION
  5
65
  8
TEAM-MAS
  2
*D4
 10
74.0
 20
45.556898
 30
0.0
 11
225.91931
 21
45.556898
 31
0.0
 12
-12000.0
 22
0.0
 32
0.0
 70
   128
 13
126.0
 23
82.685052
 33
0.0
 14
74.0
 24
82.685052
 34
0.0
1001
ACAD
1000
DSTYLE
1002
{
1070
    78
1070
     0
1070
    40
1040
1.0
1002
}
  0
ARC
  5
74
  8
TEAM-BODY
 10
613.938133
 20
219.114481
 30
0.0
 40
102.443424
 50
282.727021
 51
342.130852
  0
LINE
  5
75
  8
TEAM-DET3
 10
619.455047
 20
92.686873
 30
0.0
 11
636.507059
 21
119.188014
 31
0.0
  0
LINE
  5
76
  8
TEAM-BODY
 10
-860.0
 20
600.0
 30
0.0
 11
870.0
 21
600.0
 31
0.0
  0
DIMENSION
  5
77
  8
TEAM-MAS
  2
*D0
 10
-870.0
 20
636.225557
 30
0.0
 11
-3.573426
 21
636.225557
 31
0.0
 12
-12000.0
 22
0.0
 32
0.0
 70
   128
 13
880.0
 23
570.0
 33
0.0
 14
-870.0
 24
570.0
 34
0.0
1001
ACAD
1000
DSTYLE
1002
{
1070
    78
1070
     0
1070
    40
1040
1.0
1002
}
  0
LINE
  5
85
  8
TEAM-DET1
 10
-870.0
 20
570.0
 30
0.0
 11
-807.474012
 21
570.0
 31
0.0
  0
TEXT
  5
86
  8
TEAM-TXT
 10
-586.620829
 20
539.007724
 30
0.0
 40
30.0
  1
team 121079
 41
0.8
 51
15.0
  7
TEAM
  0
LINE
  5
89
  8
TEAM-BODY
 10
-845.580665
 20
598.126359
 30
0.0
 11
-859.846198
 21
599.998817
 31
0.0
  0
ARC
  5
8A
  8
TEAM-BODY
 10
-846.580847
 20
584.623397
 30
0.0
 40
13.539953
 50
37.287182
 51
85.763766
  0
LINE
  5
8B
  8
TEAM-BODY
 10
-870.0
 20
570.0
 30
0.0
 11
-870.0
 21
590.0
 31
0.0
  0
ARC
  5
8C
  8
TEAM-BODY
 10
-860.0
 20
590.0
 30
0.0
 40
10.0
 50
89.118742
 51
180.0
  0
LINE
  5
8D
  8
TEAM-DET1
 10
805.001433
 20
570.0
 30
0.0
 11
880.0
 21
570.0
 31
0.0
  0
ARC
  5
8E
  8
TEAM-BODY
 10
818.646334
 20
588.127542
 30
0.0
 40
10.0
 50
90.881258
 51
173.031528
  0
LINE
  5
8F
  8
TEAM-BODY
 10
818.492532
 20
598.126359
 30
0.0
 11
869.846197
 21
599.998817
 31
0.0
  0
ARC
  5
90
  8
TEAM-BODY
 10
870.0
 20
590.0
 30
0.0
 40
10.0
 50
0.0
 51
90.881258
  0
LINE
  5
91
  8
TEAM-BODY
 10
880.0
 20
570.0
 30
0.0
 11
880.0
 21
590.0
 31
0.0
  0
ENDSEC
  0
EOF
