  0
SECTION
  2
HEADER
  9
$ACADVER
  1
AC1009
  9
$INSBASE
 10
0.0
 20
0.0
 30
0.0
  9
$EXTMIN
 10
-919.21975
 20
-906.518367
 30
0.0
  9
$EXTMAX
 10
1089.277757
 20
607.813751
 30
0.000005
  9
$LIMMIN
 10
-919.21975
 20
-906.518367
  9
$LIMMAX
 10
1089.277757
 20
607.813751
  9
$ORTHOMODE
 70
     1
  9
$REGENMODE
 70
     1
  9
$FILLMODE
 70
     1
  9
$QTEXTMODE
 70
     0
  9
$MIRRTEXT
 70
     0
  9
$DRAGMODE
 70
     2
  9
$LTSCALE
 40
50.0
  9
$OSMODE
 70
     7
  9
$ATTMODE
 70
     1
  9
$TEXTSIZE
 40
200.0
  9
$TRACEWID
 40
1.0
  9
$TEXTSTYLE
  7
STANDARD
  9
$CLAYER
  8
TEAM-MAS
  9
$CELTYPE
  6
BYLAYER
  9
$CECOLOR
 62
   256
  9
$DIMSCALE
 40
0.0
  9
$DIMASZ
 40
20.0
  9
$DIMEXO
 40
10.0
  9
$DIMDLI
 40
1.0
  9
$DIMRND
 40
0.0
  9
$DIMDLE
 40
0.0
  9
$DIMEXE
 40
1.0
  9
$DIMTP
 40
0.0
  9
$DIMTM
 40
0.0
  9
$DIMTXT
 40
35.0
  9
$DIMCEN
 40
1.0
  9
$DIMTSZ
 40
0.0
  9
$DIMTOL
 70
     0
  9
$DIMLIM
 70
     0
  9
$DIMTIH
 70
     0
  9
$DIMTOH
 70
     0
  9
$DIMSE1
 70
     0
  9
$DIMSE2
 70
     0
  9
$DIMTAD
 70
     0
  9
$DIMZIN
 70
     0
  9
$DIMBLK
  1

  9
$DIMASO
 70
     1
  9
$DIMSHO
 70
     0
  9
$DIMPOST
  1

  9
$DIMAPOST
  1

  9
$DIMALT
 70
     0
  9
$DIMALTD
 70
     2
  9
$DIMALTF
 40
25.4
  9
$DIMLFAC
 40
1.0
  9
$DIMTOFL
 70
     0
  9
$DIMTVP
 40
0.0
  9
$DIMTIX
 70
     0
  9
$DIMSOXD
 70
     0
  9
$DIMSAH
 70
     0
  9
$DIMBLK1
  1

  9
$DIMBLK2
  1

  9
$DIMSTYLE
  2
TEAM
  9
$DIMCLRD
 70
     9
  9
$DIMCLRE
 70
     9
  9
$DIMCLRT
 70
    11
  9
$DIMTFAC
 40
1.0
  9
$DIMGAP
 40
7.0
  9
$LUNITS
 70
     2
  9
$LUPREC
 70
     1
  9
$SKETCHINC
 40
1.0
  9
$FILLETRAD
 40
9.5
  9
$AUNITS
 70
     0
  9
$AUPREC
 70
     0
  9
$MENU
  1
ROPLANS
  9
$ELEVATION
 40
0.0
  9
$PELEVATION
 40
0.0
  9
$THICKNESS
 40
0.0
  9
$LIMCHECK
 70
     0
  9
$BLIPMODE
 70
     1
  9
$CHAMFERA
 40
0.0
  9
$CHAMFERB
 40
0.0
  9
$SKPOLY
 70
     0
  9
$TDCREATE
 40
2450392.957851
  9
$TDUPDATE
 40
2455944.717343
  9
$TDINDWG
 40
3.569992
  9
$TDUSRTIMER
 40
3.569992
  9
$USRTIMER
 70
     1
  9
$ANGBASE
 50
0.0
  9
$ANGDIR
 70
     0
  9
$PDMODE
 70
     0
  9
$PDSIZE
 40
0.0
  9
$PLINEWID
 40
0.0
  9
$COORDS
 70
     2
  9
$SPLFRAME
 70
     0
  9
$SPLINETYPE
 70
     6
  9
$SPLINESEGS
 70
     8
  9
$ATTDIA
 70
     0
  9
$ATTREQ
 70
     0
  9
$HANDLING
 70
     1
  9
$HANDSEED
  5
2CA
  9
$SURFTAB1
 70
    24
  9
$SURFTAB2
 70
    24
  9
$SURFTYPE
 70
     6
  9
$SURFU
 70
     6
  9
$SURFV
 70
     6
  9
$UCSNAME
  2

  9
$UCSORG
 10
0.0
 20
0.0
 30
0.0
  9
$UCSXDIR
 10
1.0
 20
0.0
 30
0.0
  9
$UCSYDIR
 10
0.0
 20
1.0
 30
0.0
  9
$PUCSNAME
  2

  9
$PUCSORG
 10
0.0
 20
0.0
 30
0.0
  9
$PUCSXDIR
 10
1.0
 20
0.0
 30
0.0
  9
$PUCSYDIR
 10
0.0
 20
1.0
 30
0.0
  9
$USERI1
 70
     0
  9
$USERI2
 70
     0
  9
$USERI3
 70
     0
  9
$USERI4
 70
     0
  9
$USERI5
 70
     0
  9
$USERR1
 40
0.0
  9
$USERR2
 40
0.0
  9
$USERR3
 40
0.0
  9
$USERR4
 40
0.0
  9
$USERR5
 40
0.0
  9
$WORLDVIEW
 70
     1
  9
$SHADEDGE
 70
     0
  9
$SHADEDIF
 70
    70
  9
$TILEMODE
 70
     1
  9
$MAXACTVP
 70
    16
  9
$PLIMCHECK
 70
     0
  9
$PEXTMIN
 10
-0.805942
 20
0.005011
 30
0.0
  9
$PEXTMAX
 10
20.250094
 20
11.356329
 30
0.0
  9
$PLIMMIN
 10
0.0
 20
0.0
  9
$PLIMMAX
 10
12.0
 20
9.0
  9
$UNITMODE
 70
     0
  9
$VISRETAIN
 70
     0
  9
$PLINEGEN
 70
     0
  9
$PSLTSCALE
 70
     0
  0
ENDSEC
  0
SECTION
  2
TABLES
  0
TABLE
  2
VPORT
 70
     2
  0
VPORT
  2
*ACTIVE
 70
     0
 10
0.0
 20
0.0
 11
1.0
 21
1.0
 12
85.029004
 22
-149.352308
 13
0.0
 23
0.0
 14
1.0
 24
1.0
 15
50.0
 25
50.0
 16
0.0
 26
0.0
 36
1.0
 17
0.0
 27
0.0
 37
0.0
 40
1523.826364
 41
1.903766
 42
50.0
 43
0.0
 44
0.0
 50
0.0
 51
0.0
 71
     0
 72
   100
 73
     1
 74
     1
 75
     0
 76
     0
 77
     0
 78
     0
  0
ENDTAB
  0
TABLE
  2
LTYPE
 70
     2
  0
LTYPE
  2
CONTINUOUS
 70
     0
  3
Solid Line
 72
    65
 73
     0
 40
0.0
  0
LTYPE
  2
31
 70
     0
  3

 72
    65
 73
     4
 40
2.1
 49
1.5
 49
-0.3
 49
0.0
 49
-0.3
  0
ENDTAB
  0
TABLE
  2
LAYER
 70
     9
  0
LAYER
  2
0
 70
     0
 62
     7
  6
CONTINUOUS
  0
LAYER
  2
DEFPOINTS
 70
     0
 62
     7
  6
CONTINUOUS
  0
LAYER
  2
TEAM-BODY
 70
     0
 62
     2
  6
CONTINUOUS
  0
LAYER
  2
TEAM-AXE
 70
     0
 62
    10
  6
31
  0
LAYER
  2
TEAM-MAS
 70
     0
 62
     9
  6
CONTINUOUS
  0
LAYER
  2
TEAM-TXT
 70
     0
 62
    11
  6
CONTINUOUS
  0
LAYER
  2
TEAM-DET1
 70
     0
 62
     4
  6
CONTINUOUS
  0
LAYER
  2
TEAM-KAN
 70
     0
 62
     6
  6
CONTINUOUS
  0
LAYER
  2
TEAM-INSP
 70
     0
 62
     5
  6
CONTINUOUS
  0
ENDTAB
  0
TABLE
  2
STYLE
 70
     2
  0
STYLE
  2
STANDARD
 70
     0
 40
0.0
 41
1.0
 50
0.0
 71
     0
 42
200.0
  3
txt
  4

  0
STYLE
  2
TEAM
 70
     0
 40
0.0
 41
0.8
 50
15.0
 71
     0
 42
7.0
  3
ROMANS.shx
  4

  0
ENDTAB
  0
TABLE
  2
VIEW
 70
     0
  0
ENDTAB
  0
TABLE
  2
UCS
 70
     0
  0
ENDTAB
  0
TABLE
  2
APPID
 70
     1
  0
APPID
  2
ACAD
 70
     0
  0
ENDTAB
  0
TABLE
  2
DIMSTYLE
 70
     1
  0
DIMSTYLE
  2
TEAM
 70
     0
  3

  4

  5

  6

  7

 40
0.0
 41
20.0
 42
10.0
 43
1.0
 44
1.0
 45
0.0
 46
0.0
 47
0.0
 48
0.0
140
35.0
141
1.0
142
0.0
143
25.4
144
1.0
145
0.0
146
1.0
147
7.0
 71
     0
 72
     0
 73
     0
 74
     0
 75
     0
 76
     0
 77
     0
 78
     0
170
     0
171
     2
172
     0
173
     0
174
     0
175
     0
176
     9
177
     9
178
    11
  0
ENDTAB
  0
ENDSEC
  0
SECTION
  2
BLOCKS
  0
BLOCK
  8
0
  2
$MODEL_SPACE
 70
     0
 10
0.0
 20
0.0
 30
0.0
  3
$MODEL_SPACE
  1

  0
ENDBLK
  5
222
  8
0
  0
BLOCK
 67
     1
  8
0
  2
$PAPER_SPACE
 70
     0
 10
0.0
 20
0.0
 30
0.0
  3
$PAPER_SPACE
  1

  0
ENDBLK
  5
220
 67
     1
  8
0
  0
BLOCK
  8
0
  2
*D0
 70
     1
 10
0.0
 20
0.0
 30
0.0
  3
*D0
  1

  0
LINE
  5
6D
  8
0
  6
BYBLOCK
 62
     9
 10
860.056392
 20
56499.999914
 30
0.0
 11
879.455272
 21
56499.999914
 31
0.0
  0
LINE
  5
6E
  8
0
  6
BYBLOCK
 62
     9
 10
350.051388
 20
56056.004353
 30
0.0
 11
879.455272
 21
56056.004353
 31
0.0
  0
LINE
  5
6F
  8
0
  6
BYBLOCK
 62
     9
 10
878.455272
 20
56479.999914
 30
0.0
 11
878.455272
 21
56331.6688
 31
0.0
  0
LINE
  5
70
  8
0
  6
BYBLOCK
 62
     9
 10
878.455272
 20
56076.004353
 30
0.0
 11
878.455272
 21
56224.335467
 31
0.0
  0
SOLID
  5
71
  8
0
  6
BYBLOCK
 62
     9
 10
875.121939
 20
56479.999914
 30
0.0
 11
881.788606
 21
56479.999914
 31
0.0
 12
878.455272
 22
56499.999914
 32
0.0
 13
878.455272
 23
56499.999914
 33
0.0
  0
SOLID
  5
72
  8
0
  6
BYBLOCK
 62
     9
 10
875.121939
 20
56076.004353
 30
0.0
 11
881.788606
 21
56076.004353
 31
0.0
 12
878.455272
 22
56056.004353
 32
0.0
 13
878.455272
 23
56056.004353
 33
0.0
  0
TEXT
  5
73
  8
0
  6
BYBLOCK
 62
    11
 10
895.955272
 20
56231.335467
 30
0.0
 40
35.0
  1
444
 50
90.0
  0
POINT
  5
74
  8
DEFPOINTS
  6
BYBLOCK
 62
     0
 10
850.056392
 20
56499.999914
 30
0.0
  0
POINT
  5
75
  8
DEFPOINTS
  6
BYBLOCK
 62
     0
 10
340.051388
 20
56056.004353
 30
0.0
  0
POINT
  5
76
  8
DEFPOINTS
  6
BYBLOCK
 62
     0
 10
878.455272
 20
56056.004353
 30
0.0
  0
ENDBLK
  5
78
  8
0
  0
BLOCK
  8
0
  2
*D1
 70
     1
 10
0.0
 20
0.0
 30
0.0
  3
*D1
  1

  0
LINE
  5
22
  8
0
  6
BYBLOCK
 62
     9
 10
-849.946392
 20
56509.999914
 30
0.0
 11
-849.946392
 21
56591.274681
 31
0.0
  0
LINE
  5
23
  8
0
  6
BYBLOCK
 62
     9
 10
850.056392
 20
56509.999914
 30
0.0
 11
850.056392
 21
56591.274681
 31
0.0
  0
LINE
  5
24
  8
0
  6
BYBLOCK
 62
     9
 10
-829.946392
 20
56590.274681
 30
0.0
 11
-59.445
 21
56590.274681
 31
0.0
  0
LINE
  5
25
  8
0
  6
BYBLOCK
 62
     9
 10
830.056392
 20
56590.274681
 30
0.0
 11
59.555
 21
56590.274681
 31
0.0
  0
SOLID
  5
26
  8
0
  6
BYBLOCK
 62
     9
 10
-829.946392
 20
56593.608014
 30
0.0
 11
-829.946392
 21
56586.941347
 31
0.0
 12
-849.946392
 22
56590.274681
 32
0.0
 13
-849.946392
 23
56590.274681
 33
0.0
  0
SOLID
  5
27
  8
0
  6
BYBLOCK
 62
     9
 10
830.056392
 20
56593.608014
 30
0.0
 11
830.056392
 21
56586.941347
 31
0.0
 12
850.056392
 22
56590.274681
 32
0.0
 13
850.056392
 23
56590.274681
 33
0.0
  0
TEXT
  5
28
  8
0
  6
BYBLOCK
 62
    11
 10
-52.445
 20
56572.774681
 30
0.0
 40
35.0
  1
1700
  0
POINT
  5
29
  8
DEFPOINTS
  6
BYBLOCK
 62
     0
 10
-849.946392
 20
56499.999914
 30
0.0
  0
POINT
  5
2B
  8
DEFPOINTS
  6
BYBLOCK
 62
     0
 10
850.056392
 20
56499.999914
 30
0.0
  0
POINT
  5
2C
  8
DEFPOINTS
  6
BYBLOCK
 62
     0
 10
850.056392
 20
56590.274681
 30
0.0
  0
ENDBLK
  5
2E
  8
0
  0
BLOCK
  8
0
  2
*D2
 70
     1
 10
0.0
 20
0.0
 30
0.0
  3
*D2
  1

  0
LINE
  5
8D
  8
0
  6
BYBLOCK
 62
     9
 10
-859.946392
 20
56499.999914
 30
0.0
 11
-902.652254
 21
56499.999914
 31
0.0
  0
LINE
  5
8E
  8
0
  6
BYBLOCK
 62
     9
 10
-859.946392
 20
55500.000086
 30
0.0
 11
-902.652254
 21
55500.000086
 31
0.0
  0
LINE
  5
8F
  8
0
  6
BYBLOCK
 62
     9
 10
-901.652254
 20
56479.999914
 30
0.0
 11
-901.652254
 21
56056.583333
 31
0.0
  0
LINE
  5
90
  8
0
  6
BYBLOCK
 62
     9
 10
-901.652254
 20
55520.000086
 30
0.0
 11
-901.652254
 21
55943.416667
 31
0.0
  0
SOLID
  5
91
  8
0
  6
BYBLOCK
 62
     9
 10
-904.985587
 20
56479.999914
 30
0.0
 11
-898.31892
 21
56479.999914
 31
0.0
 12
-901.652254
 22
56499.999914
 32
0.0
 13
-901.652254
 23
56499.999914
 33
0.0
  0
SOLID
  5
92
  8
0
  6
BYBLOCK
 62
     9
 10
-904.985587
 20
55520.000086
 30
0.0
 11
-898.31892
 21
55520.000086
 31
0.0
 12
-901.652254
 22
55500.000086
 32
0.0
 13
-901.652254
 23
55500.000086
 33
0.0
  0
TEXT
  5
93
  8
0
  6
BYBLOCK
 62
    11
 10
-884.152254
 20
55950.416667
 30
0.0
 40
35.0
  1
1000
 50
90.0
  0
POINT
  5
94
  8
DEFPOINTS
  6
BYBLOCK
 62
     0
 10
-849.946392
 20
56499.999914
 30
0.0
  0
POINT
  5
95
  8
DEFPOINTS
  6
BYBLOCK
 62
     0
 10
-849.946392
 20
55500.000086
 30
0.0
  0
POINT
  5
96
  8
DEFPOINTS
  6
BYBLOCK
 62
     0
 10
-901.652254
 20
55500.000086
 30
0.0
  0
ENDBLK
  5
98
  8
0
  0
BLOCK
  8
0
  2
*D3
 70
     1
 10
0.0
 20
0.0
 30
0.0
  3
*D3
  1

  0
LINE
  5
7E
  8
0
  6
BYBLOCK
 62
     9
 10
-849.946392
 20
56509.999914
 30
0.0
 11
-849.946392
 21
56547.484862
 31
0.0
  0
LINE
  5
7F
  8
0
  6
BYBLOCK
 62
     9
 10
340.051388
 20
56066.004353
 30
0.0
 11
340.051388
 21
56547.484862
 31
0.0
  0
LINE
  5
80
  8
0
  6
BYBLOCK
 62
     9
 10
-829.946392
 20
56546.484862
 30
0.0
 11
-311.530835
 21
56546.484862
 31
0.0
  0
LINE
  5
81
  8
0
  6
BYBLOCK
 62
     9
 10
320.051388
 20
56546.484862
 30
0.0
 11
-198.364168
 21
56546.484862
 31
0.0
  0
SOLID
  5
82
  8
0
  6
BYBLOCK
 62
     9
 10
-829.946392
 20
56549.818196
 30
0.0
 11
-829.946392
 21
56543.151529
 31
0.0
 12
-849.946392
 22
56546.484862
 32
0.0
 13
-849.946392
 23
56546.484862
 33
0.0
  0
SOLID
  5
83
  8
0
  6
BYBLOCK
 62
     9
 10
320.051388
 20
56549.818196
 30
0.0
 11
320.051388
 21
56543.151529
 31
0.0
 12
340.051388
 22
56546.484862
 32
0.0
 13
340.051388
 23
56546.484862
 33
0.0
  0
TEXT
  5
84
  8
0
  6
BYBLOCK
 62
    11
 10
-304.530835
 20
56528.984862
 30
0.0
 40
35.0
  1
1190
  0
POINT
  5
85
  8
DEFPOINTS
  6
BYBLOCK
 62
     0
 10
-849.946392
 20
56499.999914
 30
0.0
  0
POINT
  5
86
  8
DEFPOINTS
  6
BYBLOCK
 62
     0
 10
340.051388
 20
56056.004353
 30
0.0
  0
POINT
  5
87
  8
DEFPOINTS
  6
BYBLOCK
 62
     0
 10
340.051388
 20
56546.484862
 30
0.0
  0
ENDBLK
  5
89
  8
0
  0
ENDSEC
  0
SECTION
  2
ENTITIES
  0
DIMENSION
  5
20
  8
TEAM-MAS
  2
*D1
 10
850.056392
 20
590.274681
 30
0.0
 11
0.055
 21
590.274681
 31
0.0
 12
0.0
 22
-56000.0
 32
0.0
 13
-849.946392
 23
499.999914
 33
0.0
 14
850.056392
 24
499.999914
 34
0.0
1001
ACAD
1000
DSTYLE
1002
{
1070
    40
1040
1.0
1002
}
  0
POLYLINE
  5
2F
  8
TEAM-DET1
 66
     1
 10
0.0
 20
0.0
 30
0.0
 70
     2
  0
VERTEX
  5
30
  8
TEAM-DET1
 10
646.325971
 20
380.18749
 30
0.0
 42
-0.040176
  0
VERTEX
  5
31
  8
TEAM-DET1
 10
660.670564
 20
370.57681
 30
0.0
 42
-0.054185
 70
     1
  0
VERTEX
  5
32
  8
TEAM-DET1
 10
669.79407
 20
361.571649
 30
0.0
 42
-0.032967
  0
VERTEX
  5
33
  8
TEAM-DET1
 10
683.756013
 20
341.921294
 30
0.0
 42
-0.072419
 70
     1
  0
VERTEX
  5
34
  8
TEAM-DET1
 10
688.120607
 20
331.803346
 30
0.0
 42
-0.065762
  0
VERTEX
  5
35
  8
TEAM-DET1
 10
690.444101
 20
314.213833
 30
0.0
 42
-0.068993
 70
     1
  0
VERTEX
  5
36
  8
TEAM-DET1
 10
688.120607
 20
297.455478
 30
0.0
 42
-0.011584
  0
VERTEX
  5
37
  8
TEAM-DET1
 10
681.924275
 20
277.332126
 30
0.0
 42
-0.010887
 70
     1
  0
VERTEX
  5
38
  8
TEAM-DET1
 10
674.375847
 20
256.237885
 30
0.0
 42
-0.006768
  0
VERTEX
  5
39
  8
TEAM-DET1
 10
655.653346
 20
209.219946
 30
0.0
 42
-0.003677
 70
     1
  0
VERTEX
  5
3A
  8
TEAM-DET1
 10
619.395953
 20
123.425477
 30
0.0
 42
-0.011196
  0
VERTEX
  5
3B
  8
TEAM-DET1
 10
594.220294
 20
68.471434
 30
0.0
 42
-0.006006
 70
     1
  0
VERTEX
  5
3C
  8
TEAM-DET1
 10
543.798635
 20
-32.285511
 30
0.0
 42
-0.038839
  0
VERTEX
  5
3D
  8
TEAM-DET1
 10
486.331097
 20
-125.256105
 30
0.0
 42
-0.037696
 70
     1
  0
VERTEX
  5
3E
  8
TEAM-DET1
 10
413.221423
 20
-210.895078
 30
0.0
 42
-0.038373
  0
VERTEX
  5
3F
  8
TEAM-DET1
 10
347.344859
 20
-267.758252
 30
0.0
 42
-0.038334
 70
     1
  0
VERTEX
  5
40
  8
TEAM-DET1
 10
273.480942
 20
-313.939184
 30
0.0
 42
-0.020043
  0
VERTEX
  5
41
  8
TEAM-DET1
 10
204.185825
 20
-346.735146
 30
0.0
 42
-0.010973
 70
     1
  0
VERTEX
  5
42
  8
TEAM-DET1
 10
74.179077
 20
-398.664277
 30
0.0
 42
-0.020597
  0
VERTEX
  5
43
  8
TEAM-DET1
 10
-57.39079
 20
-441.810733
 30
0.0
 42
-0.024989
 70
     1
  0
VERTEX
  5
44
  8
TEAM-DET1
 10
-168.648527
 20
-467.360264
 30
0.0
 42
-0.070495
  0
VERTEX
  5
45
  8
TEAM-DET1
 10
-303.081328
 20
-472.067869
 30
0.0
 42
-0.073816
 70
     1
  0
VERTEX
  5
46
  8
TEAM-DET1
 10
-427.512063
 20
-439.881869
 30
0.0
 42
-0.013034
  0
VERTEX
  5
47
  8
TEAM-DET1
 10
-468.766361
 20
-421.13388
 30
0.0
 42
-0.012061
 70
     1
  0
VERTEX
  5
48
  8
TEAM-DET1
 10
-512.272649
 20
-398.664277
 30
0.0
 42
-0.034329
  0
VERTEX
  5
49
  8
TEAM-DET1
 10
-542.866298
 20
-379.076847
 30
0.0
 42
-0.022772
 70
     1
  0
VERTEX
  5
4A
  8
TEAM-DET1
 10
-585.293429
 20
-344.510478
 30
0.0
  0
SEQEND
  5
4C
  8
TEAM-DET1
  0
POLYLINE
  5
4D
  8
TEAM-DET1
 66
     1
 10
0.0
 20
0.0
 30
0.0
 70
     2
  0
VERTEX
  5
4E
  8
TEAM-DET1
 10
646.325971
 20
380.18749
 30
0.0
 42
0.005622
  0
VERTEX
  5
4F
  8
TEAM-DET1
 10
608.023891
 20
392.756541
 30
0.0
 42
0.024242
 70
     1
  0
VERTEX
  5
50
  8
TEAM-DET1
 10
598.97812
 20
395.137397
 30
0.0
 42
0.044644
  0
VERTEX
  5
51
  8
TEAM-DET1
 10
427.291227
 20
415.779966
 30
0.0
 42
0.020251
 70
     1
  0
VERTEX
  5
52
  8
TEAM-DET1
 10
46.688987
 20
411.948873
 30
0.0
 42
0.021141
  0
VERTEX
  5
53
  8
TEAM-DET1
 10
-248.963992
 20
384.422141
 30
0.0
 42
0.058101
 70
     1
  0
VERTEX
  5
54
  8
TEAM-DET1
 10
-353.924325
 20
357.488934
 30
0.0
 42
0.041591
  0
VERTEX
  5
55
  8
TEAM-DET1
 10
-418.376732
 20
326.323856
 30
0.0
 42
0.024525
 70
     1
  0
VERTEX
  5
56
  8
TEAM-DET1
 10
-491.655225
 20
288.295846
 30
0.0
 42
0.098845
  0
VERTEX
  5
57
  8
TEAM-DET1
 10
-629.759499
 20
165.264302
 30
0.0
 42
0.065599
 70
     1
  0
VERTEX
  5
58
  8
TEAM-DET1
 10
-681.602203
 20
97.715409
 30
0.0
 42
0.068226
  0
VERTEX
  5
59
  8
TEAM-DET1
 10
-710.792992
 20
26.161409
 30
0.0
 42
0.069617
 70
     1
  0
VERTEX
  5
5A
  8
TEAM-DET1
 10
-719.26633
 20
-49.113224
 30
0.0
 42
0.03089
  0
VERTEX
  5
5B
  8
TEAM-DET1
 10
-712.583079
 20
-124.283327
 30
0.0
 42
0.046169
 70
     1
  0
VERTEX
  5
5C
  8
TEAM-DET1
 10
-700.434124
 20
-173.352779
 30
0.0
 42
0.02374
  0
VERTEX
  5
5D
  8
TEAM-DET1
 10
-676.566911
 20
-232.686292
 30
0.0
 42
0.042643
 70
     1
  0
VERTEX
  5
5E
  8
TEAM-DET1
 10
-659.00367
 20
-263.708842
 30
0.0
 42
0.021914
  0
VERTEX
  5
5F
  8
TEAM-DET1
 10
-637.926433
 20
-291.770509
 30
0.0
 42
0.017692
 70
     1
  0
VERTEX
  5
60
  8
TEAM-DET1
 10
-609.157063
 20
-324.347561
 30
0.0
 42
0.027624
  0
VERTEX
  5
61
  8
TEAM-DET1
 10
-601.926974
 20
-331.175128
 30
0.0
 42
0.012877
 70
     1
  0
VERTEX
  5
62
  8
TEAM-DET1
 10
-585.293429
 20
-344.510478
 30
0.0
  0
SEQEND
  5
63
  8
TEAM-DET1
  0
LINE
  5
64
  8
TEAM-BODY
 10
-849.946392
 20
499.999914
 30
0.0
 11
850.056392
 21
499.999914
 31
0.0
  0
ARC
  5
66
  8
TEAM-BODY
 10
-403.158927
 20
685.464917
 30
0.0
 40
1266.864596
 50
249.349176
 51
351.581823
  0
POLYLINE
  5
67
  8
TEAM-BODY
 66
     1
 10
0.0
 20
0.0
 30
0.0
  0
VERTEX
  5
228
  8
TEAM-BODY
 10
516.847842
 20
325.162348
 30
0.0
 42
-0.168555
  0
VERTEX
  5
229
  8
TEAM-BODY
 10
558.4659
 20
250.587431
 30
0.0
 42
-0.138009
  0
VERTEX
  5
22A
  8
TEAM-BODY
 10
541.412642
 20
145.517229
 30
0.0
 42
-0.011196
  0
VERTEX
  5
22B
  8
TEAM-BODY
 10
517.169476
 20
92.598655
 30
0.0
 42
-0.006006
  0
VERTEX
  5
22C
  8
TEAM-BODY
 10
467.28536
 20
-7.084124
 30
0.0
 42
-0.038839
  0
VERTEX
  5
22D
  8
TEAM-BODY
 10
413.895864
 20
-93.45729
 30
0.0
 42
-0.037696
  0
VERTEX
  5
22E
  8
TEAM-BODY
 10
345.674303
 20
-173.370441
 30
0.0
 42
-0.038373
  0
VERTEX
  5
22F
  8
TEAM-BODY
 10
285.598876
 20
-225.226204
 30
0.0
 42
-0.038334
  0
VERTEX
  5
230
  8
TEAM-BODY
 10
218.226254
 20
-267.348672
 30
0.0
 42
-0.020043
  0
VERTEX
  5
231
  8
TEAM-BODY
 10
152.552949
 20
-298.430504
 30
0.0
 42
-0.010973
  0
VERTEX
  5
232
  8
TEAM-BODY
 10
24.583961
 20
-349.545684
 30
0.0
 42
-0.020597
  0
VERTEX
  5
233
  8
TEAM-BODY
 10
-103.07321
 20
-391.409027
 30
0.0
 42
-0.024989
  0
VERTEX
  5
234
  8
TEAM-BODY
 10
-209.463032
 20
-415.840677
 30
0.0
 42
-0.070495
  0
VERTEX
  5
235
  8
TEAM-BODY
 10
-329.875055
 20
-420.057299
 30
0.0
 42
-0.073816
  0
VERTEX
  5
236
  8
TEAM-BODY
 10
-440.090525
 20
-391.548305
 30
0.0
 42
-0.013034
  0
VERTEX
  5
237
  8
TEAM-BODY
 10
-478.972073
 20
-373.878611
 30
0.0
 42
-0.012061
  0
VERTEX
  5
238
  8
TEAM-BODY
 10
-520.33538
 20
-352.515788
 30
0.0
 42
-0.034329
  0
VERTEX
  5
239
  8
TEAM-BODY
 10
-545.15366
 20
-336.626009
 30
0.0
 42
-0.022772
  0
VERTEX
  5
23A
  8
TEAM-BODY
 10
-584.051678
 20
-304.934891
 30
0.0
 42
-0.022772
  0
SEQEND
  5
23B
  8
TEAM-BODY
  0
POLYLINE
  5
68
  8
TEAM-KAN
 66
     1
 10
0.0
 20
0.0
 30
0.0
  0
VERTEX
  5
23C
  8
TEAM-KAN
 10
478.126281
 20
-76.165606
 30
0.0
  0
VERTEX
  5
23D
  8
TEAM-KAN
 10
479.849246
 20
-76.779487
 30
0.0
  0
VERTEX
  5
23E
  8
TEAM-KAN
 10
482.135437
 20
-76.54401
 30
0.0
  0
VERTEX
  5
23F
  8
TEAM-KAN
 10
484.92856
 20
-75.46497
 30
0.0
  0
VERTEX
  5
240
  8
TEAM-KAN
 10
488.159838
 20
-73.568939
 30
0.0
  0
VERTEX
  5
241
  8
TEAM-KAN
 10
491.749708
 20
-70.902602
 30
0.0
  0
VERTEX
  5
242
  8
TEAM-KAN
 10
495.609773
 20
-67.531614
 30
0.0
  0
VERTEX
  5
243
  8
TEAM-KAN
 10
499.644987
 20
-63.538979
 30
0.0
  0
VERTEX
  5
244
  8
TEAM-KAN
 10
503.755989
 20
-59.02301
 30
0.0
  0
VERTEX
  5
245
  8
TEAM-KAN
 10
507.841554
 20
-54.094905
 30
0.0
  0
VERTEX
  5
246
  8
TEAM-KAN
 10
511.801081
 20
-48.876009
 30
0.0
  0
VERTEX
  5
247
  8
TEAM-KAN
 10
515.537072
 20
-43.49483
 30
0.0
  0
VERTEX
  5
248
  8
TEAM-KAN
 10
518.957535
 20
-38.083869
 30
0.0
  0
VERTEX
  5
249
  8
TEAM-KAN
 10
521.978248
 20
-32.776365
 30
0.0
  0
VERTEX
  5
24A
  8
TEAM-KAN
 10
524.524831
 20
-27.703002
 30
0.0
  0
VERTEX
  5
24B
  8
TEAM-KAN
 10
526.534577
 20
-22.988706
 30
0.0
  0
VERTEX
  5
24C
  8
TEAM-KAN
 10
527.958001
 20
-18.749558
 30
0.0
  0
VERTEX
  5
24D
  8
TEAM-KAN
 10
528.760053
 20
-15.08994
 30
0.0
  0
VERTEX
  5
24E
  8
TEAM-KAN
 10
528.920984
 20
-12.099963
 30
0.0
  0
VERTEX
  5
24F
  8
TEAM-KAN
 10
528.43683
 20
-9.853251
 30
0.0
  0
VERTEX
  5
250
  8
TEAM-KAN
 10
527.319515
 20
-8.405125
 30
0.0
  0
SEQEND
  5
251
  8
TEAM-KAN
  0
POLYLINE
  5
6A
  8
TEAM-KAN
 66
     1
 10
0.0
 20
0.0
 30
0.0
  0
VERTEX
  5
252
  8
TEAM-KAN
 10
483.189372
 20
-77.832435
 30
0.0
  0
VERTEX
  5
253
  8
TEAM-KAN
 10
485.021671
 20
-78.176621
 30
0.0
  0
VERTEX
  5
254
  8
TEAM-KAN
 10
487.401235
 20
-77.673286
 30
0.0
  0
VERTEX
  5
255
  8
TEAM-KAN
 10
490.267295
 20
-76.335287
 30
0.0
  0
VERTEX
  5
256
  8
TEAM-KAN
 10
493.546652
 20
-74.196794
 30
0.0
  0
VERTEX
  5
257
  8
TEAM-KAN
 10
497.155554
 20
-71.312423
 30
0.0
  0
VERTEX
  5
258
  8
TEAM-KAN
 10
501.001835
 20
-67.755837
 30
0.0
  0
VERTEX
  5
259
  8
TEAM-KAN
 10
504.987265
 20
-63.617869
 30
0.0
  0
VERTEX
  5
25A
  8
TEAM-KAN
 10
509.010058
 20
-59.004198
 30
0.0
  0
VERTEX
  5
25B
  8
TEAM-KAN
 10
512.967476
 20
-54.032653
 30
0.0
  0
VERTEX
  5
25C
  8
TEAM-KAN
 10
516.758451
 20
-48.830202
 30
0.0
  0
VERTEX
  5
25D
  8
TEAM-KAN
 10
520.286164
 20
-43.529712
 30
0.0
  0
VERTEX
  5
25E
  8
TEAM-KAN
 10
523.460522
 20
-38.266551
 30
0.0
  0
VERTEX
  5
25F
  8
TEAM-KAN
 10
526.200453
 20
-33.175137
 30
0.0
  0
VERTEX
  5
260
  8
TEAM-KAN
 10
528.435984
 20
-28.385499
 30
0.0
  0
VERTEX
  5
261
  8
TEAM-KAN
 10
530.11002
 20
-24.019958
 30
0.0
  0
VERTEX
  5
262
  8
TEAM-KAN
 10
531.179808
 20
-20.190009
 30
0.0
  0
VERTEX
  5
263
  8
TEAM-KAN
 10
531.618028
 20
-16.993464
 30
0.0
  0
VERTEX
  5
264
  8
TEAM-KAN
 10
531.413486
 20
-14.511959
 30
0.0
  0
VERTEX
  5
265
  8
TEAM-KAN
 10
530.571408
 20
-12.80887
 30
0.0
  0
SEQEND
  5
266
  8
TEAM-KAN
  0
DIMENSION
  5
6B
  8
TEAM-MAS
  2
*D0
 10
878.455272
 20
56.004353
 30
0.0
 11
878.455272
 21
278.002134
 31
0.0
 12
0.0
 22
-56000.0
 32
0.0
 13
850.056392
 23
499.999914
 33
0.0
 14
340.051388
 24
56.004353
 34
0.0
 50
90.0
1001
ACAD
1000
DSTYLE
1002
{
1070
    40
1040
1.0
1002
}
  0
POLYLINE
  5
79
  8
TEAM-DET1
 66
     1
 10
0.0
 20
0.0
 30
0.0
  0
VERTEX
  5
267
  8
TEAM-DET1
 10
199.666032
 20
-372.532399
 30
0.0
 42
-0.013445
  0
VERTEX
  5
268
  8
TEAM-DET1
 10
150.44069
 20
-395.039788
 30
0.0
 42
-0.010973
  0
VERTEX
  5
269
  8
TEAM-DET1
 10
18.396181
 20
-447.78287
 30
0.0
 42
-0.020597
  0
VERTEX
  5
26A
  8
TEAM-DET1
 10
-117.086381
 20
-492.212438
 30
0.0
 42
-0.024989
  0
VERTEX
  5
26B
  8
TEAM-DET1
 10
-233.212032
 20
-518.879851
 30
0.0
 42
-0.070495
  0
VERTEX
  5
26C
  8
TEAM-DET1
 10
-381.665613
 20
-524.078439
 30
0.0
 42
-0.073816
  0
VERTEX
  5
26D
  8
TEAM-DET1
 10
-520.311611
 20
-488.215434
 30
0.0
 42
-0.013034
  0
VERTEX
  5
26E
  8
TEAM-DET1
 10
-563.938661
 20
-468.38915
 30
0.0
 42
-0.012061
  0
VERTEX
  5
26F
  8
TEAM-DET1
 10
-609.587929
 20
-444.812766
 30
0.0
 42
-0.034329
  0
VERTEX
  5
270
  8
TEAM-DET1
 10
-645.956948
 20
-421.527684
 30
0.0
 42
-0.022772
  0
VERTEX
  5
271
  8
TEAM-DET1
 10
-691.913191
 20
-384.086066
 30
0.0
 42
-0.022772
  0
SEQEND
  5
272
  8
TEAM-DET1
  0
POLYLINE
  5
7A
  8
TEAM-DET1
 66
     1
 10
0.0
 20
0.0
 30
0.0
  0
VERTEX
  5
273
  8
TEAM-DET1
 10
317.00668
 20
482.934768
 30
0.0
 42
0.00434
  0
VERTEX
  5
274
  8
TEAM-DET1
 10
-29.144431
 20
459.595068
 30
0.0
 42
0.021141
  0
VERTEX
  5
275
  8
TEAM-DET1
 10
-329.005545
 20
431.676537
 30
0.0
 42
0.058101
  0
VERTEX
  5
276
  8
TEAM-DET1
 10
-445.183504
 20
401.864846
 30
0.0
 42
0.040221
  0
VERTEX
  5
277
  8
TEAM-DET1
 10
-514.841303
 20
368.417629
 30
0.0
 42
0.023826
  0
VERTEX
  5
278
  8
TEAM-DET1
 10
-590.20373
 20
329.1666
 30
0.0
 42
0.09721
  0
VERTEX
  5
279
  8
TEAM-DET1
 10
-740.899839
 20
195.828749
 30
0.0
 42
0.063241
  0
VERTEX
  5
27A
  8
TEAM-DET1
 10
-798.210208
 20
120.424973
 30
0.0
 42
0.068226
  0
VERTEX
  5
27B
  8
TEAM-DET1
 10
-832.531364
 20
36.295146
 30
0.0
 42
0.069617
  0
VERTEX
  5
27C
  8
TEAM-DET1
 10
-842.55465
 20
-52.74876
 30
0.0
 42
0.03089
  0
VERTEX
  5
27D
  8
TEAM-DET1
 10
-835.324811
 20
-134.066628
 30
0.0
 42
0.046169
  0
VERTEX
  5
27E
  8
TEAM-DET1
 10
-820.961434
 20
-192.080101
 30
0.0
 42
0.02374
  0
VERTEX
  5
27F
  8
TEAM-DET1
 10
-795.323293
 20
-255.816109
 30
0.0
 42
0.042643
  0
VERTEX
  5
280
  8
TEAM-DET1
 10
-773.565953
 20
-294.246841
 30
0.0
 42
0.021914
  0
VERTEX
  5
281
  8
TEAM-DET1
 10
-749.857854
 20
-325.811166
 30
0.0
 42
0.017692
  0
VERTEX
  5
282
  8
TEAM-DET1
 10
-718.746932
 20
-361.039679
 30
0.0
 42
0.027624
  0
VERTEX
  5
283
  8
TEAM-DET1
 10
-707.503098
 20
-371.657533
 30
0.0
 42
0.012877
  0
VERTEX
  5
284
  8
TEAM-DET1
 10
-688.860447
 20
-386.603612
 30
0.0
 42
0.012877
  0
SEQEND
  5
285
  8
TEAM-DET1
  0
POLYLINE
  5
7B
  8
TEAM-BODY
 66
     1
 10
0.0
 20
0.0
 30
0.0
  0
VERTEX
  5
286
  8
TEAM-BODY
 10
516.847842
 20
325.162348
 30
0.0
 42
0.140522
  0
VERTEX
  5
287
  8
TEAM-BODY
 10
393.69837
 20
368.093023
 30
0.0
 42
0.020251
  0
VERTEX
  5
288
  8
TEAM-BODY
 10
17.144394
 20
364.302679
 30
0.0
 42
0.021141
  0
VERTEX
  5
289
  8
TEAM-BODY
 10
-274.30045
 20
337.167744
 30
0.0
 42
0.058101
  0
VERTEX
  5
28A
  8
TEAM-BODY
 10
-368.043158
 20
313.113021
 30
0.0
 42
0.043273
  0
VERTEX
  5
28B
  8
TEAM-BODY
 10
-427.218818
 20
284.253883
 30
0.0
 42
0.025335
  0
VERTEX
  5
28C
  8
TEAM-BODY
 10
-498.483232
 20
247.425959
 30
0.0
 42
0.10092
  0
VERTEX
  5
28D
  8
TEAM-BODY
 10
-624.028438
 20
134.61466
 30
0.0
 42
0.068739
  0
VERTEX
  5
28E
  8
TEAM-BODY
 10
-670.372209
 20
75.005845
 30
0.0
 42
0.068226
  0
VERTEX
  5
28F
  8
TEAM-BODY
 10
-694.43263
 20
16.027671
 30
0.0
 42
0.069617
  0
VERTEX
  5
290
  8
TEAM-BODY
 10
-701.356022
 20
-45.477689
 30
0.0
 42
0.03089
  0
VERTEX
  5
291
  8
TEAM-BODY
 10
-695.219358
 20
-114.500026
 30
0.0
 42
0.046169
  0
VERTEX
  5
292
  8
TEAM-BODY
 10
-685.284826
 20
-154.625458
 30
0.0
 42
0.02374
  0
VERTEX
  5
293
  8
TEAM-BODY
 10
-663.188539
 20
-209.556475
 30
0.0
 42
0.042643
  0
VERTEX
  5
294
  8
TEAM-BODY
 10
-649.819398
 20
-233.170844
 30
0.0
 42
0.021914
  0
VERTEX
  5
295
  8
TEAM-BODY
 10
-631.373023
 20
-257.729852
 30
0.0
 42
0.017692
  0
VERTEX
  5
296
  8
TEAM-BODY
 10
-604.945204
 20
-287.655444
 30
0.0
 42
0.027624
  0
VERTEX
  5
297
  8
TEAM-BODY
 10
-601.728861
 20
-290.692723
 30
0.0
 42
0.012877
  0
VERTEX
  5
298
  8
TEAM-BODY
 10
-587.104422
 20
-302.417344
 30
0.0
 42
0.012877
  0
SEQEND
  5
299
  8
TEAM-BODY
  0
DIMENSION
  5
7C
  8
TEAM-MAS
  2
*D3
 10
340.051388
 20
546.484862
 30
0.0
 11
-254.947502
 21
546.484862
 31
0.0
 12
0.0
 22
-56000.0
 32
0.0
 13
-849.946392
 23
499.999914
 33
0.0
 14
340.051388
 24
56.004353
 34
0.0
1001
ACAD
1000
DSTYLE
1002
{
1070
    40
1040
1.0
1002
}
  0
LINE
  5
8A
  8
TEAM-BODY
 10
-849.946392
 20
499.999914
 30
0.0
 11
-849.946392
 21
-499.999914
 31
0.0
  0
DIMENSION
  5
8B
  8
TEAM-MAS
  2
*D2
 10
-901.652254
 20
-499.999914
 30
0.0
 11
-901.652254
 21
0.0
 31
0.0
 12
0.0
 22
-56000.0
 32
0.0
 13
-849.946392
 23
499.999914
 33
0.0
 14
-849.946392
 24
-499.999914
 34
0.0
 50
90.0
1001
ACAD
1000
DSTYLE
1002
{
1070
    40
1040
1.0
1002
}
  0
POLYLINE
  5
99
  8
TEAM-KAN
 66
     1
 10
0.0
 20
0.0
 30
0.0
  0
VERTEX
  5
29A
  8
TEAM-KAN
 10
524.958215
 20
-6.690852
 30
0.0
  0
VERTEX
  5
29B
  8
TEAM-KAN
 10
524.433532
 20
-6.385044
 30
0.0
  0
VERTEX
  5
29C
  8
TEAM-KAN
 10
523.838961
 20
-6.178488
 30
0.0
  0
VERTEX
  5
29D
  8
TEAM-KAN
 10
523.176228
 20
-6.071785
 30
0.0
  0
VERTEX
  5
29E
  8
TEAM-KAN
 10
522.447256
 20
-6.065244
 30
0.0
  0
VERTEX
  5
29F
  8
TEAM-KAN
 10
521.654162
 20
-6.158886
 30
0.0
  0
VERTEX
  5
2A0
  8
TEAM-KAN
 10
520.79925
 20
-6.352435
 30
0.0
  0
VERTEX
  5
2A1
  8
TEAM-KAN
 10
519.885001
 20
-6.645334
 30
0.0
  0
VERTEX
  5
2A2
  8
TEAM-KAN
 10
518.914068
 20
-7.036729
 30
0.0
  0
VERTEX
  5
2A3
  8
TEAM-KAN
 10
517.889273
 20
-7.525486
 30
0.0
  0
VERTEX
  5
2A4
  8
TEAM-KAN
 10
516.813589
 20
-8.110184
 30
0.0
  0
SEQEND
  5
2A5
  8
TEAM-KAN
  0
POLYLINE
  5
9A
  8
TEAM-KAN
 66
     1
 10
0.0
 20
0.0
 30
0.0
  0
VERTEX
  5
2A6
  8
TEAM-KAN
 10
493.418774
 20
-21.553036
 30
0.0
  0
VERTEX
  5
2A7
  8
TEAM-KAN
 10
491.491642
 20
-22.776433
 30
0.0
  0
VERTEX
  5
2A8
  8
TEAM-KAN
 10
489.653991
 20
-24.179344
 30
0.0
  0
VERTEX
  5
2A9
  8
TEAM-KAN
 10
487.92436
 20
-25.747615
 30
0.0
  0
VERTEX
  5
2AA
  8
TEAM-KAN
 10
486.320196
 20
-27.465427
 30
0.0
  0
VERTEX
  5
2AB
  8
TEAM-KAN
 10
484.857684
 20
-29.315451
 30
0.0
  0
VERTEX
  5
2AC
  8
TEAM-KAN
 10
483.551575
 20
-31.279022
 30
0.0
  0
VERTEX
  5
2AD
  8
TEAM-KAN
 10
482.415049
 20
-33.336333
 30
0.0
  0
VERTEX
  5
2AE
  8
TEAM-KAN
 10
481.459569
 20
-35.466628
 30
0.0
  0
VERTEX
  5
2AF
  8
TEAM-KAN
 10
480.694773
 20
-37.648418
 30
0.0
  0
VERTEX
  5
2B0
  8
TEAM-KAN
 10
480.128378
 20
-39.859692
 30
0.0
  0
SEQEND
  5
2B1
  8
TEAM-KAN
  0
LINE
  5
9B
  8
TEAM-KAN
 10
493.418774
 20
-21.553036
 30
0.0
 11
516.813589
 21
-8.110184
 31
0.0
  0
LINE
  5
9C
  8
TEAM-KAN
 10
524.958215
 20
-6.690852
 30
0.0
 11
527.319515
 21
-8.405125
 31
0.0
  0
LINE
  5
9D
  8
TEAM-KAN
 10
475.764981
 20
-74.451333
 30
0.0
 11
478.126281
 21
-76.165606
 31
0.0
  0
LINE
  5
9E
  8
TEAM-KAN
 10
481.026636
 20
-76.75682
 30
0.0
 11
483.189372
 21
-77.832435
 31
0.0
  0
POLYLINE
  5
9F
  8
TEAM-KAN
 66
     1
 10
0.0
 20
0.0
 30
0.0
  0
VERTEX
  5
2B2
  8
TEAM-KAN
 10
474.592065
 20
-66.267586
 30
0.0
  0
VERTEX
  5
2B3
  8
TEAM-KAN
 10
474.144476
 20
-69.891907
 30
0.0
  0
VERTEX
  5
2B4
  8
TEAM-KAN
 10
474.500125
 20
-72.6179
 30
0.0
  0
VERTEX
  5
2B5
  8
TEAM-KAN
 10
475.648115
 20
-74.362046
 30
0.0
  0
VERTEX
  5
2B6
  8
TEAM-KAN
 10
477.553273
 20
-75.070909
 30
0.0
  0
VERTEX
  5
2B7
  8
TEAM-KAN
 10
480.157231
 20
-74.722769
 30
0.0
  0
VERTEX
  5
2B8
  8
TEAM-KAN
 10
483.380208
 20
-73.328295
 30
0.0
  0
VERTEX
  5
2B9
  8
TEAM-KAN
 10
487.12346
 20
-70.930208
 30
0.0
  0
VERTEX
  5
2BA
  8
TEAM-KAN
 10
491.2723
 20
-67.601983
 30
0.0
  0
VERTEX
  5
2BB
  8
TEAM-KAN
 10
495.699617
 20
-63.445588
 30
0.0
  0
VERTEX
  5
2BC
  8
TEAM-KAN
 10
500.269766
 20
-58.588366
 30
0.0
  0
VERTEX
  5
2BD
  8
TEAM-KAN
 10
504.84273
 20
-53.179134
 30
0.0
  0
VERTEX
  5
2BE
  8
TEAM-KAN
 10
509.278401
 20
-47.383617
 30
0.0
  0
VERTEX
  5
2BF
  8
TEAM-KAN
 10
513.440881
 20
-41.379378
 30
0.0
  0
VERTEX
  5
2C0
  8
TEAM-KAN
 10
517.202638
 20
-35.350376
 30
0.0
  0
VERTEX
  5
2C1
  8
TEAM-KAN
 10
520.448421
 20
-29.481326
 30
0.0
  0
VERTEX
  5
2C2
  8
TEAM-KAN
 10
523.078786
 20
-23.952042
 30
0.0
  0
VERTEX
  5
2C3
  8
TEAM-KAN
 10
525.013146
 20
-18.931931
 30
0.0
  0
VERTEX
  5
2C4
  8
TEAM-KAN
 10
526.192233
 20
-14.574799
 30
0.0
  0
VERTEX
  5
2C5
  8
TEAM-KAN
 10
526.579923
 20
-11.014139
 30
0.0
  0
VERTEX
  5
2C6
  8
TEAM-KAN
 10
526.16434
 20
-8.359041
 30
0.0
  0
VERTEX
  5
2C7
  8
TEAM-KAN
 10
524.958215
 20
-6.690852
 30
0.0
  0
SEQEND
  5
2C8
  8
TEAM-KAN
  0
LINE
  5
A0
  8
TEAM-KAN
 10
480.128378
 20
-39.859692
 30
0.0
 11
474.592065
 21
-66.267586
 31
0.0
  0
LINE
  5
A1
  8
TEAM-AXE
 10
376.704698
 20
92.657663
 30
0.0
 11
303.398078
 21
19.351043
 31
0.0
  0
CIRCLE
  5
A4
  8
TEAM-KAN
 10
340.051388
 20
56.004353
 30
0.0
 40
25.917804
  0
LINE
  5
A5
  8
TEAM-AXE
 10
303.398078
 20
92.657663
 30
0.0
 11
376.704698
 21
19.351043
 31
0.0
  0
CIRCLE
  5
A6
  8
TEAM-DET1
 10
340.051388
 20
56.004353
 30
0.0
 40
51.835608
  0
CIRCLE
  5
A7
  8
TEAM-INSP
 10
0.0
 20
0.0
 30
0.0
 40
10.822819
  0
TEXT
  5
A9
  8
TEAM-TXT
 10
-301.516627
 20
217.309951
 30
0.0
 40
32.468458
  1
team 121137
 41
0.8
 51
15.0
  7
TEAM
  0
LINE
  5
AC
  8
TEAM-KAN
 10
528.726522
 20
-10.736138
 30
0.0
 11
530.571408
 21
-12.80887
 31
0.0
  0
ENDSEC
  0
EOF
