  0
SECTION
  2
HEADER
  9
$ACADVER
  1
AC1009
  9
$INSBASE
 10
0.0
 20
0.0
 30
0.0
  9
$EXTMIN
 10
-847.626526
 20
-690.707438
 30
0.0
  9
$EXTMAX
 10
846.574038
 20
644.560054
 30
0.0
  9
$LIMMIN
 10
-847.626526
 20
-690.707438
  9
$LIMMAX
 10
846.574038
 20
644.560054
  9
$ORTHOMODE
 70
     1
  9
$REGENMODE
 70
     1
  9
$FILLMODE
 70
     1
  9
$QTEXTMODE
 70
     0
  9
$MIRRTEXT
 70
     0
  9
$DRAGMODE
 70
     2
  9
$LTSCALE
 40
25.0
  9
$OSMODE
 70
     0
  9
$ATTMODE
 70
     1
  9
$TEXTSIZE
 40
200.0
  9
$TRACEWID
 40
1.0
  9
$TEXTSTYLE
  7
STANDARD
  9
$CLAYER
  8
TEAM-MAS
  9
$CELTYPE
  6
BYLAYER
  9
$CECOLOR
 62
   256
  9
$DIMSCALE
 40
0.0
  9
$DIMASZ
 40
20.0
  9
$DIMEXO
 40
10.0
  9
$DIMDLI
 40
1.0
  9
$DIMRND
 40
0.0
  9
$DIMDLE
 40
0.0
  9
$DIMEXE
 40
1.0
  9
$DIMTP
 40
0.0
  9
$DIMTM
 40
0.0
  9
$DIMTXT
 40
35.0
  9
$DIMCEN
 40
1.0
  9
$DIMTSZ
 40
0.0
  9
$DIMTOL
 70
     0
  9
$DIMLIM
 70
     0
  9
$DIMTIH
 70
     0
  9
$DIMTOH
 70
     0
  9
$DIMSE1
 70
     0
  9
$DIMSE2
 70
     0
  9
$DIMTAD
 70
     0
  9
$DIMZIN
 70
     0
  9
$DIMBLK
  1

  9
$DIMASO
 70
     1
  9
$DIMSHO
 70
     0
  9
$DIMPOST
  1

  9
$DIMAPOST
  1

  9
$DIMALT
 70
     0
  9
$DIMALTD
 70
     2
  9
$DIMALTF
 40
25.4
  9
$DIMLFAC
 40
1.0
  9
$DIMTOFL
 70
     0
  9
$DIMTVP
 40
0.0
  9
$DIMTIX
 70
     0
  9
$DIMSOXD
 70
     0
  9
$DIMSAH
 70
     0
  9
$DIMBLK1
  1

  9
$DIMBLK2
  1

  9
$DIMSTYLE
  2
TEAM
  9
$DIMCLRD
 70
     9
  9
$DIMCLRE
 70
     9
  9
$DIMCLRT
 70
    11
  9
$DIMTFAC
 40
1.0
  9
$DIMGAP
 40
15.0
  9
$LUNITS
 70
     2
  9
$LUPREC
 70
     1
  9
$SKETCHINC
 40
1.0
  9
$FILLETRAD
 40
50.0
  9
$AUNITS
 70
     0
  9
$AUPREC
 70
     0
  9
$MENU
  1
ROPLANS
  9
$ELEVATION
 40
0.0
  9
$PELEVATION
 40
0.0
  9
$THICKNESS
 40
0.0
  9
$LIMCHECK
 70
     0
  9
$BLIPMODE
 70
     1
  9
$CHAMFERA
 40
0.0
  9
$CHAMFERB
 40
0.0
  9
$SKPOLY
 70
     0
  9
$TDCREATE
 40
2450392.957851
  9
$TDUPDATE
 40
2455493.900056
  9
$TDINDWG
 40
2.014927
  9
$TDUSRTIMER
 40
2.014927
  9
$USRTIMER
 70
     1
  9
$ANGBASE
 50
0.0
  9
$ANGDIR
 70
     0
  9
$PDMODE
 70
     0
  9
$PDSIZE
 40
0.0
  9
$PLINEWID
 40
0.0
  9
$COORDS
 70
     2
  9
$SPLFRAME
 70
     0
  9
$SPLINETYPE
 70
     6
  9
$SPLINESEGS
 70
     8
  9
$ATTDIA
 70
     0
  9
$ATTREQ
 70
     0
  9
$HANDLING
 70
     1
  9
$HANDSEED
  5
2A5
  9
$SURFTAB1
 70
    24
  9
$SURFTAB2
 70
    24
  9
$SURFTYPE
 70
     6
  9
$SURFU
 70
     6
  9
$SURFV
 70
     6
  9
$UCSNAME
  2

  9
$UCSORG
 10
0.0
 20
0.0
 30
0.0
  9
$UCSXDIR
 10
1.0
 20
0.0
 30
0.0
  9
$UCSYDIR
 10
0.0
 20
1.0
 30
0.0
  9
$PUCSNAME
  2

  9
$PUCSORG
 10
0.0
 20
0.0
 30
0.0
  9
$PUCSXDIR
 10
1.0
 20
0.0
 30
0.0
  9
$PUCSYDIR
 10
0.0
 20
1.0
 30
0.0
  9
$USERI1
 70
     0
  9
$USERI2
 70
     0
  9
$USERI3
 70
     0
  9
$USERI4
 70
     0
  9
$USERI5
 70
     0
  9
$USERR1
 40
0.0
  9
$USERR2
 40
0.0
  9
$USERR3
 40
0.0
  9
$USERR4
 40
0.0
  9
$USERR5
 40
0.0
  9
$WORLDVIEW
 70
     1
  9
$SHADEDGE
 70
     0
  9
$SHADEDIF
 70
    70
  9
$TILEMODE
 70
     1
  9
$MAXACTVP
 70
    16
  9
$PLIMCHECK
 70
     0
  9
$PEXTMIN
 10
-0.805942
 20
0.005011
 30
0.0
  9
$PEXTMAX
 10
20.250094
 20
11.356329
 30
0.0
  9
$PLIMMIN
 10
0.0
 20
0.0
  9
$PLIMMAX
 10
12.0
 20
9.0
  9
$UNITMODE
 70
     0
  9
$VISRETAIN
 70
     0
  9
$PLINEGEN
 70
     0
  9
$PSLTSCALE
 70
     0
  0
ENDSEC
  0
SECTION
  2
TABLES
  0
TABLE
  2
VPORT
 70
     2
  0
VPORT
  2
*ACTIVE
 70
     0
 10
0.0
 20
0.0
 11
1.0
 21
1.0
 12
-0.526244
 22
-23.073692
 13
0.0
 23
0.0
 14
1.0
 24
1.0
 15
50.0
 25
50.0
 16
0.0
 26
0.0
 36
1.0
 17
0.0
 27
0.0
 37
0.0
 40
1343.467702
 41
1.865779
 42
50.0
 43
0.0
 44
0.0
 50
0.0
 51
0.0
 71
     0
 72
   100
 73
     1
 74
     1
 75
     0
 76
     0
 77
     0
 78
     0
  0
ENDTAB
  0
TABLE
  2
LTYPE
 70
     2
  0
LTYPE
  2
CONTINUOUS
 70
     0
  3
Solid Line
 72
    65
 73
     0
 40
0.0
  0
LTYPE
  2
31
 70
     0
  3

 72
    65
 73
     4
 40
2.1
 49
1.5
 49
-0.3
 49
0.0
 49
-0.3
  0
ENDTAB
  0
TABLE
  2
LAYER
 70
     8
  0
LAYER
  2
0
 70
     0
 62
     7
  6
CONTINUOUS
  0
LAYER
  2
DEFPOINTS
 70
     0
 62
     7
  6
CONTINUOUS
  0
LAYER
  2
TEAM-BODY
 70
     0
 62
     2
  6
CONTINUOUS
  0
LAYER
  2
TEAM-AXE
 70
     0
 62
    10
  6
31
  0
LAYER
  2
TEAM-MAS
 70
     0
 62
     9
  6
CONTINUOUS
  0
LAYER
  2
TEAM-TXT
 70
     0
 62
    11
  6
CONTINUOUS
  0
LAYER
  2
TEAM-DET1
 70
     0
 62
     4
  6
CONTINUOUS
  0
LAYER
  2
TEAM-INSP
 70
     0
 62
     5
  6
CONTINUOUS
  0
ENDTAB
  0
TABLE
  2
STYLE
 70
     2
  0
STYLE
  2
STANDARD
 70
     0
 40
0.0
 41
1.0
 50
0.0
 71
     0
 42
200.0
  3
txt
  4

  0
STYLE
  2
TEAM
 70
     0
 40
0.0
 41
0.8
 50
15.0
 71
     0
 42
7.0
  3
ROMANS.shx
  4

  0
ENDTAB
  0
TABLE
  2
VIEW
 70
     0
  0
ENDTAB
  0
TABLE
  2
UCS
 70
     0
  0
ENDTAB
  0
TABLE
  2
APPID
 70
     1
  0
APPID
  2
ACAD
 70
     0
  0
ENDTAB
  0
TABLE
  2
DIMSTYLE
 70
     1
  0
DIMSTYLE
  2
TEAM
 70
     0
  3

  4

  5

  6

  7

 40
0.0
 41
20.0
 42
10.0
 43
1.0
 44
1.0
 45
0.0
 46
0.0
 47
0.0
 48
0.0
140
35.0
141
1.0
142
0.0
143
25.4
144
1.0
145
0.0
146
1.0
147
15.0
 71
     0
 72
     0
 73
     0
 74
     0
 75
     0
 76
     0
 77
     0
 78
     0
170
     0
171
     2
172
     0
173
     0
174
     0
175
     0
176
     9
177
     9
178
    11
  0
ENDTAB
  0
ENDSEC
  0
SECTION
  2
BLOCKS
  0
BLOCK
  8
0
  2
$MODEL_SPACE
 70
     0
 10
0.0
 20
0.0
 30
0.0
  3
$MODEL_SPACE
  1

  0
ENDBLK
  5
267
  8
0
  0
BLOCK
 67
     1
  8
0
  2
$PAPER_SPACE
 70
     0
 10
0.0
 20
0.0
 30
0.0
  3
$PAPER_SPACE
  1

  0
ENDBLK
  5
265
 67
     1
  8
0
  0
BLOCK
  8
0
  2
*D0
 70
     1
 10
0.0
 20
0.0
 30
0.0
  3
*D0
  1

  0
LINE
  5
39
  8
0
  6
BYBLOCK
 62
     9
 10
4775.0
 20
172535.0
 30
0.0
 11
4775.0
 21
172578.749982
 31
0.0
  0
LINE
  5
3A
  8
0
  6
BYBLOCK
 62
     9
 10
3537.002446
 20
172217.004138
 30
0.0
 11
3537.002446
 21
172578.749982
 31
0.0
  0
LINE
  5
3B
  8
0
  6
BYBLOCK
 62
     9
 10
4755.0
 20
172577.749982
 30
0.0
 11
4211.251223
 21
172577.749982
 31
0.0
  0
LINE
  5
3C
  8
0
  6
BYBLOCK
 62
     9
 10
3557.002446
 20
172577.749982
 30
0.0
 11
4100.751223
 21
172577.749982
 31
0.0
  0
SOLID
  5
3D
  8
0
  6
BYBLOCK
 62
     9
 10
4755.0
 20
172581.083315
 30
0.0
 11
4755.0
 21
172574.416648
 31
0.0
 12
4775.0
 22
172577.749982
 32
0.0
 13
4775.0
 23
172577.749982
 33
0.0
  0
SOLID
  5
3E
  8
0
  6
BYBLOCK
 62
     9
 10
3557.002446
 20
172581.083315
 30
0.0
 11
3557.002446
 21
172574.416648
 31
0.0
 12
3537.002446
 22
172577.749982
 32
0.0
 13
3537.002446
 23
172577.749982
 33
0.0
  0
TEXT
  5
3F
  8
0
  6
BYBLOCK
 62
    11
 10
4110.501223
 20
172560.249982
 30
0.0
 40
35.0
  1
1238
  0
POINT
  5
40
  8
DEFPOINTS
  6
BYBLOCK
 62
     0
 10
4775.0
 20
172525.0
 30
0.0
  0
POINT
  5
41
  8
DEFPOINTS
  6
BYBLOCK
 62
     0
 10
3537.002446
 20
172207.004138
 30
0.0
  0
POINT
  5
42
  8
DEFPOINTS
  6
BYBLOCK
 62
     0
 10
3537.002446
 20
172577.749982
 30
0.0
  0
ENDBLK
  5
44
  8
0
  0
BLOCK
  8
0
  2
*D1
 70
     1
 10
0.0
 20
0.0
 30
0.0
  3
*D1
  1

  0
LINE
  5
28
  8
0
  6
BYBLOCK
 62
     9
 10
4775.0
 20
172535.0
 30
0.0
 11
4775.0
 21
172629.705744
 31
0.0
  0
LINE
  5
29
  8
0
  6
BYBLOCK
 62
     9
 10
3224.996225
 20
172535.0
 30
0.0
 11
3224.996225
 21
172629.705744
 31
0.0
  0
LINE
  5
2A
  8
0
  6
BYBLOCK
 62
     9
 10
4755.0
 20
172628.705744
 30
0.0
 11
4055.261892
 21
172628.705744
 31
0.0
  0
LINE
  5
2B
  8
0
  6
BYBLOCK
 62
     9
 10
3244.996225
 20
172628.705744
 30
0.0
 11
3944.734333
 21
172628.705744
 31
0.0
  0
SOLID
  5
2C
  8
0
  6
BYBLOCK
 62
     9
 10
4755.0
 20
172632.039078
 30
0.0
 11
4755.0
 21
172625.372411
 31
0.0
 12
4775.0
 22
172628.705744
 32
0.0
 13
4775.0
 23
172628.705744
 33
0.0
  0
SOLID
  5
2D
  8
0
  6
BYBLOCK
 62
     9
 10
3244.996225
 20
172632.039078
 30
0.0
 11
3244.996225
 21
172625.372411
 31
0.0
 12
3224.996225
 22
172628.705744
 32
0.0
 13
3224.996225
 23
172628.705744
 33
0.0
  0
TEXT
  5
2E
  8
0
  6
BYBLOCK
 62
    11
 10
3954.484333
 20
172611.205744
 30
0.0
 40
35.0
  1
1550
  0
POINT
  5
2F
  8
DEFPOINTS
  6
BYBLOCK
 62
     0
 10
4775.0
 20
172525.0
 30
0.0
  0
POINT
  5
31
  8
DEFPOINTS
  6
BYBLOCK
 62
     0
 10
3224.996225
 20
172525.0
 30
0.0
  0
POINT
  5
32
  8
DEFPOINTS
  6
BYBLOCK
 62
     0
 10
3224.996225
 20
172628.705744
 30
0.0
  0
ENDBLK
  5
34
  8
0
  0
BLOCK
  8
0
  2
*D2
 70
     1
 10
0.0
 20
0.0
 30
0.0
  3
*D2
  1

  0
LINE
  5
48
  8
0
  6
BYBLOCK
 62
     9
 10
3527.002446
 20
172207.004138
 30
0.0
 11
3167.177766
 21
172207.004138
 31
0.0
  0
LINE
  5
49
  8
0
  6
BYBLOCK
 62
     9
 10
3214.996225
 20
172525.0
 30
0.0
 11
3167.177766
 21
172525.0
 31
0.0
  0
LINE
  5
4A
  8
0
  6
BYBLOCK
 62
     9
 10
3168.177766
 20
172227.004138
 30
0.0
 11
3168.177766
 21
172323.002069
 31
0.0
  0
LINE
  5
4B
  8
0
  6
BYBLOCK
 62
     9
 10
3168.177766
 20
172505.0
 30
0.0
 11
3168.177766
 21
172409.002069
 31
0.0
  0
SOLID
  5
4C
  8
0
  6
BYBLOCK
 62
     9
 10
3164.844432
 20
172227.004138
 30
0.0
 11
3171.511099
 21
172227.004138
 31
0.0
 12
3168.177766
 22
172207.004138
 32
0.0
 13
3168.177766
 23
172207.004138
 33
0.0
  0
SOLID
  5
4D
  8
0
  6
BYBLOCK
 62
     9
 10
3164.844432
 20
172505.0
 30
0.0
 11
3171.511099
 21
172505.0
 31
0.0
 12
3168.177766
 22
172525.0
 32
0.0
 13
3168.177766
 23
172525.0
 33
0.0
  0
TEXT
  5
4E
  8
0
  6
BYBLOCK
 62
    11
 10
3185.677766
 20
172332.752069
 30
0.0
 40
35.0
  1
318
 50
90.0
  0
POINT
  5
4F
  8
DEFPOINTS
  6
BYBLOCK
 62
     0
 10
3537.002446
 20
172207.004138
 30
0.0
  0
POINT
  5
50
  8
DEFPOINTS
  6
BYBLOCK
 62
     0
 10
3224.996225
 20
172525.0
 30
0.0
  0
POINT
  5
51
  8
DEFPOINTS
  6
BYBLOCK
 62
     0
 10
3168.177766
 20
172525.0
 30
0.0
  0
ENDBLK
  5
53
  8
0
  0
BLOCK
  8
0
  2
*D3
 70
     1
 10
0.0
 20
0.0
 30
0.0
  3
*D3
  1

  0
LINE
  5
6F
  8
0
  6
BYBLOCK
 62
     9
 10
4785.0
 20
172525.0
 30
0.0
 11
4830.250016
 21
172525.0
 31
0.0
  0
LINE
  5
70
  8
0
  6
BYBLOCK
 62
     9
 10
4785.0
 20
171475.0
 30
0.0
 11
4830.250016
 21
171475.0
 31
0.0
  0
LINE
  5
71
  8
0
  6
BYBLOCK
 62
     9
 10
4829.250016
 20
172505.0
 30
0.0
 11
4829.250016
 21
172055.26378
 31
0.0
  0
LINE
  5
72
  8
0
  6
BYBLOCK
 62
     9
 10
4829.250016
 20
171495.0
 30
0.0
 11
4829.250016
 21
171944.73622
 31
0.0
  0
SOLID
  5
73
  8
0
  6
BYBLOCK
 62
     9
 10
4825.916683
 20
172505.0
 30
0.0
 11
4832.58335
 21
172505.0
 31
0.0
 12
4829.250016
 22
172525.0
 32
0.0
 13
4829.250016
 23
172525.0
 33
0.0
  0
SOLID
  5
74
  8
0
  6
BYBLOCK
 62
     9
 10
4825.916683
 20
171495.0
 30
0.0
 11
4832.58335
 21
171495.0
 31
0.0
 12
4829.250016
 22
171475.0
 32
0.0
 13
4829.250016
 23
171475.0
 33
0.0
  0
TEXT
  5
75
  8
0
  6
BYBLOCK
 62
    11
 10
4846.750016
 20
171954.48622
 30
0.0
 40
35.0
  1
1050
 50
90.0
  0
POINT
  5
76
  8
DEFPOINTS
  6
BYBLOCK
 62
     0
 10
4775.0
 20
172525.0
 30
0.0
  0
POINT
  5
77
  8
DEFPOINTS
  6
BYBLOCK
 62
     0
 10
4775.0
 20
171475.0
 30
0.0
  0
POINT
  5
78
  8
DEFPOINTS
  6
BYBLOCK
 62
     0
 10
4829.250016
 20
171475.0
 30
0.0
  0
ENDBLK
  5
7A
  8
0
  0
ENDSEC
  0
SECTION
  2
ENTITIES
  0
ARC
  5
20
  8
TEAM-BODY
 10
442.658451
 20
871.163511
 30
0.0
 40
1276.223539
 50
210.96395
 51
260.850739
  0
ARC
  5
22
  8
TEAM-DET1
 10
359.926557
 20
972.494835
 30
0.0
 40
1236.63588
 50
217.919324
 51
261.812316
  0
POLYLINE
  5
24
  8
TEAM-DET1
 66
     1
 10
0.0
 20
0.0
 30
0.0
 70
   128
  0
VERTEX
  5
26D
  8
TEAM-DET1
 10
-520.752189
 20
424.89227
 30
0.0
  0
VERTEX
  5
26E
  8
TEAM-DET1
 10
-466.17685
 20
432.77
 30
0.0
  0
VERTEX
  5
26F
  8
TEAM-DET1
 10
-409.128697
 20
436.453606
 30
0.0
  0
VERTEX
  5
270
  8
TEAM-DET1
 10
-349.911693
 20
435.85575
 30
0.0
  0
VERTEX
  5
271
  8
TEAM-DET1
 10
-288.873869
 20
430.942087
 30
0.0
  0
VERTEX
  5
272
  8
TEAM-DET1
 10
-226.550997
 20
421.765641
 30
0.0
  0
VERTEX
  5
273
  8
TEAM-DET1
 10
-162.877922
 20
408.317064
 30
0.0
  0
VERTEX
  5
274
  8
TEAM-DET1
 10
-130.541905
 20
399.981206
 30
0.0
  0
VERTEX
  5
275
  8
TEAM-DET1
 10
-115.145114
 20
395.668932
 30
0.0
  0
VERTEX
  5
276
  8
TEAM-DET1
 10
-101.273188
 20
391.591471
 30
0.0
  0
VERTEX
  5
277
  8
TEAM-DET1
 10
-75.417665
 20
383.520047
 30
0.0
  0
VERTEX
  5
278
  8
TEAM-DET1
 10
-51.484093
 20
375.502493
 30
0.0
  0
VERTEX
  5
279
  8
TEAM-DET1
 10
-2.789369
 20
357.59775
 30
0.0
  0
VERTEX
  5
27A
  8
TEAM-DET1
 10
46.724209
 20
337.23076
 30
0.0
  0
VERTEX
  5
27B
  8
TEAM-DET1
 10
96.791704
 20
314.441693
 30
0.0
  0
VERTEX
  5
27C
  8
TEAM-DET1
 10
147.264973
 20
289.247951
 30
0.0
  0
VERTEX
  5
27D
  8
TEAM-DET1
 10
197.980452
 20
261.678039
 30
0.0
  0
VERTEX
  5
27E
  8
TEAM-DET1
 10
248.775564
 20
231.784906
 30
0.0
  0
VERTEX
  5
27F
  8
TEAM-DET1
 10
299.478165
 20
199.638151
 30
0.0
  0
VERTEX
  5
280
  8
TEAM-DET1
 10
349.921249
 20
165.313539
 30
0.0
  0
SEQEND
  5
281
  8
TEAM-DET1
  0
POLYLINE
  5
25
  8
TEAM-DET1
 66
     1
 10
0.0
 20
0.0
 30
0.0
 70
   128
  0
VERTEX
  5
282
  8
TEAM-DET1
 10
-512.06663
 20
458.152446
 30
0.0
  0
VERTEX
  5
283
  8
TEAM-DET1
 10
-480.401951
 20
462.309069
 30
0.0
  0
VERTEX
  5
284
  8
TEAM-DET1
 10
-446.643813
 20
465.250059
 30
0.0
  0
VERTEX
  5
285
  8
TEAM-DET1
 10
-411.278683
 20
466.914405
 30
0.0
  0
VERTEX
  5
286
  8
TEAM-DET1
 10
-377.014393
 20
467.016299
 30
0.0
  0
VERTEX
  5
287
  8
TEAM-DET1
 10
-308.441933
 20
462.894558
 30
0.0
  0
VERTEX
  5
288
  8
TEAM-DET1
 10
-238.142859
 20
453.244007
 30
0.0
  0
VERTEX
  5
289
  8
TEAM-DET1
 10
-202.775391
 20
446.440824
 30
0.0
  0
VERTEX
  5
28A
  8
TEAM-DET1
 10
-166.623253
 20
438.185146
 30
0.0
  0
VERTEX
  5
28B
  8
TEAM-DET1
 10
-94.270192
 20
417.859862
 30
0.0
  0
VERTEX
  5
28C
  8
TEAM-DET1
 10
-63.228758
 20
407.625902
 30
0.0
  0
VERTEX
  5
28D
  8
TEAM-DET1
 10
-35.475807
 20
397.723689
 30
0.0
  0
VERTEX
  5
28E
  8
TEAM-DET1
 10
18.782818
 20
376.321909
 30
0.0
  0
VERTEX
  5
28F
  8
TEAM-DET1
 10
74.012141
 20
351.807103
 30
0.0
  0
VERTEX
  5
290
  8
TEAM-DET1
 10
129.773913
 20
324.274597
 30
0.0
  0
VERTEX
  5
291
  8
TEAM-DET1
 10
185.870735
 20
293.757649
 30
0.0
  0
VERTEX
  5
292
  8
TEAM-DET1
 10
242.087427
 20
260.307365
 30
0.0
  0
VERTEX
  5
293
  8
TEAM-DET1
 10
298.202006
 20
224.015057
 30
0.0
  0
VERTEX
  5
294
  8
TEAM-DET1
 10
353.990941
 20
184.983958
 30
0.0
  0
VERTEX
  5
295
  8
TEAM-DET1
 10
409.233006
 20
143.344364
 30
0.0
  0
VERTEX
  5
296
  8
TEAM-DET1
 10
463.711032
 20
99.251218
 30
0.0
  0
SEQEND
  5
297
  8
TEAM-DET1
  0
DIMENSION
  5
26
  8
TEAM-MAS
  2
*D1
 10
-775.003775
 20
628.705744
 30
0.0
 11
-0.001888
 21
628.705744
 31
0.0
 12
-4000.0
 22
-172000.0
 32
0.0
 13
775.0
 23
525.0
 33
0.0
 14
-775.003775
 24
525.0
 34
0.0
1001
ACAD
1000
DSTYLE
1002
{
1070
    40
1040
1.0
1002
}
  0
LINE
  5
35
  8
TEAM-BODY
 10
-775.003775
 20
525.0
 30
0.0
 11
775.0
 21
525.0
 31
0.0
  0
ARC
  5
36
  8
TEAM-BODY
 10
623.445928
 20
1162.48197
 30
0.0
 40
1694.273897
 50
222.144227
 51
275.13201
  0
DIMENSION
  5
37
  8
TEAM-MAS
  2
*D0
 10
-462.997554
 20
577.749982
 30
0.0
 11
156.001223
 21
577.749982
 31
0.0
 12
-4000.0
 22
-172000.0
 32
0.0
 13
775.0
 23
525.0
 33
0.0
 14
-462.997554
 24
207.004138
 34
0.0
  0
POLYLINE
  5
45
  8
TEAM-BODY
 66
     1
 10
0.0
 20
0.0
 30
0.0
 70
   128
  0
VERTEX
  5
298
  8
TEAM-BODY
 10
-446.722435
 20
464.926686
 30
0.0
 42
-0.090542
  0
VERTEX
  5
299
  8
TEAM-BODY
 10
431.999118
 20
383.143212
 30
0.0
 42
-0.819874
  0
VERTEX
  5
29A
  8
TEAM-BODY
 10
368.855513
 20
-398.789112
 30
0.0
 42
-0.08542
  0
VERTEX
  5
29B
  8
TEAM-BODY
 10
239.730026
 20
-388.823226
 30
0.0
  0
SEQEND
  5
29C
  8
TEAM-BODY
  0
DIMENSION
  5
46
  8
TEAM-MAS
  2
*D2
 10
-831.822234
 20
525.0
 30
0.0
 11
-831.822234
 21
366.002069
 31
0.0
 12
-4000.0
 22
-172000.0
 32
0.0
 13
-462.997554
 23
207.004138
 33
0.0
 14
-775.003775
 24
525.0
 34
0.0
 50
270.0
1001
ACAD
1000
DSTYLE
1002
{
1070
    40
1040
1.0
1002
}
  0
POLYLINE
  5
54
  8
TEAM-BODY
 66
     1
 10
0.0
 20
0.0
 30
0.0
 70
   128
  0
VERTEX
  5
29D
  8
TEAM-BODY
 10
-651.691983
 20
214.548214
 30
0.0
 42
-0.502334
  0
VERTEX
  5
29E
  8
TEAM-BODY
 10
-512.06663
 20
458.152446
 30
0.0
  0
SEQEND
  5
29F
  8
TEAM-BODY
  0
ARC
  5
55
  8
TEAM-BODY
 10
9.44284
 20
478.464066
 30
0.0
 40
785.825735
 50
176.605006
 51
215.187785
  0
ARC
  5
56
  8
TEAM-DET1
 10
-491.279036
 20
284.341873
 30
0.0
 40
143.6
 50
101.597108
 51
210.010703
  0
ARC
  5
57
  8
TEAM-DET1
 10
-631.148965
 20
105.036311
 30
0.0
 40
71.093507
 50
29.804928
 51
38.402731
  0
ARC
  5
58
  8
TEAM-DET1
 10
-561.686921
 20
131.418248
 30
0.0
 40
19.68836
 50
229.85806
 51
251.192658
  0
ARC
  5
59
  8
TEAM-DET1
 10
-566.750529
 20
116.550241
 30
0.0
 40
3.981746
 50
299.804928
 51
348.417198
  0
ARC
  5
5A
  8
TEAM-DET1
 10
-582.137287
 20
119.703876
 30
0.0
 40
19.68836
 50
348.417198
 51
9.751797
  0
ARC
  5
5B
  8
TEAM-DET1
 10
-602.261037
 20
116.245334
 30
0.0
 40
40.107146
 50
9.751797
 51
21.207126
  0
ARC
  5
5C
  8
TEAM-DET1
 10
-566.750529
 20
116.550241
 30
0.0
 40
3.981746
 50
251.192658
 51
299.804928
  0
ARC
  5
5D
  8
TEAM-DET1
 10
-631.148965
 20
105.036311
 30
0.0
 40
71.093507
 50
21.207126
 51
29.804928
  0
ARC
  5
5E
  8
TEAM-DET1
 10
-588.638814
 20
154.76172
 30
0.0
 40
3.981746
 50
119.804928
 51
168.417198
  0
ARC
  5
5F
  8
TEAM-DET1
 10
-573.252056
 20
151.608085
 30
0.0
 40
19.68836
 50
168.417198
 51
189.751797
  0
ARC
  5
60
  8
TEAM-DET1
 10
-553.128306
 20
155.066627
 30
0.0
 40
40.107146
 50
189.751797
 51
201.207126
  0
ARC
  5
61
  8
TEAM-DET1
 10
-524.240378
 20
166.275649
 30
0.0
 40
71.093507
 50
209.804928
 51
218.402731
  0
ARC
  5
62
  8
TEAM-DET1
 10
-548.523269
 20
147.027383
 30
0.0
 40
40.107146
 50
218.402731
 51
229.85806
  0
ARC
  5
63
  8
TEAM-DET1
 10
-524.240378
 20
166.275649
 30
0.0
 40
71.093507
 50
201.207126
 51
209.804928
  0
ARC
  5
64
  8
TEAM-DET1
 10
-593.702422
 20
139.893713
 30
0.0
 40
19.68836
 50
49.85806
 51
71.192658
  0
ARC
  5
65
  8
TEAM-DET1
 10
-606.866074
 20
124.284578
 30
0.0
 40
40.107146
 50
38.402731
 51
49.85806
  0
ARC
  5
66
  8
TEAM-DET1
 10
-588.638814
 20
154.76172
 30
0.0
 40
3.981746
 50
71.192658
 51
119.804928
  0
LINE
  5
67
  8
TEAM-AXE
 10
-462.997554
 20
252.004138
 30
0.0
 11
-462.997554
 21
162.004138
 31
0.0
  0
CIRCLE
  5
6A
  8
TEAM-BODY
 10
-462.997554
 20
207.004138
 30
0.0
 40
45.0
  0
LINE
  5
6B
  8
TEAM-AXE
 10
-417.997554
 20
207.004138
 30
0.0
 11
-507.997554
 21
207.004138
 31
0.0
  0
CIRCLE
  5
6C
  8
TEAM-DET1
 10
-462.997554
 20
207.004138
 30
0.0
 40
26.0
  0
DIMENSION
  5
6D
  8
TEAM-MAS
  2
*D3
 10
829.250016
 20
-525.0
 30
0.0
 11
829.250016
 21
0.0
 31
0.0
 12
-4000.0
 22
-172000.0
 32
0.0
 13
775.0
 23
525.0
 33
0.0
 14
775.0
 24
-525.0
 34
0.0
 50
270.0
1001
ACAD
1000
DSTYLE
1002
{
1070
    40
1040
1.0
1002
}
  0
LINE
  5
7B
  8
TEAM-BODY
 10
775.0
 20
525.0
 30
0.0
 11
775.0
 21
-525.0
 31
0.0
  0
CIRCLE
  5
7C
  8
TEAM-INSP
 10
0.0
 20
0.0
 30
0.0
 40
10.0
  0
POLYLINE
  5
7E
  8
TEAM-DET1
 66
     1
 10
0.0
 20
0.0
 30
0.0
 70
   128
  0
VERTEX
  5
2A0
  8
TEAM-DET1
 10
346.213533
 20
167.917173
 30
0.0
 42
-0.050308
  0
VERTEX
  5
2A1
  8
TEAM-DET1
 10
390.201949
 20
130.498386
 30
0.0
 42
-0.742707
  0
VERTEX
  5
2A2
  8
TEAM-DET1
 10
183.809616
 20
-251.535852
 30
0.0
  0
SEQEND
  5
2A3
  8
TEAM-DET1
  0
ARC
  5
7F
  8
TEAM-DET1
 10
24.9217
 20
-358.807287
 30
0.0
 40
800.0
 50
51.7
 51
94.894518
  0
TEXT
  5
80
  8
TEAM-TXT
 10
509.873045
 20
450.18399
 30
0.0
 40
30.0
  1
team 121392
 41
0.8
 51
15.0
  7
TEAM
  0
ENDSEC
  0
EOF
