  0
SECTION
  2
HEADER
  9
$ACADVER
  1
AC1009
  9
$INSBASE
 10
0.0
 20
0.0
 30
0.0
  9
$EXTMIN
 10
-1024.06279
 20
-714.164539
 30
0.0
  9
$EXTMAX
 10
922.499375
 20
679.79193
 30
0.0
  9
$LIMMIN
 10
-1024.06279
 20
-714.164539
  9
$LIMMAX
 10
922.499375
 20
679.79193
  9
$ORTHOMODE
 70
     1
  9
$REGENMODE
 70
     1
  9
$FILLMODE
 70
     1
  9
$QTEXTMODE
 70
     0
  9
$MIRRTEXT
 70
     0
  9
$DRAGMODE
 70
     2
  9
$LTSCALE
 40
25.0
  9
$OSMODE
 70
     0
  9
$ATTMODE
 70
     1
  9
$TEXTSIZE
 40
200.0
  9
$TRACEWID
 40
1.0
  9
$TEXTSTYLE
  7
STANDARD
  9
$CLAYER
  8
TEAM-MAS
  9
$CELTYPE
  6
BYLAYER
  9
$CECOLOR
 62
   256
  9
$DIMSCALE
 40
0.0
  9
$DIMASZ
 40
20.0
  9
$DIMEXO
 40
10.0
  9
$DIMDLI
 40
1.0
  9
$DIMRND
 40
0.0
  9
$DIMDLE
 40
0.0
  9
$DIMEXE
 40
1.0
  9
$DIMTP
 40
0.0
  9
$DIMTM
 40
0.0
  9
$DIMTXT
 40
35.0
  9
$DIMCEN
 40
1.0
  9
$DIMTSZ
 40
0.0
  9
$DIMTOL
 70
     0
  9
$DIMLIM
 70
     0
  9
$DIMTIH
 70
     0
  9
$DIMTOH
 70
     0
  9
$DIMSE1
 70
     0
  9
$DIMSE2
 70
     0
  9
$DIMTAD
 70
     0
  9
$DIMZIN
 70
     0
  9
$DIMBLK
  1

  9
$DIMASO
 70
     1
  9
$DIMSHO
 70
     0
  9
$DIMPOST
  1

  9
$DIMAPOST
  1

  9
$DIMALT
 70
     0
  9
$DIMALTD
 70
     2
  9
$DIMALTF
 40
25.4
  9
$DIMLFAC
 40
1.0
  9
$DIMTOFL
 70
     0
  9
$DIMTVP
 40
0.0
  9
$DIMTIX
 70
     0
  9
$DIMSOXD
 70
     0
  9
$DIMSAH
 70
     0
  9
$DIMBLK1
  1

  9
$DIMBLK2
  1

  9
$DIMSTYLE
  2
TEAM
  9
$DIMCLRD
 70
     9
  9
$DIMCLRE
 70
     9
  9
$DIMCLRT
 70
    11
  9
$DIMTFAC
 40
1.0
  9
$DIMGAP
 40
15.0
  9
$LUNITS
 70
     2
  9
$LUPREC
 70
     1
  9
$SKETCHINC
 40
1.0
  9
$FILLETRAD
 40
50.0
  9
$AUNITS
 70
     0
  9
$AUPREC
 70
     0
  9
$MENU
  1
ROPLANS
  9
$ELEVATION
 40
0.0
  9
$PELEVATION
 40
0.0
  9
$THICKNESS
 40
0.0
  9
$LIMCHECK
 70
     0
  9
$BLIPMODE
 70
     1
  9
$CHAMFERA
 40
0.0
  9
$CHAMFERB
 40
0.0
  9
$SKPOLY
 70
     0
  9
$TDCREATE
 40
2450392.957851
  9
$TDUPDATE
 40
2455493.900998
  9
$TDINDWG
 40
2.015369
  9
$TDUSRTIMER
 40
2.015369
  9
$USRTIMER
 70
     1
  9
$ANGBASE
 50
0.0
  9
$ANGDIR
 70
     0
  9
$PDMODE
 70
     0
  9
$PDSIZE
 40
0.0
  9
$PLINEWID
 40
0.0
  9
$COORDS
 70
     2
  9
$SPLFRAME
 70
     0
  9
$SPLINETYPE
 70
     6
  9
$SPLINESEGS
 70
     8
  9
$ATTDIA
 70
     0
  9
$ATTREQ
 70
     0
  9
$HANDLING
 70
     1
  9
$HANDSEED
  5
322
  9
$SURFTAB1
 70
    24
  9
$SURFTAB2
 70
    24
  9
$SURFTYPE
 70
     6
  9
$SURFU
 70
     6
  9
$SURFV
 70
     6
  9
$UCSNAME
  2

  9
$UCSORG
 10
0.0
 20
0.0
 30
0.0
  9
$UCSXDIR
 10
1.0
 20
0.0
 30
0.0
  9
$UCSYDIR
 10
0.0
 20
1.0
 30
0.0
  9
$PUCSNAME
  2

  9
$PUCSORG
 10
0.0
 20
0.0
 30
0.0
  9
$PUCSXDIR
 10
1.0
 20
0.0
 30
0.0
  9
$PUCSYDIR
 10
0.0
 20
1.0
 30
0.0
  9
$USERI1
 70
     0
  9
$USERI2
 70
     0
  9
$USERI3
 70
     0
  9
$USERI4
 70
     0
  9
$USERI5
 70
     0
  9
$USERR1
 40
0.0
  9
$USERR2
 40
0.0
  9
$USERR3
 40
0.0
  9
$USERR4
 40
0.0
  9
$USERR5
 40
0.0
  9
$WORLDVIEW
 70
     1
  9
$SHADEDGE
 70
     0
  9
$SHADEDIF
 70
    70
  9
$TILEMODE
 70
     1
  9
$MAXACTVP
 70
    16
  9
$PLIMCHECK
 70
     0
  9
$PEXTMIN
 10
-0.805942
 20
0.005011
 30
0.0
  9
$PEXTMAX
 10
20.250094
 20
11.356329
 30
0.0
  9
$PLIMMIN
 10
0.0
 20
0.0
  9
$PLIMMAX
 10
12.0
 20
9.0
  9
$UNITMODE
 70
     0
  9
$VISRETAIN
 70
     0
  9
$PLINEGEN
 70
     0
  9
$PSLTSCALE
 70
     0
  0
ENDSEC
  0
SECTION
  2
TABLES
  0
TABLE
  2
VPORT
 70
     2
  0
VPORT
  2
*ACTIVE
 70
     0
 10
0.0
 20
0.0
 11
1.0
 21
1.0
 12
-50.781708
 22
-17.186305
 13
0.0
 23
0.0
 14
1.0
 24
1.0
 15
50.0
 25
50.0
 16
0.0
 26
0.0
 36
1.0
 17
0.0
 27
0.0
 37
0.0
 40
1402.517103
 41
1.865779
 42
50.0
 43
0.0
 44
0.0
 50
0.0
 51
0.0
 71
     0
 72
   100
 73
     1
 74
     1
 75
     0
 76
     0
 77
     0
 78
     0
  0
ENDTAB
  0
TABLE
  2
LTYPE
 70
     2
  0
LTYPE
  2
CONTINUOUS
 70
     0
  3
Solid Line
 72
    65
 73
     0
 40
0.0
  0
LTYPE
  2
31
 70
     0
  3

 72
    65
 73
     4
 40
2.1
 49
1.5
 49
-0.3
 49
0.0
 49
-0.3
  0
ENDTAB
  0
TABLE
  2
LAYER
 70
     8
  0
LAYER
  2
0
 70
     0
 62
     7
  6
CONTINUOUS
  0
LAYER
  2
DEFPOINTS
 70
     0
 62
     7
  6
CONTINUOUS
  0
LAYER
  2
TEAM-BODY
 70
     0
 62
     2
  6
CONTINUOUS
  0
LAYER
  2
TEAM-AXE
 70
     0
 62
    10
  6
31
  0
LAYER
  2
TEAM-MAS
 70
     0
 62
     9
  6
CONTINUOUS
  0
LAYER
  2
TEAM-TXT
 70
     0
 62
    11
  6
CONTINUOUS
  0
LAYER
  2
TEAM-DET1
 70
     0
 62
     4
  6
CONTINUOUS
  0
LAYER
  2
TEAM-INSP
 70
     0
 62
     5
  6
CONTINUOUS
  0
ENDTAB
  0
TABLE
  2
STYLE
 70
     2
  0
STYLE
  2
STANDARD
 70
     0
 40
0.0
 41
1.0
 50
0.0
 71
     0
 42
200.0
  3
txt
  4

  0
STYLE
  2
TEAM
 70
     0
 40
0.0
 41
0.8
 50
15.0
 71
     0
 42
7.0
  3
ROMANS.shx
  4

  0
ENDTAB
  0
TABLE
  2
VIEW
 70
     0
  0
ENDTAB
  0
TABLE
  2
UCS
 70
     0
  0
ENDTAB
  0
TABLE
  2
APPID
 70
     1
  0
APPID
  2
ACAD
 70
     0
  0
ENDTAB
  0
TABLE
  2
DIMSTYLE
 70
     1
  0
DIMSTYLE
  2
TEAM
 70
     0
  3

  4

  5

  6

  7

 40
0.0
 41
20.0
 42
10.0
 43
1.0
 44
1.0
 45
0.0
 46
0.0
 47
0.0
 48
0.0
140
35.0
141
1.0
142
0.0
143
25.4
144
1.0
145
0.0
146
1.0
147
15.0
 71
     0
 72
     0
 73
     0
 74
     0
 75
     0
 76
     0
 77
     0
 78
     0
170
     0
171
     2
172
     0
173
     0
174
     0
175
     0
176
     9
177
     9
178
    11
  0
ENDTAB
  0
ENDSEC
  0
SECTION
  2
BLOCKS
  0
BLOCK
  8
0
  2
$MODEL_SPACE
 70
     0
 10
0.0
 20
0.0
 30
0.0
  3
$MODEL_SPACE
  1

  0
ENDBLK
  5
2D0
  8
0
  0
BLOCK
 67
     1
  8
0
  2
$PAPER_SPACE
 70
     0
 10
0.0
 20
0.0
 30
0.0
  3
$PAPER_SPACE
  1

  0
ENDBLK
  5
2CE
 67
     1
  8
0
  0
BLOCK
  8
0
  2
*D0
 70
     1
 10
0.0
 20
0.0
 30
0.0
  3
*D0
  1

  0
LINE
  5
43
  8
0
  6
BYBLOCK
 62
     9
 10
4189.0
 20
175932.0
 30
0.0
 11
3053.722611
 21
175932.0
 31
0.0
  0
LINE
  5
44
  8
0
  6
BYBLOCK
 62
     9
 10
3115.0
 20
176555.0
 30
0.0
 11
3053.722611
 21
176555.0
 31
0.0
  0
LINE
  5
45
  8
0
  6
BYBLOCK
 62
     9
 10
3054.722611
 20
175952.0
 30
0.0
 11
3054.722611
 21
176195.227882
 31
0.0
  0
LINE
  5
46
  8
0
  6
BYBLOCK
 62
     9
 10
3054.722611
 20
176535.0
 30
0.0
 11
3054.722611
 21
176291.772118
 31
0.0
  0
SOLID
  5
47
  8
0
  6
BYBLOCK
 62
     9
 10
3051.389278
 20
175952.0
 30
0.0
 11
3058.055944
 21
175952.0
 31
0.0
 12
3054.722611
 22
175932.0
 32
0.0
 13
3054.722611
 23
175932.0
 33
0.0
  0
SOLID
  5
48
  8
0
  6
BYBLOCK
 62
     9
 10
3051.389278
 20
176535.0
 30
0.0
 11
3058.055944
 21
176535.0
 31
0.0
 12
3054.722611
 22
176555.0
 32
0.0
 13
3054.722611
 23
176555.0
 33
0.0
  0
TEXT
  5
49
  8
0
  6
BYBLOCK
 62
    11
 10
3072.222611
 20
176207.07237
 30
0.0
 40
35.0
  1
623
 50
90.0
  0
POINT
  5
4A
  8
DEFPOINTS
  6
BYBLOCK
 62
     0
 10
4199.0
 20
175932.0
 30
0.0
  0
POINT
  5
4B
  8
DEFPOINTS
  6
BYBLOCK
 62
     0
 10
3125.0
 20
176555.0
 30
0.0
  0
POINT
  5
4C
  8
DEFPOINTS
  6
BYBLOCK
 62
     0
 10
3054.722611
 20
176555.0
 30
0.0
  0
ENDBLK
  5
4E
  8
0
  0
BLOCK
  8
0
  2
*D1
 70
     1
 10
0.0
 20
0.0
 30
0.0
  3
*D1
  1

  0
LINE
  5
35
  8
0
  6
BYBLOCK
 62
     9
 10
4199.0
 20
175987.0
 30
0.0
 11
4199.0
 21
176610.0
 31
0.0
  0
LINE
  5
36
  8
0
  6
BYBLOCK
 62
     9
 10
3125.0
 20
176565.0
 30
0.0
 11
3125.0
 21
176610.0
 31
0.0
  0
LINE
  5
37
  8
0
  6
BYBLOCK
 62
     9
 10
4179.0
 20
176609.0
 30
0.0
 11
3719.0
 21
176609.0
 31
0.0
  0
LINE
  5
38
  8
0
  6
BYBLOCK
 62
     9
 10
3145.0
 20
176609.0
 30
0.0
 11
3605.0
 21
176609.0
 31
0.0
  0
SOLID
  5
39
  8
0
  6
BYBLOCK
 62
     9
 10
4179.0
 20
176612.333333
 30
0.0
 11
4179.0
 21
176605.666667
 31
0.0
 12
4199.0
 22
176609.0
 32
0.0
 13
4199.0
 23
176609.0
 33
0.0
  0
SOLID
  5
3A
  8
0
  6
BYBLOCK
 62
     9
 10
3145.0
 20
176612.333333
 30
0.0
 11
3145.0
 21
176605.666667
 31
0.0
 12
3125.0
 22
176609.0
 32
0.0
 13
3125.0
 23
176609.0
 33
0.0
  0
TEXT
  5
3B
  8
0
  6
BYBLOCK
 62
    11
 10
3614.75
 20
176591.5
 30
0.0
 40
35.0
  1
1074
  0
POINT
  5
3C
  8
DEFPOINTS
  6
BYBLOCK
 62
     0
 10
4199.0
 20
175977.0
 30
0.0
  0
POINT
  5
3D
  8
DEFPOINTS
  6
BYBLOCK
 62
     0
 10
3125.0
 20
176555.0
 30
0.0
  0
POINT
  5
3E
  8
DEFPOINTS
  6
BYBLOCK
 62
     0
 10
3125.0
 20
176609.0
 30
0.0
  0
ENDBLK
  5
40
  8
0
  0
BLOCK
  8
0
  2
*D2
 70
     1
 10
0.0
 20
0.0
 30
0.0
  3
*D2
  1

  0
LINE
  5
67
  8
0
  6
BYBLOCK
 62
     9
 10
3125.0
 20
176565.0
 30
0.0
 11
3125.0
 21
176664.965106
 31
0.0
  0
LINE
  5
68
  8
0
  6
BYBLOCK
 62
     9
 10
4875.0
 20
176565.0
 30
0.0
 11
4875.0
 21
176664.965106
 31
0.0
  0
LINE
  5
69
  8
0
  6
BYBLOCK
 62
     9
 10
3145.0
 20
176663.965106
 30
0.0
 11
3944.73622
 21
176663.965106
 31
0.0
  0
LINE
  5
6A
  8
0
  6
BYBLOCK
 62
     9
 10
4855.0
 20
176663.965106
 30
0.0
 11
4055.26378
 21
176663.965106
 31
0.0
  0
SOLID
  5
6B
  8
0
  6
BYBLOCK
 62
     9
 10
3145.0
 20
176667.29844
 30
0.0
 11
3145.0
 21
176660.631773
 31
0.0
 12
3125.0
 22
176663.965106
 32
0.0
 13
3125.0
 23
176663.965106
 33
0.0
  0
SOLID
  5
6C
  8
0
  6
BYBLOCK
 62
     9
 10
4855.0
 20
176667.29844
 30
0.0
 11
4855.0
 21
176660.631773
 31
0.0
 12
4875.0
 22
176663.965106
 32
0.0
 13
4875.0
 23
176663.965106
 33
0.0
  0
TEXT
  5
6D
  8
0
  6
BYBLOCK
 62
    11
 10
3954.48622
 20
176646.465106
 30
0.0
 40
35.0
  1
1750
  0
POINT
  5
6E
  8
DEFPOINTS
  6
BYBLOCK
 62
     0
 10
3125.0
 20
176555.0
 30
0.0
  0
POINT
  5
6F
  8
DEFPOINTS
  6
BYBLOCK
 62
     0
 10
4875.0
 20
176555.0
 30
0.0
  0
POINT
  5
70
  8
DEFPOINTS
  6
BYBLOCK
 62
     0
 10
4875.0
 20
176663.965106
 30
0.0
  0
ENDBLK
  5
72
  8
0
  0
BLOCK
  8
0
  2
*D3
 70
     1
 10
0.0
 20
0.0
 30
0.0
  3
*D3
  1

  0
LINE
  5
24
  8
0
  6
BYBLOCK
 62
     9
 10
3115.0
 20
176555.0
 30
0.0
 11
2990.819887
 21
176555.0
 31
0.0
  0
LINE
  5
25
  8
0
  6
BYBLOCK
 62
     9
 10
3115.0
 20
175445.0
 30
0.0
 11
2990.819887
 21
175445.0
 31
0.0
  0
LINE
  5
26
  8
0
  6
BYBLOCK
 62
     9
 10
2991.819887
 20
176535.0
 30
0.0
 11
2991.819887
 21
176048.26378
 31
0.0
  0
LINE
  5
27
  8
0
  6
BYBLOCK
 62
     9
 10
2991.819887
 20
175465.0
 30
0.0
 11
2991.819887
 21
175951.73622
 31
0.0
  0
SOLID
  5
28
  8
0
  6
BYBLOCK
 62
     9
 10
2988.486553
 20
176535.0
 30
0.0
 11
2995.15322
 21
176535.0
 31
0.0
 12
2991.819887
 22
176555.0
 32
0.0
 13
2991.819887
 23
176555.0
 33
0.0
  0
SOLID
  5
29
  8
0
  6
BYBLOCK
 62
     9
 10
2988.486553
 20
175465.0
 30
0.0
 11
2995.15322
 21
175465.0
 31
0.0
 12
2991.819887
 22
175445.0
 32
0.0
 13
2991.819887
 23
175445.0
 33
0.0
  0
TEXT
  5
2A
  8
0
  6
BYBLOCK
 62
    11
 10
3009.319887
 20
175961.48622
 30
0.0
 40
35.0
  1
1110
 50
90.0
  0
POINT
  5
2B
  8
DEFPOINTS
  6
BYBLOCK
 62
     0
 10
3125.0
 20
176555.0
 30
0.0
  0
POINT
  5
2D
  8
DEFPOINTS
  6
BYBLOCK
 62
     0
 10
3125.0
 20
175445.0
 30
0.0
  0
POINT
  5
2E
  8
DEFPOINTS
  6
BYBLOCK
 62
     0
 10
2991.819887
 20
175445.0
 30
0.0
  0
ENDBLK
  5
30
  8
0
  0
ENDSEC
  0
SECTION
  2
ENTITIES
  0
ARC
  5
20
  8
TEAM-BODY
 10
-12.227643
 20
545.881946
 30
0.0
 40
887.274495
 50
321.92876
 51
0.588809
  0
DIMENSION
  5
22
  8
TEAM-MAS
  2
*D3
 10
-1008.180113
 20
-555.0
 30
0.0
 11
-1008.180113
 21
0.0
 31
0.0
 12
-4000.0
 22
-176000.0
 32
0.0
 13
-875.0
 23
555.0
 33
0.0
 14
-875.0
 24
-555.0
 34
0.0
 50
90.0
1001
ACAD
1000
DSTYLE
1002
{
1070
    40
1040
1.0
1002
}
  0
LINE
  5
31
  8
TEAM-BODY
 10
-875.0
 20
555.0
 30
0.0
 11
-875.0
 21
-555.0
 31
0.0
  0
POLYLINE
  5
32
  8
TEAM-BODY
 66
     1
 10
0.0
 20
0.0
 30
0.0
 70
   128
  0
VERTEX
  5
2D6
  8
TEAM-BODY
 10
715.624794
 20
196.707291
 30
0.0
 42
0.517872
  0
VERTEX
  5
2D7
  8
TEAM-BODY
 10
556.6063
 20
482.076351
 30
0.0
 42
0.095318
  0
VERTEX
  5
2D8
  8
TEAM-BODY
 10
-487.752004
 20
394.843687
 30
0.0
  0
VERTEX
  5
2D9
  8
TEAM-BODY
 10
-499.783052
 20
391.229886
 30
0.0
 42
0.957822
  0
VERTEX
  5
2DA
  8
TEAM-BODY
 10
-327.493921
 20
-430.5221
 30
0.0
  0
SEQEND
  5
2DB
  8
TEAM-BODY
  0
DIMENSION
  5
33
  8
TEAM-MAS
  2
*D1
 10
-875.0
 20
609.0
 30
0.0
 11
-338.0
 21
609.0
 31
0.0
 12
-4000.0
 22
-176000.0
 32
0.0
 13
199.0
 23
-23.0
 33
0.0
 14
-875.0
 24
555.0
 34
0.0
  0
DIMENSION
  5
41
  8
TEAM-MAS
  2
*D0
 10
-945.277389
 20
555.0
 30
0.0
 11
-945.277389
 21
243.5
 31
0.0
 12
-4000.0
 22
-176000.0
 32
0.0
 13
199.0
 23
-68.0
 33
0.0
 14
-875.0
 24
555.0
 34
0.0
 50
90.0
1001
ACAD
1000
DSTYLE
1002
{
1070
    40
1040
1.0
1002
}
  0
POLYLINE
  5
4F
  8
TEAM-DET1
 66
     1
 10
0.0
 20
0.0
 30
0.0
 70
   128
  0
VERTEX
  5
2DC
  8
TEAM-DET1
 10
42.87724
 20
443.66883
 30
0.0
 42
0.190735
  0
VERTEX
  5
2DD
  8
TEAM-DET1
 10
-605.789888
 20
297.645697
 30
0.0
  0
SEQEND
  5
2DE
  8
TEAM-DET1
  0
POLYLINE
  5
51
  8
TEAM-DET1
 66
     1
 10
0.0
 20
0.0
 30
0.0
 70
   128
  0
VERTEX
  5
2DF
  8
TEAM-DET1
 10
-377.911501
 20
149.848351
 30
0.0
 42
0.88125
  0
VERTEX
  5
2E0
  8
TEAM-DET1
 10
-132.566547
 20
-356.71588
 30
0.0
  0
SEQEND
  5
2E1
  8
TEAM-DET1
  0
POLYLINE
  5
52
  8
TEAM-DET1
 66
     1
 10
0.0
 20
0.0
 30
0.0
 70
   128
  0
VERTEX
  5
2E2
  8
TEAM-DET1
 10
578.098226
 20
479.529111
 30
0.0
  0
VERTEX
  5
2E3
  8
TEAM-DET1
 10
542.348802
 20
484.221939
 30
0.0
  0
VERTEX
  5
2E4
  8
TEAM-DET1
 10
504.235865
 20
487.542316
 30
0.0
  0
VERTEX
  5
2E5
  8
TEAM-DET1
 10
464.308633
 20
489.421364
 30
0.0
  0
VERTEX
  5
2E6
  8
TEAM-DET1
 10
425.624249
 20
489.536401
 30
0.0
  0
VERTEX
  5
2E7
  8
TEAM-DET1
 10
348.205942
 20
484.882956
 30
0.0
  0
VERTEX
  5
2E8
  8
TEAM-DET1
 10
268.838288
 20
473.987484
 30
0.0
  0
VERTEX
  5
2E9
  8
TEAM-DET1
 10
228.908416
 20
466.30669
 30
0.0
  0
VERTEX
  5
2EA
  8
TEAM-DET1
 10
188.092653
 20
456.98603
 30
0.0
  0
VERTEX
  5
2EB
  8
TEAM-DET1
 10
106.406046
 20
434.038785
 30
0.0
  0
VERTEX
  5
2EC
  8
TEAM-DET1
 10
71.360267
 20
422.484644
 30
0.0
  0
VERTEX
  5
2ED
  8
TEAM-DET1
 10
40.027186
 20
411.305045
 30
0.0
  0
VERTEX
  5
2EE
  8
TEAM-DET1
 10
-21.230801
 20
387.142435
 30
0.0
  0
VERTEX
  5
2EF
  8
TEAM-DET1
 10
-83.584707
 20
359.465219
 30
0.0
  0
VERTEX
  5
2F0
  8
TEAM-DET1
 10
-146.539747
 20
328.38102
 30
0.0
  0
VERTEX
  5
2F1
  8
TEAM-DET1
 10
-209.87306
 20
293.927386
 30
0.0
  0
VERTEX
  5
2F2
  8
TEAM-DET1
 10
-273.341705
 20
256.162015
 30
0.0
  0
VERTEX
  5
2F3
  8
TEAM-DET1
 10
-336.695065
 20
215.188
 30
0.0
  0
VERTEX
  5
2F4
  8
TEAM-DET1
 10
-399.680772
 20
171.121889
 30
0.0
  0
VERTEX
  5
2F5
  8
TEAM-DET1
 10
-462.049064
 20
124.110787
 30
0.0
  0
VERTEX
  5
2F6
  8
TEAM-DET1
 10
-523.554755
 20
74.329625
 30
0.0
  0
SEQEND
  5
2F7
  8
TEAM-DET1
  0
ARC
  5
53
  8
TEAM-BODY
 10
-745.497657
 20
1557.7155
 30
0.0
 40
2116.680808
 50
266.49235
 51
312.564771
  0
TEXT
  5
54
  8
TEAM-TXT
 10
-806.426282
 20
475.19744
 30
0.0
 40
30.0
  1
team 121395
 41
0.8
 51
15.0
  7
TEAM
  0
CIRCLE
  5
57
  8
TEAM-DET1
 10
199.0
 20
-68.0
 30
0.0
 40
26.0
  0
LINE
  5
58
  8
TEAM-AXE
 10
154.0
 20
-68.0
 30
0.0
 11
244.0
 21
-68.0
 31
0.0
  0
POLYLINE
  5
5B
  8
TEAM-DET1
 66
     1
 10
0.0
 20
0.0
 30
0.0
 70
     1
  0
VERTEX
  5
2F8
  8
TEAM-DET1
 10
260.744052
 20
-220.661047
 30
0.0
 42
-0.21535
  0
VERTEX
  5
2F9
  8
TEAM-DET1
 10
260.069904
 20
-217.022256
 30
0.0
 42
-0.09336
  0
VERTEX
  5
2FA
  8
TEAM-DET1
 10
263.479515
 20
-209.532731
 30
0.0
 42
-0.050025
  0
VERTEX
  5
2FB
  8
TEAM-DET1
 10
269.393835
 20
-202.698402
 30
0.0
 42
-0.037533
  0
VERTEX
  5
2FC
  8
TEAM-DET1
 10
278.732019
 20
-195.109184
 30
0.0
 42
-0.037533
  0
VERTEX
  5
2FD
  8
TEAM-DET1
 10
289.099831
 20
-189.001287
 30
0.0
 42
-0.050025
  0
VERTEX
  5
2FE
  8
TEAM-DET1
 10
297.566854
 20
-185.839526
 30
0.0
 42
-0.09336
  0
VERTEX
  5
2FF
  8
TEAM-DET1
 10
305.775102
 20
-185.253785
 30
0.0
 42
-0.21535
  0
VERTEX
  5
300
  8
TEAM-DET1
 10
308.950829
 20
-187.153795
 30
0.0
 42
-0.21535
  0
VERTEX
  5
301
  8
TEAM-DET1
 10
309.624977
 20
-190.792587
 30
0.0
 42
-0.09336
  0
VERTEX
  5
302
  8
TEAM-DET1
 10
306.215366
 20
-198.282112
 30
0.0
 42
-0.050025
  0
VERTEX
  5
303
  8
TEAM-DET1
 10
300.301046
 20
-205.11644
 30
0.0
 42
-0.037533
  0
VERTEX
  5
304
  8
TEAM-DET1
 10
290.962862
 20
-212.705658
 30
0.0
 42
-0.037533
  0
VERTEX
  5
305
  8
TEAM-DET1
 10
280.59505
 20
-218.813555
 30
0.0
 42
-0.050025
  0
VERTEX
  5
306
  8
TEAM-DET1
 10
272.128027
 20
-221.975317
 30
0.0
 42
-0.09336
  0
VERTEX
  5
307
  8
TEAM-DET1
 10
263.919779
 20
-222.561057
 30
0.0
 42
-0.21535
  0
SEQEND
  5
308
  8
TEAM-DET1
  0
CIRCLE
  5
5C
  8
TEAM-BODY
 10
199.0
 20
-68.0
 30
0.0
 40
45.0
  0
LINE
  5
5D
  8
TEAM-AXE
 10
199.0
 20
-23.0
 30
0.0
 11
199.0
 21
-113.0
 31
0.0
  0
ARC
  5
5E
  8
TEAM-DET1
 10
-12.227643
 20
545.881946
 30
0.0
 40
777.274495
 50
321.92876
 51
334.37144
  0
ARC
  5
5F
  8
TEAM-DET1
 10
535.301387
 20
283.214336
 30
0.0
 40
170.0
 50
334.37144
 51
83.88499
  0
CIRCLE
  5
60
  8
TEAM-INSP
 10
0.0
 20
0.0
 30
0.0
 40
10.0
  0
POLYLINE
  5
62
  8
TEAM-DET1
 66
     1
 10
0.0
 20
0.0
 30
0.0
 70
   128
  0
VERTEX
  5
309
  8
TEAM-DET1
 10
573.509803
 20
449.882081
 30
0.0
  0
VERTEX
  5
30A
  8
TEAM-DET1
 10
543.659033
 20
453.89023
 30
0.0
  0
VERTEX
  5
30B
  8
TEAM-DET1
 10
512.084998
 20
456.896777
 30
0.0
  0
VERTEX
  5
30C
  8
TEAM-DET1
 10
445.394313
 20
459.691674
 30
0.0
  0
VERTEX
  5
30D
  8
TEAM-DET1
 10
380.517209
 20
457.503493
 30
0.0
  0
VERTEX
  5
30E
  8
TEAM-DET1
 10
314.125411
 20
450.667804
 30
0.0
  0
VERTEX
  5
30F
  8
TEAM-DET1
 10
246.437979
 20
439.277305
 30
0.0
  0
VERTEX
  5
310
  8
TEAM-DET1
 10
177.617586
 20
423.375313
 30
0.0
  0
VERTEX
  5
311
  8
TEAM-DET1
 10
108.503119
 20
403.225473
 30
0.0
  0
VERTEX
  5
312
  8
TEAM-DET1
 10
79.129124
 20
393.429958
 30
0.0
  0
VERTEX
  5
313
  8
TEAM-DET1
 10
52.400529
 20
383.893218
 30
0.0
  0
VERTEX
  5
314
  8
TEAM-DET1
 10
0.225549
 20
363.565915
 30
0.0
  0
VERTEX
  5
315
  8
TEAM-DET1
 10
-52.91589
 20
340.578438
 30
0.0
  0
VERTEX
  5
316
  8
TEAM-DET1
 10
-106.611913
 20
315.021752
 30
0.0
  0
VERTEX
  5
317
  8
TEAM-DET1
 10
-160.71543
 20
286.914122
 30
0.0
  0
VERTEX
  5
318
  8
TEAM-DET1
 10
-215.060961
 20
256.286548
 30
0.0
  0
VERTEX
  5
319
  8
TEAM-DET1
 10
-269.487682
 20
223.185
 30
0.0
  0
VERTEX
  5
31A
  8
TEAM-DET1
 10
-323.828477
 20
187.679639
 30
0.0
  0
VERTEX
  5
31B
  8
TEAM-DET1
 10
-377.911501
 20
149.848351
 30
0.0
  0
SEQEND
  5
31C
  8
TEAM-DET1
  0
ARC
  5
63
  8
TEAM-DET1
 10
-454.630887
 20
1045.394121
 30
0.0
 40
1438.62361
 50
282.936426
 51
317.126622
  0
POLYLINE
  5
64
  8
TEAM-BODY
 66
     1
 10
0.0
 20
0.0
 30
0.0
 70
   128
  0
VERTEX
  5
31D
  8
TEAM-BODY
 10
-327.493921
 20
-430.5221
 30
0.0
 42
0.183934
  0
VERTEX
  5
31E
  8
TEAM-BODY
 10
623.294879
 20
48.083559
 30
0.0
 42
0.054345
  0
VERTEX
  5
31F
  8
TEAM-BODY
 10
715.624794
 20
196.707291
 30
0.0
 42
0.054345
  0
SEQEND
  5
320
  8
TEAM-BODY
  0
DIMENSION
  5
65
  8
TEAM-MAS
  2
*D2
 10
875.0
 20
663.965106
 30
0.0
 11
0.0
 21
663.965106
 31
0.0
 12
-4000.0
 22
-176000.0
 32
0.0
 13
-875.0
 23
555.0
 33
0.0
 14
875.0
 24
555.0
 34
0.0
1001
ACAD
1000
DSTYLE
1002
{
1070
    40
1040
1.0
1002
}
  0
LINE
  5
73
  8
TEAM-BODY
 10
875.0
 20
555.0
 30
0.0
 11
-875.0
 21
555.0
 31
0.0
  0
ENDSEC
  0
EOF
