  0
SECTION
  2
HEADER
  9
$ACADVER
  1
AC1009
  9
$INSBASE
 10
0.0
 20
0.0
 30
0.0
  9
$EXTMIN
 10
-551.78451
 20
-10.018614
 30
-0.001526
  9
$EXTMAX
 10
655.705416
 20
602.53174
 30
0.0
  9
$LIMMIN
 10
-551.78451
 20
-10.018614
  9
$LIMMAX
 10
655.705416
 20
602.53174
  9
$ORTHOMODE
 70
     1
  9
$REGENMODE
 70
     1
  9
$FILLMODE
 70
     1
  9
$QTEXTMODE
 70
     0
  9
$MIRRTEXT
 70
     0
  9
$DRAGMODE
 70
     2
  9
$LTSCALE
 40
50.0
  9
$OSMODE
 70
     7
  9
$ATTMODE
 70
     1
  9
$TEXTSIZE
 40
200.0
  9
$TRACEWID
 40
1.0
  9
$TEXTSTYLE
  7
STANDARD
  9
$CLAYER
  8
TEAM-MAS
  9
$CELTYPE
  6
BYLAYER
  9
$CECOLOR
 62
   256
  9
$DIMSCALE
 40
0.0
  9
$DIMASZ
 40
20.0
  9
$DIMEXO
 40
10.0
  9
$DIMDLI
 40
1.0
  9
$DIMRND
 40
0.0
  9
$DIMDLE
 40
0.0
  9
$DIMEXE
 40
1.0
  9
$DIMTP
 40
0.0
  9
$DIMTM
 40
0.0
  9
$DIMTXT
 40
35.0
  9
$DIMCEN
 40
1.0
  9
$DIMTSZ
 40
0.0
  9
$DIMTOL
 70
     0
  9
$DIMLIM
 70
     0
  9
$DIMTIH
 70
     0
  9
$DIMTOH
 70
     0
  9
$DIMSE1
 70
     0
  9
$DIMSE2
 70
     0
  9
$DIMTAD
 70
     0
  9
$DIMZIN
 70
     0
  9
$DIMBLK
  1

  9
$DIMASO
 70
     1
  9
$DIMSHO
 70
     0
  9
$DIMPOST
  1

  9
$DIMAPOST
  1

  9
$DIMALT
 70
     0
  9
$DIMALTD
 70
     2
  9
$DIMALTF
 40
25.4
  9
$DIMLFAC
 40
1.0
  9
$DIMTOFL
 70
     0
  9
$DIMTVP
 40
0.0
  9
$DIMTIX
 70
     0
  9
$DIMSOXD
 70
     0
  9
$DIMSAH
 70
     0
  9
$DIMBLK1
  1

  9
$DIMBLK2
  1

  9
$DIMSTYLE
  2
TEAM
  9
$DIMCLRD
 70
     9
  9
$DIMCLRE
 70
     9
  9
$DIMCLRT
 70
    11
  9
$DIMTFAC
 40
1.0
  9
$DIMGAP
 40
7.0
  9
$LUNITS
 70
     2
  9
$LUPREC
 70
     1
  9
$SKETCHINC
 40
1.0
  9
$FILLETRAD
 40
9.5
  9
$AUNITS
 70
     0
  9
$AUPREC
 70
     0
  9
$MENU
  1
ROPLANS
  9
$ELEVATION
 40
0.0
  9
$PELEVATION
 40
0.0
  9
$THICKNESS
 40
0.0
  9
$LIMCHECK
 70
     0
  9
$BLIPMODE
 70
     1
  9
$CHAMFERA
 40
0.0
  9
$CHAMFERB
 40
0.0
  9
$SKPOLY
 70
     0
  9
$TDCREATE
 40
2450392.957851
  9
$TDUPDATE
 40
2455944.717343
  9
$TDINDWG
 40
3.569992
  9
$TDUSRTIMER
 40
3.569992
  9
$USRTIMER
 70
     1
  9
$ANGBASE
 50
0.0
  9
$ANGDIR
 70
     0
  9
$PDMODE
 70
     0
  9
$PDSIZE
 40
0.0
  9
$PLINEWID
 40
0.0
  9
$COORDS
 70
     2
  9
$SPLFRAME
 70
     0
  9
$SPLINETYPE
 70
     6
  9
$SPLINESEGS
 70
     8
  9
$ATTDIA
 70
     0
  9
$ATTREQ
 70
     0
  9
$HANDLING
 70
     1
  9
$HANDSEED
  5
DC
  9
$SURFTAB1
 70
    24
  9
$SURFTAB2
 70
    24
  9
$SURFTYPE
 70
     6
  9
$SURFU
 70
     6
  9
$SURFV
 70
     6
  9
$UCSNAME
  2

  9
$UCSORG
 10
0.0
 20
0.0
 30
0.0
  9
$UCSXDIR
 10
1.0
 20
0.0
 30
0.0
  9
$UCSYDIR
 10
0.0
 20
1.0
 30
0.0
  9
$PUCSNAME
  2

  9
$PUCSORG
 10
0.0
 20
0.0
 30
0.0
  9
$PUCSXDIR
 10
1.0
 20
0.0
 30
0.0
  9
$PUCSYDIR
 10
0.0
 20
1.0
 30
0.0
  9
$USERI1
 70
     0
  9
$USERI2
 70
     0
  9
$USERI3
 70
     0
  9
$USERI4
 70
     0
  9
$USERI5
 70
     0
  9
$USERR1
 40
0.0
  9
$USERR2
 40
0.0
  9
$USERR3
 40
0.0
  9
$USERR4
 40
0.0
  9
$USERR5
 40
0.0
  9
$WORLDVIEW
 70
     1
  9
$SHADEDGE
 70
     0
  9
$SHADEDIF
 70
    70
  9
$TILEMODE
 70
     1
  9
$MAXACTVP
 70
    16
  9
$PLIMCHECK
 70
     0
  9
$PEXTMIN
 10
-0.805942
 20
0.005011
 30
0.0
  9
$PEXTMAX
 10
20.250094
 20
11.356329
 30
0.0
  9
$PLIMMIN
 10
0.0
 20
0.0
  9
$PLIMMAX
 10
12.0
 20
9.0
  9
$UNITMODE
 70
     0
  9
$VISRETAIN
 70
     0
  9
$PLINEGEN
 70
     0
  9
$PSLTSCALE
 70
     0
  0
ENDSEC
  0
SECTION
  2
TABLES
  0
TABLE
  2
VPORT
 70
     2
  0
VPORT
  2
*ACTIVE
 70
     0
 10
0.0
 20
0.0
 11
1.0
 21
1.0
 12
51.960453
 22
296.256563
 13
0.0
 23
0.0
 14
1.0
 24
1.0
 15
50.0
 25
50.0
 16
0.0
 26
0.0
 36
1.0
 17
0.0
 27
0.0
 37
0.0
 40
636.352734
 41
1.903766
 42
50.0
 43
0.0
 44
0.0
 50
0.0
 51
0.0
 71
     0
 72
   100
 73
     1
 74
     1
 75
     0
 76
     0
 77
     0
 78
     0
  0
ENDTAB
  0
TABLE
  2
LTYPE
 70
     2
  0
LTYPE
  2
CONTINUOUS
 70
     0
  3
Solid Line
 72
    65
 73
     0
 40
0.0
  0
LTYPE
  2
22
 70
     0
  3

 72
    65
 73
     2
 40
1.4
 49
1.2
 49
-0.2
  0
ENDTAB
  0
TABLE
  2
LAYER
 70
     9
  0
LAYER
  2
0
 70
     0
 62
     7
  6
CONTINUOUS
  0
LAYER
  2
DEFPOINTS
 70
     0
 62
     7
  6
CONTINUOUS
  0
LAYER
  2
TEAM-BODY
 70
     0
 62
     2
  6
CONTINUOUS
  0
LAYER
  2
TEAM-MAS
 70
     0
 62
     9
  6
CONTINUOUS
  0
LAYER
  2
TEAM-TXT
 70
     0
 62
    11
  6
CONTINUOUS
  0
LAYER
  2
TEAM-DET1
 70
     0
 62
     4
  6
CONTINUOUS
  0
LAYER
  2
TEAM-HIDE
 70
     0
 62
     8
  6
22
  0
LAYER
  2
TEAM-DET3
 70
     0
 62
    14
  6
CONTINUOUS
  0
LAYER
  2
TEAM-INSP
 70
     0
 62
     5
  6
CONTINUOUS
  0
ENDTAB
  0
TABLE
  2
STYLE
 70
     2
  0
STYLE
  2
STANDARD
 70
     0
 40
0.0
 41
1.0
 50
0.0
 71
     0
 42
200.0
  3
txt
  4

  0
STYLE
  2
TEAM
 70
     0
 40
0.0
 41
0.8
 50
15.0
 71
     0
 42
7.0
  3
ROMANS.shx
  4

  0
ENDTAB
  0
TABLE
  2
VIEW
 70
     0
  0
ENDTAB
  0
TABLE
  2
UCS
 70
     0
  0
ENDTAB
  0
TABLE
  2
APPID
 70
     1
  0
APPID
  2
ACAD
 70
     0
  0
ENDTAB
  0
TABLE
  2
DIMSTYLE
 70
     1
  0
DIMSTYLE
  2
TEAM
 70
     0
  3

  4

  5

  6

  7

 40
0.0
 41
20.0
 42
10.0
 43
1.0
 44
1.0
 45
0.0
 46
0.0
 47
0.0
 48
0.0
140
35.0
141
1.0
142
0.0
143
25.4
144
1.0
145
0.0
146
1.0
147
7.0
 71
     0
 72
     0
 73
     0
 74
     0
 75
     0
 76
     0
 77
     0
 78
     0
170
     0
171
     2
172
     0
173
     0
174
     0
175
     0
176
     9
177
     9
178
    11
  0
ENDTAB
  0
ENDSEC
  0
SECTION
  2
BLOCKS
  0
BLOCK
  8
0
  2
$MODEL_SPACE
 70
     0
 10
0.0
 20
0.0
 30
0.0
  3
$MODEL_SPACE
  1

  0
ENDBLK
  5
B9
  8
0
  0
BLOCK
 67
     1
  8
0
  2
$PAPER_SPACE
 70
     0
 10
0.0
 20
0.0
 30
0.0
  3
$PAPER_SPACE
  1

  0
ENDBLK
  5
B7
 67
     1
  8
0
  0
BLOCK
  8
0
  2
*D0
 70
     1
 10
0.0
 20
0.0
 30
0.0
  3
*D0
  1

  0
LINE
  5
44
  8
0
  6
BYBLOCK
 62
     9
 10
8361.0
 20
188600.0
 30
0.0
 11
8639.168619
 21
188600.0
 31
0.0
  0
LINE
  5
45
  8
0
  6
BYBLOCK
 62
     9
 10
8010.0
 20
188000.0
 30
0.0
 11
8639.168619
 21
188000.0
 31
0.0
  0
LINE
  5
46
  8
0
  6
BYBLOCK
 62
     9
 10
8638.168619
 20
188580.0
 30
0.0
 11
8638.168619
 21
188347.833333
 31
0.0
  0
LINE
  5
47
  8
0
  6
BYBLOCK
 62
     9
 10
8638.168619
 20
188020.0
 30
0.0
 11
8638.168619
 21
188252.166667
 31
0.0
  0
SOLID
  5
48
  8
0
  6
BYBLOCK
 62
     9
 10
8634.835285
 20
188580.0
 30
0.0
 11
8641.501952
 21
188580.0
 31
0.0
 12
8638.168619
 22
188600.0
 32
0.0
 13
8638.168619
 23
188600.0
 33
0.0
  0
SOLID
  5
49
  8
0
  6
BYBLOCK
 62
     9
 10
8634.835285
 20
188020.0
 30
0.0
 11
8641.501952
 21
188020.0
 31
0.0
 12
8638.168619
 22
188000.0
 32
0.0
 13
8638.168619
 23
188000.0
 33
0.0
  0
TEXT
  5
4A
  8
0
  6
BYBLOCK
 62
    11
 10
8655.668619
 20
188259.166667
 30
0.0
 40
35.0
  1
600
 50
90.0
  0
POINT
  5
4B
  8
DEFPOINTS
  6
BYBLOCK
 62
     0
 10
8351.0
 20
188600.0
 30
0.0
  0
POINT
  5
4C
  8
DEFPOINTS
  6
BYBLOCK
 62
     0
 10
8000.0
 20
188000.0
 30
0.0
  0
POINT
  5
4D
  8
DEFPOINTS
  6
BYBLOCK
 62
     0
 10
8638.168619
 20
188000.0
 30
0.0
  0
ENDBLK
  5
4F
  8
0
  0
BLOCK
  8
0
  2
*D1
 70
     1
 10
0.0
 20
0.0
 30
0.0
  3
*D1
  1

  0
LINE
  5
35
  8
0
  6
BYBLOCK
 62
     9
 10
8538.0
 20
188600.0
 30
0.0
 11
8595.360129
 21
188600.0
 31
0.0
  0
LINE
  5
36
  8
0
  6
BYBLOCK
 62
     9
 10
8075.0
 20
188130.0
 30
0.0
 11
8595.360129
 21
188130.0
 31
0.0
  0
LINE
  5
37
  8
0
  6
BYBLOCK
 62
     9
 10
8594.360129
 20
188580.0
 30
0.0
 11
8594.360129
 21
188415.75
 31
0.0
  0
LINE
  5
38
  8
0
  6
BYBLOCK
 62
     9
 10
8594.360129
 20
188150.0
 30
0.0
 11
8594.360129
 21
188314.25
 31
0.0
  0
SOLID
  5
39
  8
0
  6
BYBLOCK
 62
     9
 10
8591.026795
 20
188580.0
 30
0.0
 11
8597.693462
 21
188580.0
 31
0.0
 12
8594.360129
 22
188600.0
 32
0.0
 13
8594.360129
 23
188600.0
 33
0.0
  0
SOLID
  5
3A
  8
0
  6
BYBLOCK
 62
     9
 10
8591.026795
 20
188150.0
 30
0.0
 11
8597.693462
 21
188150.0
 31
0.0
 12
8594.360129
 22
188130.0
 32
0.0
 13
8594.360129
 23
188130.0
 33
0.0
  0
TEXT
  5
3B
  8
0
  6
BYBLOCK
 62
    11
 10
8611.860129
 20
188321.25
 30
0.0
 40
35.0
  1
470
 50
90.0
  0
POINT
  5
3C
  8
DEFPOINTS
  6
BYBLOCK
 62
     0
 10
8528.0
 20
188600.0
 30
0.0
  0
POINT
  5
3E
  8
DEFPOINTS
  6
BYBLOCK
 62
     0
 10
8065.0
 20
188130.0
 30
0.0
  0
POINT
  5
3F
  8
DEFPOINTS
  6
BYBLOCK
 62
     0
 10
8594.360129
 20
188130.0
 30
0.0
  0
ENDBLK
  5
41
  8
0
  0
ENDSEC
  0
SECTION
  2
ENTITIES
  0
LINE
  5
20
  8
TEAM-DET1
 10
534.0
 20
568.0
 30
0.0
 11
314.622581
 21
568.0
 31
0.0
  0
LINE
  5
22
  8
TEAM-DET1
 10
-534.0
 20
568.0
 30
0.0
 11
-464.622581
 21
568.0
 31
0.0
  0
TEXT
  5
23
  8
TEAM-TXT
 10
-409.196448
 20
548.052942
 30
0.0
 40
30.0
  1
team 121395
 41
0.7
 51
15.0
  7
TEAM
  0
LINE
  5
26
  8
TEAM-DET1
 10
-501.0
 20
600.0
 30
0.0
 11
351.0
 21
600.0
 31
0.0
  0
LINE
  5
27
  8
TEAM-DET1
 10
-528.0
 20
600.0
 30
0.0
 11
528.0
 21
600.0
 31
0.0
  0
CIRCLE
  5
28
  8
TEAM-INSP
 10
0.0
 20
0.0
 30
0.0
 40
10.0
  0
LINE
  5
2A
  8
TEAM-HIDE
 10
550.0
 20
0.0
 30
0.0
 11
-550.0
 21
0.0
 31
0.0
  0
LINE
  5
2D
  8
TEAM-DET3
 10
-550.0
 20
576.0
 30
0.0
 11
-550.0
 21
0.0
 31
0.0
  0
LINE
  5
2F
  8
TEAM-DET3
 10
550.0
 20
576.0
 30
0.0
 11
550.0
 21
0.0
 31
0.0
  0
POLYLINE
  5
30
  8
TEAM-DET1
 66
     1
 10
0.0
 20
0.0
 30
0.0
  0
VERTEX
  5
BF
  8
TEAM-DET1
 10
-29.252415
 20
130.23845
 30
0.0
 42
0.316215
  0
VERTEX
  5
C0
  8
TEAM-DET1
 10
64.617272
 20
218.427924
 30
0.0
  0
VERTEX
  5
C1
  8
TEAM-DET1
 10
115.826407
 20
575.16374
 30
0.0
 42
-0.225082
  0
VERTEX
  5
C2
  8
TEAM-DET1
 10
137.930003
 20
600.0
 30
0.0
  0
SEQEND
  5
C3
  8
TEAM-DET1
  0
POLYLINE
  5
31
  8
TEAM-BODY
 66
     1
 10
0.0
 20
0.0
 30
0.0
  0
VERTEX
  5
C4
  8
TEAM-BODY
 10
-534.0
 20
568.0
 30
0.0
  0
VERTEX
  5
C5
  8
TEAM-BODY
 10
-542.0
 20
568.0
 30
0.0
 42
-0.414214
  0
VERTEX
  5
C6
  8
TEAM-BODY
 10
-550.0
 20
576.0
 30
0.0
  0
VERTEX
  5
C7
  8
TEAM-BODY
 10
-550.0
 20
592.0
 30
0.0
 42
-0.436161
  0
VERTEX
  5
C8
  8
TEAM-BODY
 10
-541.40577
 20
599.9779
 30
0.0
  0
VERTEX
  5
C9
  8
TEAM-BODY
 10
-528.0
 20
600.0
 30
0.0
  0
VERTEX
  5
CA
  8
TEAM-BODY
 10
-487.930003
 20
595.890257
 30
0.0
 42
-0.337533
  0
VERTEX
  5
CB
  8
TEAM-BODY
 10
-465.826407
 20
575.16374
 30
0.0
  0
VERTEX
  5
CC
  8
TEAM-BODY
 10
-414.617272
 20
218.427924
 30
0.0
 42
0.352611
  0
VERTEX
  5
CD
  8
TEAM-BODY
 10
-320.8292
 20
135.116674
 30
0.0
  0
VERTEX
  5
CE
  8
TEAM-BODY
 10
-15.0
 20
130.0
 30
0.0
  0
VERTEX
  5
CF
  8
TEAM-BODY
 10
65.0
 20
130.0
 30
0.0
  0
VERTEX
  5
D0
  8
TEAM-BODY
 10
170.8292
 20
135.116674
 30
0.0
 42
0.352611
  0
VERTEX
  5
D1
  8
TEAM-BODY
 10
264.617272
 20
218.427924
 30
0.0
  0
VERTEX
  5
D2
  8
TEAM-BODY
 10
315.826407
 20
575.16374
 30
0.0
 42
-0.337533
  0
VERTEX
  5
D3
  8
TEAM-BODY
 10
337.930003
 20
595.890257
 30
0.0
  0
VERTEX
  5
D4
  8
TEAM-BODY
 10
528.0
 20
600.0
 30
0.0
  0
VERTEX
  5
D5
  8
TEAM-BODY
 10
541.40577
 20
599.9779
 30
0.0
 42
-0.436161
  0
VERTEX
  5
D6
  8
TEAM-BODY
 10
550.0
 20
592.0
 30
0.0
  0
VERTEX
  5
D7
  8
TEAM-BODY
 10
550.0
 20
576.0
 30
0.0
 42
-0.414214
  0
VERTEX
  5
D8
  8
TEAM-BODY
 10
542.0
 20
568.0
 30
0.0
  0
VERTEX
  5
D9
  8
TEAM-BODY
 10
534.0
 20
568.0
 30
0.0
  0
SEQEND
  5
DA
  8
TEAM-BODY
  0
DIMENSION
  5
33
  8
TEAM-MAS
  2
*D1
 10
594.360129
 20
130.0
 30
0.0
 11
594.360129
 21
365.0
 31
0.0
 12
-8000.0
 22
-188000.0
 32
0.0
 13
528.0
 23
600.0
 33
0.0
 14
65.0
 24
130.0
 34
0.0
 50
90.0
1001
ACAD
1000
DSTYLE
1002
{
1070
    40
1040
1.0
1002
}
  0
DIMENSION
  5
42
  8
TEAM-MAS
  2
*D0
 10
638.168619
 20
0.0
 30
0.0
 11
638.168619
 21
300.0
 31
0.0
 12
-8000.0
 22
-188000.0
 32
0.0
 13
351.0
 23
600.0
 33
0.0
 14
0.0
 24
0.0
 34
0.0
 50
90.0
1001
ACAD
1000
DSTYLE
1002
{
1070
    40
1040
1.0
1002
}
  0
ENDSEC
  0
EOF
