  0
SECTION
  2
HEADER
  9
$ACADVER
  1
AC1009
  9
$INSBASE
 10
0.0
 20
0.0
 30
0.0
  9
$EXTMIN
 10
-876.017719
 20
-10.018614
 30
-0.001526
  9
$EXTMAX
 10
927.689695
 20
602.112886
 30
0.0
  9
$LIMMIN
 10
-876.017719
 20
-10.018614
  9
$LIMMAX
 10
927.689695
 20
602.112886
  9
$ORTHOMODE
 70
     1
  9
$REGENMODE
 70
     1
  9
$FILLMODE
 70
     1
  9
$QTEXTMODE
 70
     0
  9
$MIRRTEXT
 70
     0
  9
$DRAGMODE
 70
     2
  9
$LTSCALE
 40
50.0
  9
$OSMODE
 70
     7
  9
$ATTMODE
 70
     1
  9
$TEXTSIZE
 40
200.0
  9
$TRACEWID
 40
1.0
  9
$TEXTSTYLE
  7
STANDARD
  9
$CLAYER
  8
TEAM-MAS
  9
$CELTYPE
  6
BYLAYER
  9
$CECOLOR
 62
   256
  9
$DIMSCALE
 40
0.0
  9
$DIMASZ
 40
20.0
  9
$DIMEXO
 40
10.0
  9
$DIMDLI
 40
1.0
  9
$DIMRND
 40
0.0
  9
$DIMDLE
 40
0.0
  9
$DIMEXE
 40
1.0
  9
$DIMTP
 40
0.0
  9
$DIMTM
 40
0.0
  9
$DIMTXT
 40
35.0
  9
$DIMCEN
 40
1.0
  9
$DIMTSZ
 40
0.0
  9
$DIMTOL
 70
     0
  9
$DIMLIM
 70
     0
  9
$DIMTIH
 70
     0
  9
$DIMTOH
 70
     0
  9
$DIMSE1
 70
     0
  9
$DIMSE2
 70
     0
  9
$DIMTAD
 70
     0
  9
$DIMZIN
 70
     0
  9
$DIMBLK
  1

  9
$DIMASO
 70
     1
  9
$DIMSHO
 70
     0
  9
$DIMPOST
  1

  9
$DIMAPOST
  1

  9
$DIMALT
 70
     0
  9
$DIMALTD
 70
     2
  9
$DIMALTF
 40
25.4
  9
$DIMLFAC
 40
1.0
  9
$DIMTOFL
 70
     0
  9
$DIMTVP
 40
0.0
  9
$DIMTIX
 70
     0
  9
$DIMSOXD
 70
     0
  9
$DIMSAH
 70
     0
  9
$DIMBLK1
  1

  9
$DIMBLK2
  1

  9
$DIMSTYLE
  2
TEAM
  9
$DIMCLRD
 70
     9
  9
$DIMCLRE
 70
     9
  9
$DIMCLRT
 70
    11
  9
$DIMTFAC
 40
1.0
  9
$DIMGAP
 40
7.0
  9
$LUNITS
 70
     2
  9
$LUPREC
 70
     1
  9
$SKETCHINC
 40
1.0
  9
$FILLETRAD
 40
9.5
  9
$AUNITS
 70
     0
  9
$AUPREC
 70
     0
  9
$MENU
  1
ROPLANS
  9
$ELEVATION
 40
0.0
  9
$PELEVATION
 40
0.0
  9
$THICKNESS
 40
0.0
  9
$LIMCHECK
 70
     0
  9
$BLIPMODE
 70
     1
  9
$CHAMFERA
 40
0.0
  9
$CHAMFERB
 40
0.0
  9
$SKPOLY
 70
     0
  9
$TDCREATE
 40
2450392.957851
  9
$TDUPDATE
 40
2455944.717343
  9
$TDINDWG
 40
3.569992
  9
$TDUSRTIMER
 40
3.569992
  9
$USRTIMER
 70
     1
  9
$ANGBASE
 50
0.0
  9
$ANGDIR
 70
     0
  9
$PDMODE
 70
     0
  9
$PDSIZE
 40
0.0
  9
$PLINEWID
 40
0.0
  9
$COORDS
 70
     2
  9
$SPLFRAME
 70
     0
  9
$SPLINETYPE
 70
     6
  9
$SPLINESEGS
 70
     8
  9
$ATTDIA
 70
     0
  9
$ATTREQ
 70
     0
  9
$HANDLING
 70
     1
  9
$HANDSEED
  5
132
  9
$SURFTAB1
 70
    24
  9
$SURFTAB2
 70
    24
  9
$SURFTYPE
 70
     6
  9
$SURFU
 70
     6
  9
$SURFV
 70
     6
  9
$UCSNAME
  2

  9
$UCSORG
 10
0.0
 20
0.0
 30
0.0
  9
$UCSXDIR
 10
1.0
 20
0.0
 30
0.0
  9
$UCSYDIR
 10
0.0
 20
1.0
 30
0.0
  9
$PUCSNAME
  2

  9
$PUCSORG
 10
0.0
 20
0.0
 30
0.0
  9
$PUCSXDIR
 10
1.0
 20
0.0
 30
0.0
  9
$PUCSYDIR
 10
0.0
 20
1.0
 30
0.0
  9
$USERI1
 70
     0
  9
$USERI2
 70
     0
  9
$USERI3
 70
     0
  9
$USERI4
 70
     0
  9
$USERI5
 70
     0
  9
$USERR1
 40
0.0
  9
$USERR2
 40
0.0
  9
$USERR3
 40
0.0
  9
$USERR4
 40
0.0
  9
$USERR5
 40
0.0
  9
$WORLDVIEW
 70
     1
  9
$SHADEDGE
 70
     0
  9
$SHADEDIF
 70
    70
  9
$TILEMODE
 70
     1
  9
$MAXACTVP
 70
    16
  9
$PLIMCHECK
 70
     0
  9
$PEXTMIN
 10
-0.805942
 20
0.005011
 30
0.0
  9
$PEXTMAX
 10
20.250094
 20
11.356329
 30
0.0
  9
$PLIMMIN
 10
0.0
 20
0.0
  9
$PLIMMAX
 10
12.0
 20
9.0
  9
$UNITMODE
 70
     0
  9
$VISRETAIN
 70
     0
  9
$PLINEGEN
 70
     0
  9
$PSLTSCALE
 70
     0
  0
ENDSEC
  0
SECTION
  2
TABLES
  0
TABLE
  2
VPORT
 70
     2
  0
VPORT
  2
*ACTIVE
 70
     0
 10
0.0
 20
0.0
 11
1.0
 21
1.0
 12
25.835988
 22
296.047136
 13
0.0
 23
0.0
 14
1.0
 24
1.0
 15
50.0
 25
50.0
 16
0.0
 26
0.0
 36
1.0
 17
0.0
 27
0.0
 37
0.0
 40
950.562087
 41
1.903766
 42
50.0
 43
0.0
 44
0.0
 50
0.0
 51
0.0
 71
     0
 72
   100
 73
     1
 74
     1
 75
     0
 76
     0
 77
     0
 78
     0
  0
ENDTAB
  0
TABLE
  2
LTYPE
 70
     3
  0
LTYPE
  2
CONTINUOUS
 70
     0
  3
Solid Line
 72
    65
 73
     0
 40
0.0
  0
LTYPE
  2
31
 70
     0
  3

 72
    65
 73
     4
 40
2.1
 49
1.5
 49
-0.3
 49
0.0
 49
-0.3
  0
LTYPE
  2
22
 70
     0
  3

 72
    65
 73
     2
 40
1.4
 49
1.2
 49
-0.2
  0
ENDTAB
  0
TABLE
  2
LAYER
 70
    11
  0
LAYER
  2
0
 70
     0
 62
     7
  6
CONTINUOUS
  0
LAYER
  2
DEFPOINTS
 70
     0
 62
     7
  6
CONTINUOUS
  0
LAYER
  2
TEAM-BODY
 70
     0
 62
     2
  6
CONTINUOUS
  0
LAYER
  2
TEAM-AXE
 70
     0
 62
    10
  6
31
  0
LAYER
  2
TEAM-MAS
 70
     0
 62
     9
  6
CONTINUOUS
  0
LAYER
  2
TEAM-TXT
 70
     0
 62
    11
  6
CONTINUOUS
  0
LAYER
  2
TEAM-DET1
 70
     0
 62
     4
  6
CONTINUOUS
  0
LAYER
  2
TEAM-HIDE
 70
     0
 62
     8
  6
22
  0
LAYER
  2
TEAM-KAN
 70
     0
 62
     6
  6
CONTINUOUS
  0
LAYER
  2
TEAM-DET3
 70
     0
 62
    14
  6
CONTINUOUS
  0
LAYER
  2
TEAM-INSP
 70
     0
 62
     5
  6
CONTINUOUS
  0
ENDTAB
  0
TABLE
  2
STYLE
 70
     2
  0
STYLE
  2
STANDARD
 70
     0
 40
0.0
 41
1.0
 50
0.0
 71
     0
 42
200.0
  3
txt
  4

  0
STYLE
  2
TEAM
 70
     0
 40
0.0
 41
0.8
 50
15.0
 71
     0
 42
7.0
  3
ROMANS.shx
  4

  0
ENDTAB
  0
TABLE
  2
VIEW
 70
     0
  0
ENDTAB
  0
TABLE
  2
UCS
 70
     0
  0
ENDTAB
  0
TABLE
  2
APPID
 70
     1
  0
APPID
  2
ACAD
 70
     0
  0
ENDTAB
  0
TABLE
  2
DIMSTYLE
 70
     1
  0
DIMSTYLE
  2
TEAM
 70
     0
  3

  4

  5

  6

  7

 40
0.0
 41
20.0
 42
10.0
 43
1.0
 44
1.0
 45
0.0
 46
0.0
 47
0.0
 48
0.0
140
35.0
141
1.0
142
0.0
143
25.4
144
1.0
145
0.0
146
1.0
147
7.0
 71
     0
 72
     0
 73
     0
 74
     0
 75
     0
 76
     0
 77
     0
 78
     0
170
     0
171
     2
172
     0
173
     0
174
     0
175
     0
176
     9
177
     9
178
    11
  0
ENDTAB
  0
ENDSEC
  0
SECTION
  2
BLOCKS
  0
BLOCK
  8
0
  2
$MODEL_SPACE
 70
     0
 10
0.0
 20
0.0
 30
0.0
  3
$MODEL_SPACE
  1

  0
ENDBLK
  5
103
  8
0
  0
BLOCK
 67
     1
  8
0
  2
$PAPER_SPACE
 70
     0
 10
0.0
 20
0.0
 30
0.0
  3
$PAPER_SPACE
  1

  0
ENDBLK
  5
101
 67
     1
  8
0
  0
BLOCK
  8
0
  2
*D0
 70
     1
 10
0.0
 20
0.0
 30
0.0
  3
*D0
  1

  0
LINE
  5
2C
  8
0
  6
BYBLOCK
 62
     9
 10
12874.600033
 20
188600.0
 30
0.0
 11
12911.134679
 21
188600.0
 31
0.0
  0
LINE
  5
2D
  8
0
  6
BYBLOCK
 62
     9
 10
12208.926401
 20
188129.999994
 30
0.0
 11
12911.134679
 21
188129.999994
 31
0.0
  0
LINE
  5
2E
  8
0
  6
BYBLOCK
 62
     9
 10
12910.134679
 20
188580.0
 30
0.0
 11
12910.134679
 21
188415.749997
 31
0.0
  0
LINE
  5
2F
  8
0
  6
BYBLOCK
 62
     9
 10
12910.134679
 20
188149.999994
 30
0.0
 11
12910.134679
 21
188314.249997
 31
0.0
  0
SOLID
  5
30
  8
0
  6
BYBLOCK
 62
     9
 10
12906.801345
 20
188580.0
 30
0.0
 11
12913.468012
 21
188580.0
 31
0.0
 12
12910.134679
 22
188600.0
 32
0.0
 13
12910.134679
 23
188600.0
 33
0.0
  0
SOLID
  5
31
  8
0
  6
BYBLOCK
 62
     9
 10
12906.801345
 20
188149.999994
 30
0.0
 11
12913.468012
 21
188149.999994
 31
0.0
 12
12910.134679
 22
188129.999994
 32
0.0
 13
12910.134679
 23
188129.999994
 33
0.0
  0
TEXT
  5
32
  8
0
  6
BYBLOCK
 62
    11
 10
12927.634679
 20
188321.249997
 30
0.0
 40
35.0
  1
470
 50
90.0
  0
POINT
  5
33
  8
DEFPOINTS
  6
BYBLOCK
 62
     0
 10
12864.600033
 20
188600.0
 30
0.0
  0
POINT
  5
35
  8
DEFPOINTS
  6
BYBLOCK
 62
     0
 10
12198.926401
 20
188129.999994
 30
0.0
  0
POINT
  5
36
  8
DEFPOINTS
  6
BYBLOCK
 62
     0
 10
12910.134679
 20
188129.999994
 30
0.0
  0
ENDBLK
  5
38
  8
0
  0
BLOCK
  8
0
  2
*D1
 70
     1
 10
0.0
 20
0.0
 30
0.0
  3
*D1
  1

  0
LINE
  5
54
  8
0
  6
BYBLOCK
 62
     9
 10
12172.926401
 20
188119.999994
 30
0.0
 11
12172.926401
 21
188059.828193
 31
0.0
  0
LINE
  5
55
  8
0
  6
BYBLOCK
 62
     9
 10
12224.926401
 20
188119.999994
 30
0.0
 11
12224.926401
 21
188059.828193
 31
0.0
  0
LINE
  5
56
  8
0
  6
BYBLOCK
 62
     9
 10
12152.926401
 20
188060.828193
 30
0.0
 11
12132.926401
 21
188060.828193
 31
0.0
  0
LINE
  5
57
  8
0
  6
BYBLOCK
 62
     9
 10
12244.926401
 20
188060.828193
 30
0.0
 11
12264.926401
 21
188060.828193
 31
0.0
  0
TEXT
  5
58
  8
0
  6
BYBLOCK
 62
    11
 10
12277.674467
 20
188043.328193
 30
0.0
 40
35.0
  1
52
  0
LINE
  5
59
  8
0
  6
BYBLOCK
 62
     9
 10
12172.926401
 20
188060.828193
 30
0.0
 11
12224.926401
 21
188060.828193
 31
0.0
  0
SOLID
  5
5A
  8
0
  6
BYBLOCK
 62
     9
 10
12152.926401
 20
188064.161527
 30
0.0
 11
12152.926401
 21
188057.49486
 31
0.0
 12
12172.926401
 22
188060.828193
 32
0.0
 13
12172.926401
 23
188060.828193
 33
0.0
  0
SOLID
  5
5B
  8
0
  6
BYBLOCK
 62
     9
 10
12244.926401
 20
188064.161527
 30
0.0
 11
12244.926401
 21
188057.49486
 31
0.0
 12
12224.926401
 22
188060.828193
 32
0.0
 13
12224.926401
 23
188060.828193
 33
0.0
  0
POINT
  5
5C
  8
DEFPOINTS
  6
BYBLOCK
 62
     0
 10
12172.926401
 20
188129.999994
 30
0.0
  0
POINT
  5
5D
  8
DEFPOINTS
  6
BYBLOCK
 62
     0
 10
12224.926401
 20
188129.999994
 30
0.0
  0
POINT
  5
5E
  8
DEFPOINTS
  6
BYBLOCK
 62
     0
 10
12224.926401
 20
188060.828193
 30
0.0
  0
ENDBLK
  5
60
  8
0
  0
ENDSEC
  0
SECTION
  2
ENTITIES
  0
LINE
  5
20
  8
TEAM-DET1
 10
874.600033
 20
564.999916
 30
0.0
 11
-733.088198
 21
565.000083
 31
0.0
  0
LINE
  5
22
  8
TEAM-BODY
 10
-869.934725
 20
600.0
 30
0.0
 11
864.600033
 21
600.0
 31
0.0
  0
LINE
  5
24
  8
TEAM-DET3
 10
608.952982
 20
132.895986
 30
0.0
 11
286.38446
 21
129.887822
 31
0.0
  0
LINE
  5
26
  8
TEAM-BODY
 10
185.877109
 20
143.851053
 30
0.0
 11
628.291934
 21
155.436093
 31
0.0
  0
LINE
  5
27
  8
TEAM-HIDE
 10
-875.0
 20
0.0
 30
0.0
 11
875.0
 21
0.0
 31
0.0
  0
DIMENSION
  5
2A
  8
TEAM-MAS
  2
*D0
 10
910.134679
 20
129.999994
 30
0.0
 11
910.134679
 21
364.999997
 31
0.0
 12
-12000.0
 22
-188000.0
 32
0.0
 13
864.600033
 23
600.0
 33
0.0
 14
198.926401
 24
129.999994
 34
0.0
 50
90.0
1001
ACAD
1000
DSTYLE
1002
{
1070
    40
1040
1.0
1002
}
  0
LINE
  5
39
  8
TEAM-DET1
 10
-875.0
 20
565.000083
 30
0.0
 11
-733.088198
 21
565.000083
 31
0.0
  0
ARC
  5
3A
  8
TEAM-BODY
 10
-869.934725
 20
595.0
 30
0.0
 40
5.0
 50
90.0
 51
179.875357
  0
LINE
  5
3B
  8
TEAM-BODY
 10
-875.0
 20
565.000083
 30
0.0
 11
-874.934713
 21
595.010877
 31
0.0
  0
CIRCLE
  5
3C
  8
TEAM-INSP
 10
0.0
 20
0.0
 30
0.0
 40
10.0
  0
LINE
  5
3E
  8
TEAM-DET3
 10
104.94353
 20
132.104651
 30
0.0
 11
116.458028
 21
145.668855
 31
0.0
  0
LINE
  5
3F
  8
TEAM-DET3
 10
-308.632184
 20
114.745045
 30
0.0
 11
-319.796297
 21
114.745045
 31
0.0
  0
LINE
  5
40
  8
TEAM-DET3
 10
-304.21424
 20
88.237384
 30
0.0
 11
-308.632184
 21
114.745045
 31
0.0
  0
LINE
  5
41
  8
TEAM-DET3
 10
-324.21424
 20
88.237384
 30
0.0
 11
-319.796297
 21
114.745045
 31
0.0
  0
LINE
  5
42
  8
TEAM-DET3
 10
-304.21424
 20
40.0
 30
0.0
 11
-304.21424
 21
88.237384
 31
0.0
  0
LINE
  5
43
  8
TEAM-DET3
 10
-324.21424
 20
88.237384
 30
0.0
 11
-304.21424
 21
88.237384
 31
0.0
  0
LINE
  5
44
  8
TEAM-DET3
 10
-324.21424
 20
40.0
 30
0.0
 11
-324.21424
 21
88.237384
 31
0.0
  0
LINE
  5
45
  8
TEAM-DET3
 10
-308.632184
 20
114.745045
 30
0.0
 11
-308.632184
 21
156.800234
 31
0.0
  0
LINE
  5
46
  8
TEAM-DET3
 10
-319.796297
 20
114.745045
 30
0.0
 11
-319.796297
 21
157.092577
 31
0.0
  0
LINE
  5
47
  8
TEAM-DET3
 10
-299.21424
 20
0.0
 30
0.0
 11
-299.21424
 21
40.0
 31
0.0
  0
LINE
  5
48
  8
TEAM-DET3
 10
-329.21424
 20
0.0
 30
0.0
 11
-329.21424
 21
40.0
 31
0.0
  0
LINE
  5
49
  8
TEAM-DET3
 10
-329.21424
 20
40.0
 30
0.0
 11
-299.21424
 21
40.0
 31
0.0
  0
LINE
  5
4A
  8
TEAM-DET3
 10
286.38446
 20
129.887822
 30
0.0
 11
272.514577
 21
146.119735
 31
0.0
  0
LINE
  5
4B
  8
TEAM-BODY
 10
224.926401
 20
129.999994
 30
0.0
 11
242.802705
 21
144.999994
 31
0.0
  0
LINE
  5
4C
  8
TEAM-BODY
 10
155.050097
 20
144.999994
 30
0.0
 11
172.926401
 21
129.999994
 31
0.0
  0
POLYLINE
  5
4D
  8
TEAM-AXE
 66
     1
 10
0.0
 20
0.0
 30
0.0
  0
VERTEX
  5
109
  8
TEAM-AXE
 10
170.926616
 20
530.0
 30
0.0
  0
VERTEX
  5
10A
  8
TEAM-AXE
 10
226.926172
 20
530.0
 30
0.0
  0
SEQEND
  5
10B
  8
TEAM-AXE
  0
LINE
  5
50
  8
TEAM-KAN
 10
172.926401
 20
129.999994
 30
0.0
 11
224.926401
 21
129.999994
 31
0.0
  0
DIMENSION
  5
52
  8
TEAM-MAS
  2
*D1
 10
224.926401
 20
60.828193
 30
0.0
 11
306.841134
 21
60.828193
 31
0.0
 12
-12000.0
 22
-188000.0
 32
0.0
 70
   128
 13
172.926401
 23
129.999994
 33
0.0
 14
224.926401
 24
129.999994
 34
0.0
1001
ACAD
1000
DSTYLE
1002
{
1070
    40
1040
1.0
1002
}
  0
LINE
  5
61
  8
TEAM-DET3
 10
-374.038282
 20
137.956809
 30
0.0
 11
-392.005162
 21
158.983433
 31
0.0
  0
ARC
  5
62
  8
TEAM-BODY
 10
-460.646194
 20
240.808285
 30
0.0
 40
80.0
 50
218.47726
 51
268.5
  0
LINE
  5
63
  8
TEAM-BODY
 10
185.877109
 20
143.851053
 30
0.0
 11
-462.74035
 21
160.835699
 31
0.0
  0
LINE
  5
64
  8
TEAM-DET3
 10
104.94353
 20
132.104651
 30
0.0
 11
-374.038282
 21
137.956809
 31
0.0
  0
LINE
  5
65
  8
TEAM-DET3
 10
-875.0
 20
565.000083
 30
0.0
 11
-875.0
 21
0.0
 31
0.0
  0
POLYLINE
  5
66
  8
TEAM-AXE
 66
     1
 10
0.0
 20
0.0
 30
0.0
  0
VERTEX
  5
10C
  8
TEAM-AXE
 10
198.926401
 20
561.0
 30
0.0
  0
VERTEX
  5
10D
  8
TEAM-AXE
 10
198.926401
 20
499.00056
 30
0.0
  0
SEQEND
  5
10E
  8
TEAM-AXE
  0
POLYLINE
  5
67
  8
TEAM-DET1
 66
     1
 10
0.0
 20
0.0
 30
0.0
 70
   129
  0
VERTEX
  5
10F
  8
TEAM-DET1
 10
198.926401
 20
556.0
 30
0.0
  0
VERTEX
  5
110
  8
TEAM-DET1
 10
194.573622
 20
555.530146
 30
0.0
  0
VERTEX
  5
111
  8
TEAM-DET1
 10
190.378164
 20
554.137566
 30
0.0
  0
VERTEX
  5
112
  8
TEAM-DET1
 10
186.491662
 20
551.872592
 30
0.0
  0
VERTEX
  5
113
  8
TEAM-DET1
 10
183.054584
 20
548.817085
 30
0.0
  0
VERTEX
  5
114
  8
TEAM-DET1
 10
180.191154
 20
545.08148
 30
0.0
  0
VERTEX
  5
115
  8
TEAM-DET1
 10
178.004865
 20
540.80079
 30
0.0
  0
VERTEX
  5
116
  8
TEAM-DET1
 10
176.574735
 20
536.129732
 30
0.0
  0
VERTEX
  5
117
  8
TEAM-DET1
 10
175.952452
 20
531.23713
 30
0.0
  0
VERTEX
  5
118
  8
TEAM-DET1
 10
176.160508
 20
526.299814
 30
0.0
  0
VERTEX
  5
119
  8
TEAM-DET1
 10
177.191382
 20
521.496233
 30
0.0
  0
VERTEX
  5
11A
  8
TEAM-DET1
 10
179.007817
 20
517.0
 30
0.0
  0
VERTEX
  5
11B
  8
TEAM-DET1
 10
181.544161
 20
512.973621
 30
0.0
  0
VERTEX
  5
11C
  8
TEAM-DET1
 10
184.708744
 20
509.56262
 30
0.0
  0
VERTEX
  5
11D
  8
TEAM-DET1
 10
188.387191
 20
506.890278
 30
0.0
  0
VERTEX
  5
11E
  8
TEAM-DET1
 10
192.446552
 20
505.053183
 30
0.0
  0
VERTEX
  5
11F
  8
TEAM-DET1
 10
196.740112
 20
504.11773
 30
0.0
  0
VERTEX
  5
120
  8
TEAM-DET1
 10
201.11269
 20
504.11773
 30
0.0
  0
VERTEX
  5
121
  8
TEAM-DET1
 10
205.40625
 20
505.053183
 30
0.0
  0
VERTEX
  5
122
  8
TEAM-DET1
 10
209.465611
 20
506.890278
 30
0.0
  0
VERTEX
  5
123
  8
TEAM-DET1
 10
213.144058
 20
509.56262
 30
0.0
  0
VERTEX
  5
124
  8
TEAM-DET1
 10
216.308641
 20
512.973621
 30
0.0
  0
VERTEX
  5
125
  8
TEAM-DET1
 10
218.844985
 20
517.0
 30
0.0
  0
VERTEX
  5
126
  8
TEAM-DET1
 10
220.66142
 20
521.496233
 30
0.0
  0
VERTEX
  5
127
  8
TEAM-DET1
 10
221.692294
 20
526.299814
 30
0.0
  0
VERTEX
  5
128
  8
TEAM-DET1
 10
221.90035
 20
531.23713
 30
0.0
  0
VERTEX
  5
129
  8
TEAM-DET1
 10
221.278067
 20
536.129732
 30
0.0
  0
VERTEX
  5
12A
  8
TEAM-DET1
 10
219.847937
 20
540.80079
 30
0.0
  0
VERTEX
  5
12B
  8
TEAM-DET1
 10
217.661648
 20
545.08148
 30
0.0
  0
VERTEX
  5
12C
  8
TEAM-DET1
 10
214.798218
 20
548.817085
 30
0.0
  0
VERTEX
  5
12D
  8
TEAM-DET1
 10
211.36114
 20
551.872592
 30
0.0
  0
VERTEX
  5
12E
  8
TEAM-DET1
 10
207.474637
 20
554.137566
 30
0.0
  0
VERTEX
  5
12F
  8
TEAM-DET1
 10
203.27918
 20
555.530146
 30
0.0
  0
SEQEND
  5
130
  8
TEAM-DET1
  0
TEXT
  5
68
  8
TEAM-TXT
 10
-740.766301
 20
505.531998
 30
0.0
 40
30.0
  1
team 121395
 41
0.8
 51
15.0
  7
TEAM
  0
LINE
  5
6B
  8
TEAM-BODY
 10
-816.526086
 20
565.000083
 30
0.0
 11
-523.274607
 21
191.031966
 31
0.0
  0
LINE
  5
6C
  8
TEAM-BODY
 10
874.600033
 20
564.999916
 30
0.0
 11
874.600033
 21
590.0
 31
0.0
  0
ARC
  5
6D
  8
TEAM-BODY
 10
864.600033
 20
590.0
 30
0.0
 40
10.0
 50
0.0
 51
90.0
  0
POINT
  5
6E
  8
TEAM-BODY
 10
852.725121
 20
600.0
 30
0.0
  0
POINT
  5
6F
  8
TEAM-BODY
 10
852.725121
 20
600.0
 30
0.0
  0
ARC
  5
70
  8
TEAM-BODY
 10
626.197779
 20
235.408679
 30
0.0
 40
80.0
 50
271.5
 51
355.0
  0
LINE
  5
71
  8
TEAM-DET3
 10
608.952982
 20
132.895986
 30
0.0
 11
628.604392
 21
156.04556
 31
0.0
  0
LINE
  5
72
  8
TEAM-DET3
 10
451.592552
 20
40.0
 30
0.0
 11
451.592552
 21
88.237384
 31
0.0
  0
LINE
  5
73
  8
TEAM-DET3
 10
451.592552
 20
88.237384
 30
0.0
 11
471.592552
 21
88.237384
 31
0.0
  0
LINE
  5
74
  8
TEAM-DET3
 10
471.592552
 20
40.0
 30
0.0
 11
471.592552
 21
88.237384
 31
0.0
  0
LINE
  5
75
  8
TEAM-DET3
 10
451.592552
 20
88.237384
 30
0.0
 11
456.010496
 21
114.745045
 31
0.0
  0
LINE
  5
76
  8
TEAM-DET3
 10
471.592552
 20
88.237384
 30
0.0
 11
467.174608
 21
114.745045
 31
0.0
  0
LINE
  5
77
  8
TEAM-DET3
 10
467.174608
 20
114.745045
 30
0.0
 11
456.010496
 21
114.745045
 31
0.0
  0
LINE
  5
78
  8
TEAM-DET3
 10
467.174608
 20
114.745045
 30
0.0
 11
467.174608
 21
151.217087
 31
0.0
  0
LINE
  5
79
  8
TEAM-DET3
 10
456.010496
 20
114.745045
 30
0.0
 11
456.010496
 21
150.924744
 31
0.0
  0
LINE
  5
7A
  8
TEAM-DET3
 10
446.592552
 20
40.0
 30
0.0
 11
476.592552
 21
40.0
 31
0.0
  0
LINE
  5
7B
  8
TEAM-DET3
 10
446.592552
 20
0.0
 30
0.0
 11
446.592552
 21
40.0
 31
0.0
  0
LINE
  5
7C
  8
TEAM-DET3
 10
476.592552
 20
0.0
 30
0.0
 11
476.592552
 21
40.0
 31
0.0
  0
LINE
  5
7D
  8
TEAM-DET3
 10
874.600033
 20
564.999916
 30
0.0
 11
874.600033
 21
0.0
 31
0.0
  0
LINE
  5
7E
  8
TEAM-BODY
 10
734.90142
 20
564.99993
 30
0.0
 11
705.893354
 21
228.436219
 31
0.0
  0
ENDSEC
  0
EOF
