  0
SECTION
  2
HEADER
  9
$ACADVER
  1
AC1009
  9
$INSBASE
 10
0.0
 20
0.0
 30
0.0
  9
$EXTMIN
 10
-902.166635
 20
-10.020146
 30
-0.001526
  9
$EXTMAX
 10
944.119742
 20
650.214432
 30
0.0
  9
$LIMMIN
 10
-902.166635
 20
-10.020146
  9
$LIMMAX
 10
944.119742
 20
650.214432
  9
$ORTHOMODE
 70
     1
  9
$REGENMODE
 70
     1
  9
$FILLMODE
 70
     1
  9
$QTEXTMODE
 70
     0
  9
$MIRRTEXT
 70
     0
  9
$DRAGMODE
 70
     2
  9
$LTSCALE
 40
50.0
  9
$OSMODE
 70
     7
  9
$ATTMODE
 70
     1
  9
$TEXTSIZE
 40
200.0
  9
$TRACEWID
 40
1.0
  9
$TEXTSTYLE
  7
STANDARD
  9
$CLAYER
  8
TEAM-MAS
  9
$CELTYPE
  6
BYLAYER
  9
$CECOLOR
 62
   256
  9
$DIMSCALE
 40
0.0
  9
$DIMASZ
 40
20.0
  9
$DIMEXO
 40
10.0
  9
$DIMDLI
 40
1.0
  9
$DIMRND
 40
0.0
  9
$DIMDLE
 40
0.0
  9
$DIMEXE
 40
1.0
  9
$DIMTP
 40
0.0
  9
$DIMTM
 40
0.0
  9
$DIMTXT
 40
35.0
  9
$DIMCEN
 40
1.0
  9
$DIMTSZ
 40
0.0
  9
$DIMTOL
 70
     0
  9
$DIMLIM
 70
     0
  9
$DIMTIH
 70
     0
  9
$DIMTOH
 70
     0
  9
$DIMSE1
 70
     0
  9
$DIMSE2
 70
     0
  9
$DIMTAD
 70
     0
  9
$DIMZIN
 70
     0
  9
$DIMBLK
  1

  9
$DIMASO
 70
     1
  9
$DIMSHO
 70
     0
  9
$DIMPOST
  1

  9
$DIMAPOST
  1

  9
$DIMALT
 70
     0
  9
$DIMALTD
 70
     2
  9
$DIMALTF
 40
25.4
  9
$DIMLFAC
 40
1.0
  9
$DIMTOFL
 70
     0
  9
$DIMTVP
 40
0.0
  9
$DIMTIX
 70
     0
  9
$DIMSOXD
 70
     0
  9
$DIMSAH
 70
     0
  9
$DIMBLK1
  1

  9
$DIMBLK2
  1

  9
$DIMSTYLE
  2
TEAM
  9
$DIMCLRD
 70
     9
  9
$DIMCLRE
 70
     9
  9
$DIMCLRT
 70
    11
  9
$DIMTFAC
 40
1.0
  9
$DIMGAP
 40
7.0
  9
$LUNITS
 70
     2
  9
$LUPREC
 70
     1
  9
$SKETCHINC
 40
1.0
  9
$FILLETRAD
 40
9.5
  9
$AUNITS
 70
     0
  9
$AUPREC
 70
     0
  9
$MENU
  1
ROPLANS
  9
$ELEVATION
 40
0.0
  9
$PELEVATION
 40
0.0
  9
$THICKNESS
 40
0.0
  9
$LIMCHECK
 70
     0
  9
$BLIPMODE
 70
     1
  9
$CHAMFERA
 40
0.0
  9
$CHAMFERB
 40
0.0
  9
$SKPOLY
 70
     0
  9
$TDCREATE
 40
2450392.957851
  9
$TDUPDATE
 40
2455944.717343
  9
$TDINDWG
 40
3.569992
  9
$TDUSRTIMER
 40
3.569992
  9
$USRTIMER
 70
     1
  9
$ANGBASE
 50
0.0
  9
$ANGDIR
 70
     0
  9
$PDMODE
 70
     0
  9
$PDSIZE
 40
0.0
  9
$PLINEWID
 40
0.0
  9
$COORDS
 70
     2
  9
$SPLFRAME
 70
     0
  9
$SPLINETYPE
 70
     6
  9
$SPLINESEGS
 70
     8
  9
$ATTDIA
 70
     0
  9
$ATTREQ
 70
     0
  9
$HANDLING
 70
     1
  9
$HANDSEED
  5
99
  9
$SURFTAB1
 70
    24
  9
$SURFTAB2
 70
    24
  9
$SURFTYPE
 70
     6
  9
$SURFU
 70
     6
  9
$SURFV
 70
     6
  9
$UCSNAME
  2

  9
$UCSORG
 10
0.0
 20
0.0
 30
0.0
  9
$UCSXDIR
 10
1.0
 20
0.0
 30
0.0
  9
$UCSYDIR
 10
0.0
 20
1.0
 30
0.0
  9
$PUCSNAME
  2

  9
$PUCSORG
 10
0.0
 20
0.0
 30
0.0
  9
$PUCSXDIR
 10
1.0
 20
0.0
 30
0.0
  9
$PUCSYDIR
 10
0.0
 20
1.0
 30
0.0
  9
$USERI1
 70
     0
  9
$USERI2
 70
     0
  9
$USERI3
 70
     0
  9
$USERI4
 70
     0
  9
$USERI5
 70
     0
  9
$USERR1
 40
0.0
  9
$USERR2
 40
0.0
  9
$USERR3
 40
0.0
  9
$USERR4
 40
0.0
  9
$USERR5
 40
0.0
  9
$WORLDVIEW
 70
     1
  9
$SHADEDGE
 70
     0
  9
$SHADEDIF
 70
    70
  9
$TILEMODE
 70
     1
  9
$MAXACTVP
 70
    16
  9
$PLIMCHECK
 70
     0
  9
$PEXTMIN
 10
-0.805942
 20
0.005011
 30
0.0
  9
$PEXTMAX
 10
20.250094
 20
11.356329
 30
0.0
  9
$PLIMMIN
 10
0.0
 20
0.0
  9
$PLIMMAX
 10
12.0
 20
9.0
  9
$UNITMODE
 70
     0
  9
$VISRETAIN
 70
     0
  9
$PLINEGEN
 70
     0
  9
$PSLTSCALE
 70
     0
  0
ENDSEC
  0
SECTION
  2
TABLES
  0
TABLE
  2
VPORT
 70
     2
  0
VPORT
  2
*ACTIVE
 70
     0
 10
0.0
 20
0.0
 11
1.0
 21
1.0
 12
20.976553
 22
320.097143
 13
0.0
 23
0.0
 14
1.0
 24
1.0
 15
50.0
 25
50.0
 16
0.0
 26
0.0
 36
1.0
 17
0.0
 27
0.0
 37
0.0
 40
973.001396
 41
1.903766
 42
50.0
 43
0.0
 44
0.0
 50
0.0
 51
0.0
 71
     0
 72
   100
 73
     1
 74
     1
 75
     0
 76
     0
 77
     0
 78
     0
  0
ENDTAB
  0
TABLE
  2
LTYPE
 70
     2
  0
LTYPE
  2
CONTINUOUS
 70
     0
  3
Solid Line
 72
    65
 73
     0
 40
0.0
  0
LTYPE
  2
31
 70
     0
  3

 72
    65
 73
     4
 40
2.1
 49
1.5
 49
-0.3
 49
0.0
 49
-0.3
  0
ENDTAB
  0
TABLE
  2
LAYER
 70
     9
  0
LAYER
  2
0
 70
     0
 62
     7
  6
CONTINUOUS
  0
LAYER
  2
DEFPOINTS
 70
     0
 62
     7
  6
CONTINUOUS
  0
LAYER
  2
TEAM-BODY
 70
     0
 62
     2
  6
CONTINUOUS
  0
LAYER
  2
TEAM-AXE
 70
     0
 62
    10
  6
31
  0
LAYER
  2
TEAM-MAS
 70
     0
 62
     9
  6
CONTINUOUS
  0
LAYER
  2
TEAM-TXT
 70
     0
 62
    11
  6
CONTINUOUS
  0
LAYER
  2
TEAM-DET1
 70
     0
 62
     4
  6
CONTINUOUS
  0
LAYER
  2
TEAM-KAN
 70
     0
 62
     6
  6
CONTINUOUS
  0
LAYER
  2
TEAM-INSP
 70
     0
 62
     5
  6
CONTINUOUS
  0
ENDTAB
  0
TABLE
  2
STYLE
 70
     2
  0
STYLE
  2
STANDARD
 70
     0
 40
0.0
 41
1.0
 50
0.0
 71
     0
 42
200.0
  3
txt
  4

  0
STYLE
  2
TEAM
 70
     0
 40
0.0
 41
0.8
 50
15.0
 71
     0
 42
7.0
  3
ROMANS.shx
  4

  0
ENDTAB
  0
TABLE
  2
VIEW
 70
     0
  0
ENDTAB
  0
TABLE
  2
UCS
 70
     0
  0
ENDTAB
  0
TABLE
  2
APPID
 70
     1
  0
APPID
  2
ACAD
 70
     0
  0
ENDTAB
  0
TABLE
  2
DIMSTYLE
 70
     1
  0
DIMSTYLE
  2
TEAM
 70
     0
  3

  4

  5

  6

  7

 40
0.0
 41
20.0
 42
10.0
 43
1.0
 44
1.0
 45
0.0
 46
0.0
 47
0.0
 48
0.0
140
35.0
141
1.0
142
0.0
143
25.4
144
1.0
145
0.0
146
1.0
147
7.0
 71
     0
 72
     0
 73
     0
 74
     0
 75
     0
 76
     0
 77
     0
 78
     0
170
     0
171
     2
172
     0
173
     0
174
     0
175
     0
176
     9
177
     9
178
    11
  0
ENDTAB
  0
ENDSEC
  0
SECTION
  2
BLOCKS
  0
BLOCK
  8
0
  2
$MODEL_SPACE
 70
     0
 10
0.0
 20
0.0
 30
0.0
  3
$MODEL_SPACE
  1

  0
ENDBLK
  5
92
  8
0
  0
BLOCK
 67
     1
  8
0
  2
$PAPER_SPACE
 70
     0
 10
0.0
 20
0.0
 30
0.0
  3
$PAPER_SPACE
  1

  0
ENDBLK
  5
90
 67
     1
  8
0
  0
BLOCK
  8
0
  2
*D0
 70
     1
 10
0.0
 20
0.0
 30
0.0
  3
*D0
  1

  0
LINE
  5
24
  8
0
  6
BYBLOCK
 62
     9
 10
12900.0
 20
196580.0
 30
0.0
 11
12900.0
 21
196633.694283
 31
0.0
  0
LINE
  5
25
  8
0
  6
BYBLOCK
 62
     9
 10
11100.0
 20
196580.0
 30
0.0
 11
11100.0
 21
196633.694283
 31
0.0
  0
LINE
  5
26
  8
0
  6
BYBLOCK
 62
     9
 10
12880.0
 20
196632.694283
 30
0.0
 11
12059.5
 21
196632.694283
 31
0.0
  0
LINE
  5
27
  8
0
  6
BYBLOCK
 62
     9
 10
11120.0
 20
196632.694283
 30
0.0
 11
11940.5
 21
196632.694283
 31
0.0
  0
SOLID
  5
28
  8
0
  6
BYBLOCK
 62
     9
 10
12880.0
 20
196636.027617
 30
0.0
 11
12880.0
 21
196629.36095
 31
0.0
 12
12900.0
 22
196632.694283
 32
0.0
 13
12900.0
 23
196632.694283
 33
0.0
  0
SOLID
  5
29
  8
0
  6
BYBLOCK
 62
     9
 10
11120.0
 20
196636.027617
 30
0.0
 11
11120.0
 21
196629.36095
 31
0.0
 12
11100.0
 22
196632.694283
 32
0.0
 13
11100.0
 23
196632.694283
 33
0.0
  0
TEXT
  5
2A
  8
0
  6
BYBLOCK
 62
    11
 10
11947.5
 20
196615.194283
 30
0.0
 40
35.0
  1
1800
  0
POINT
  5
2B
  8
DEFPOINTS
  6
BYBLOCK
 62
     0
 10
12900.0
 20
196570.0
 30
0.0
  0
POINT
  5
2D
  8
DEFPOINTS
  6
BYBLOCK
 62
     0
 10
11100.0
 20
196570.0
 30
0.0
  0
POINT
  5
2E
  8
DEFPOINTS
  6
BYBLOCK
 62
     0
 10
11100.0
 20
196632.694283
 30
0.0
  0
ENDBLK
  5
30
  8
0
  0
BLOCK
  8
0
  2
*D1
 70
     1
 10
0.0
 20
0.0
 30
0.0
  3
*D1
  1

  0
LINE
  5
42
  8
0
  6
BYBLOCK
 62
     9
 10
12900.0
 20
196600.0
 30
0.0
 11
12927.563461
 21
196600.0
 31
0.0
  0
LINE
  5
43
  8
0
  6
BYBLOCK
 62
     9
 10
12635.8
 20
196127.998548
 30
0.0
 11
12927.563461
 21
196127.998548
 31
0.0
  0
LINE
  5
44
  8
0
  6
BYBLOCK
 62
     9
 10
12926.563461
 20
196580.0
 30
0.0
 11
12926.563461
 21
196417.665941
 31
0.0
  0
LINE
  5
45
  8
0
  6
BYBLOCK
 62
     9
 10
12926.563461
 20
196147.998548
 30
0.0
 11
12926.563461
 21
196310.332607
 31
0.0
  0
SOLID
  5
46
  8
0
  6
BYBLOCK
 62
     9
 10
12923.230128
 20
196580.0
 30
0.0
 11
12929.896795
 21
196580.0
 31
0.0
 12
12926.563461
 22
196600.0
 32
0.0
 13
12926.563461
 23
196600.0
 33
0.0
  0
SOLID
  5
47
  8
0
  6
BYBLOCK
 62
     9
 10
12923.230128
 20
196147.998548
 30
0.0
 11
12929.896795
 21
196147.998548
 31
0.0
 12
12926.563461
 22
196127.998548
 32
0.0
 13
12926.563461
 23
196127.998548
 33
0.0
  0
TEXT
  5
48
  8
0
  6
BYBLOCK
 62
    11
 10
12944.063461
 20
196317.332607
 30
0.0
 40
35.0
  1
472
 50
90.0
  0
POINT
  5
49
  8
DEFPOINTS
  6
BYBLOCK
 62
     0
 10
12890.0
 20
196600.0
 30
0.0
  0
POINT
  5
4A
  8
DEFPOINTS
  6
BYBLOCK
 62
     0
 10
12625.8
 20
196127.998548
 30
0.0
  0
POINT
  5
4B
  8
DEFPOINTS
  6
BYBLOCK
 62
     0
 10
12926.563461
 20
196127.998548
 30
0.0
  0
ENDBLK
  5
4D
  8
0
  0
ENDSEC
  0
SECTION
  2
ENTITIES
  0
LINE
  5
20
  8
TEAM-BODY
 10
890.0
 20
600.0
 30
0.0
 11
0.0
 21
600.0
 31
0.0
  0
DIMENSION
  5
22
  8
TEAM-MAS
  2
*D0
 10
-900.0
 20
632.694283
 30
0.0
 11
0.0
 21
632.694283
 31
0.0
 12
-12000.0
 22
-196000.0
 32
0.0
 13
900.0
 23
570.0
 33
0.0
 14
-900.0
 24
570.0
 34
0.0
1001
ACAD
1000
DSTYLE
1002
{
1070
    78
1070
     0
1070
    40
1040
1.0
1002
}
  0
LINE
  5
31
  8
TEAM-BODY
 10
-441.9902
 20
166.859071
 30
0.0
 11
552.868582
 21
140.313496
 31
0.0
  0
CIRCLE
  5
32
  8
TEAM-INSP
 10
0.0
 20
0.0
 30
0.0
 40
10.0
  0
LINE
  5
34
  8
TEAM-BODY
 10
-890.0
 20
600.0
 30
0.0
 11
0.0
 21
600.0
 31
0.0
  0
LINE
  5
35
  8
TEAM-DET1
 10
-900.0
 20
570.0
 30
0.0
 11
-822.819315
 21
570.0
 31
0.0
  0
LINE
  5
37
  8
TEAM-BODY
 10
-846.126886
 20
598.126359
 30
0.0
 11
-889.846198
 21
599.998817
 31
0.0
  0
LINE
  5
38
  8
TEAM-BODY
 10
-900.0
 20
570.0
 30
0.0
 11
-900.0
 21
590.0
 31
0.0
  0
ARC
  5
39
  8
TEAM-BODY
 10
-890.0
 20
590.0
 30
0.0
 40
10.0
 50
89.118742
 51
180.0
  0
ARC
  5
3A
  8
TEAM-BODY
 10
-846.280689
 20
588.127542
 30
0.0
 40
10.0
 50
6.968472
 51
89.118742
  0
TEXT
  5
3B
  8
TEAM-TXT
 10
-694.631405
 20
539.007724
 30
0.0
 40
30.0
  1
team 121402
 41
0.8
 51
15.0
  7
TEAM
  0
ARC
  5
3E
  8
TEAM-BODY
 10
-403.607712
 20
338.850134
 30
0.0
 40
176.221851
 50
219.035247
 51
257.419695
  0
ARC
  5
3F
  8
TEAM-BODY
 10
977.111773
 20
1771.832635
 30
0.0
 40
2164.935816
 50
213.106829
 51
225.493404
  0
DIMENSION
  5
40
  8
TEAM-MAS
  2
*D1
 10
926.563461
 20
127.998548
 30
0.0
 11
926.563461
 21
363.999274
 31
0.0
 12
-12000.0
 22
-196000.0
 32
0.0
 13
890.0
 23
600.0
 33
0.0
 14
625.8
 24
127.998548
 34
0.0
 50
90.0
1001
ACAD
1000
DSTYLE
1002
{
1070
    40
1040
1.0
1002
}
  0
ARC
  5
4E
  8
TEAM-BODY
 10
651.029122
 20
260.432466
 30
0.0
 40
116.110374
 50
278.674903
 51
343.711183
  0
LINE
  5
4F
  8
TEAM-KAN
 10
625.8
 20
127.998548
 30
0.0
 11
625.8
 21
132.04
 31
0.0
  0
LINE
  5
51
  8
TEAM-BODY
 10
552.868582
 20
140.313496
 30
0.0
 11
647.131418
 21
140.313496
 31
0.0
  0
LINE
  5
52
  8
TEAM-KAN
 10
574.2
 20
127.998548
 30
0.0
 11
625.8
 21
127.998548
 31
0.0
  0
LINE
  5
53
  8
TEAM-AXE
 10
600.0
 20
112.31826
 30
0.0
 11
600.0
 21
138.678836
 31
0.0
  0
LINE
  5
56
  8
TEAM-KAN
 10
625.8
 20
127.998548
 30
0.0
 11
647.131418
 21
140.313496
 31
0.0
  0
LINE
  5
57
  8
TEAM-KAN
 10
552.868582
 20
140.313496
 30
0.0
 11
574.2
 21
127.998548
 31
0.0
  0
LINE
  5
58
  8
TEAM-KAN
 10
574.2
 20
127.998548
 30
0.0
 11
574.2
 21
132.04
 31
0.0
  0
LINE
  5
59
  8
TEAM-BODY
 10
668.541796
 20
145.650388
 30
0.0
 11
647.131418
 21
140.313496
 31
0.0
  0
ARC
  5
5A
  8
TEAM-BODY
 10
848.138035
 20
588.127542
 30
0.0
 40
10.0
 50
90.881258
 51
173.031528
  0
ARC
  5
5B
  8
TEAM-BODY
 10
890.0
 20
590.0
 30
0.0
 40
10.0
 50
0.0
 51
90.881258
  0
LINE
  5
5C
  8
TEAM-BODY
 10
900.0
 20
570.0
 30
0.0
 11
900.0
 21
590.0
 31
0.0
  0
LINE
  5
5D
  8
TEAM-BODY
 10
847.984232
 20
598.126359
 30
0.0
 11
889.846198
 21
599.998817
 31
0.0
  0
ARC
  5
5E
  8
TEAM-BODY
 10
-793.103842
 20
851.186634
 30
0.0
 40
1652.196815
 50
347.630786
 51
350.881119
  0
ARC
  5
5F
  8
TEAM-BODY
 10
-2998.015732
 20
1182.132929
 30
0.0
 40
3879.683611
 50
345.761121
 51
349.832538
  0
LINE
  5
60
  8
TEAM-DET1
 10
900.0
 20
570.0
 30
0.0
 11
834.989642
 21
570.0
 31
0.0
  0
ENDSEC
  0
EOF
