  0
SECTION
  2
HEADER
  9
$ACADVER
  1
AC1009
  9
$INSBASE
 10
0.0
 20
0.0
 30
0.0
  9
$EXTMIN
 10
-401.302557
 20
-10.020193
 30
0.0
  9
$EXTMAX
 10
579.637194
 20
678.75814
 30
0.0
  9
$LIMMIN
 10
-401.302557
 20
-10.020193
  9
$LIMMAX
 10
579.637194
 20
678.75814
  9
$ORTHOMODE
 70
     1
  9
$REGENMODE
 70
     1
  9
$FILLMODE
 70
     1
  9
$QTEXTMODE
 70
     0
  9
$MIRRTEXT
 70
     0
  9
$DRAGMODE
 70
     2
  9
$LTSCALE
 40
25.0
  9
$OSMODE
 70
     0
  9
$ATTMODE
 70
     1
  9
$TEXTSIZE
 40
200.0
  9
$TRACEWID
 40
1.0
  9
$TEXTSTYLE
  7
STANDARD
  9
$CLAYER
  8
TEAM-MAS
  9
$CELTYPE
  6
BYLAYER
  9
$CECOLOR
 62
   256
  9
$DIMSCALE
 40
0.0
  9
$DIMASZ
 40
20.0
  9
$DIMEXO
 40
10.0
  9
$DIMDLI
 40
1.0
  9
$DIMRND
 40
0.0
  9
$DIMDLE
 40
0.0
  9
$DIMEXE
 40
1.0
  9
$DIMTP
 40
0.0
  9
$DIMTM
 40
0.0
  9
$DIMTXT
 40
35.0
  9
$DIMCEN
 40
1.0
  9
$DIMTSZ
 40
0.0
  9
$DIMTOL
 70
     0
  9
$DIMLIM
 70
     0
  9
$DIMTIH
 70
     0
  9
$DIMTOH
 70
     0
  9
$DIMSE1
 70
     0
  9
$DIMSE2
 70
     0
  9
$DIMTAD
 70
     0
  9
$DIMZIN
 70
     0
  9
$DIMBLK
  1

  9
$DIMASO
 70
     1
  9
$DIMSHO
 70
     0
  9
$DIMPOST
  1

  9
$DIMAPOST
  1

  9
$DIMALT
 70
     0
  9
$DIMALTD
 70
     2
  9
$DIMALTF
 40
25.4
  9
$DIMLFAC
 40
1.0
  9
$DIMTOFL
 70
     0
  9
$DIMTVP
 40
0.0
  9
$DIMTIX
 70
     0
  9
$DIMSOXD
 70
     0
  9
$DIMSAH
 70
     0
  9
$DIMBLK1
  1

  9
$DIMBLK2
  1

  9
$DIMSTYLE
  2
TEAM
  9
$DIMCLRD
 70
     9
  9
$DIMCLRE
 70
     9
  9
$DIMCLRT
 70
    11
  9
$DIMTFAC
 40
1.0
  9
$DIMGAP
 40
15.0
  9
$LUNITS
 70
     2
  9
$LUPREC
 70
     1
  9
$SKETCHINC
 40
1.0
  9
$FILLETRAD
 40
50.0
  9
$AUNITS
 70
     0
  9
$AUPREC
 70
     0
  9
$MENU
  1
ROPLANS
  9
$ELEVATION
 40
0.0
  9
$PELEVATION
 40
0.0
  9
$THICKNESS
 40
0.0
  9
$LIMCHECK
 70
     0
  9
$BLIPMODE
 70
     1
  9
$CHAMFERA
 40
0.0
  9
$CHAMFERB
 40
0.0
  9
$SKPOLY
 70
     0
  9
$TDCREATE
 40
2450392.957851
  9
$TDUPDATE
 40
2455493.945579
  9
$TDINDWG
 40
1.992456
  9
$TDUSRTIMER
 40
1.992456
  9
$USRTIMER
 70
     1
  9
$ANGBASE
 50
0.0
  9
$ANGDIR
 70
     0
  9
$PDMODE
 70
     0
  9
$PDSIZE
 40
0.0
  9
$PLINEWID
 40
0.0
  9
$COORDS
 70
     2
  9
$SPLFRAME
 70
     0
  9
$SPLINETYPE
 70
     6
  9
$SPLINESEGS
 70
     8
  9
$ATTDIA
 70
     0
  9
$ATTREQ
 70
     0
  9
$HANDLING
 70
     1
  9
$HANDSEED
  5
129
  9
$SURFTAB1
 70
    24
  9
$SURFTAB2
 70
    24
  9
$SURFTYPE
 70
     6
  9
$SURFU
 70
     6
  9
$SURFV
 70
     6
  9
$UCSNAME
  2

  9
$UCSORG
 10
0.0
 20
0.0
 30
0.0
  9
$UCSXDIR
 10
1.0
 20
0.0
 30
0.0
  9
$UCSYDIR
 10
0.0
 20
1.0
 30
0.0
  9
$PUCSNAME
  2

  9
$PUCSORG
 10
0.0
 20
0.0
 30
0.0
  9
$PUCSXDIR
 10
1.0
 20
0.0
 30
0.0
  9
$PUCSYDIR
 10
0.0
 20
1.0
 30
0.0
  9
$USERI1
 70
     0
  9
$USERI2
 70
     0
  9
$USERI3
 70
     0
  9
$USERI4
 70
     0
  9
$USERI5
 70
     0
  9
$USERR1
 40
0.0
  9
$USERR2
 40
0.0
  9
$USERR3
 40
0.0
  9
$USERR4
 40
0.0
  9
$USERR5
 40
0.0
  9
$WORLDVIEW
 70
     1
  9
$SHADEDGE
 70
     0
  9
$SHADEDIF
 70
    70
  9
$TILEMODE
 70
     1
  9
$MAXACTVP
 70
    16
  9
$PLIMCHECK
 70
     0
  9
$PEXTMIN
 10
-0.805942
 20
0.005011
 30
0.0
  9
$PEXTMAX
 10
20.250094
 20
11.356329
 30
0.0
  9
$PLIMMIN
 10
0.0
 20
0.0
  9
$PLIMMAX
 10
12.0
 20
9.0
  9
$UNITMODE
 70
     0
  9
$VISRETAIN
 70
     0
  9
$PLINEGEN
 70
     0
  9
$PSLTSCALE
 70
     0
  0
ENDSEC
  0
SECTION
  2
TABLES
  0
TABLE
  2
VPORT
 70
     2
  0
VPORT
  2
*ACTIVE
 70
     0
 10
0.0
 20
0.0
 11
1.0
 21
1.0
 12
89.167318
 22
334.368974
 13
0.0
 23
0.0
 14
1.0
 24
1.0
 15
50.0
 25
50.0
 16
0.0
 26
0.0
 36
1.0
 17
0.0
 27
0.0
 37
0.0
 40
693.008292
 41
1.865779
 42
50.0
 43
0.0
 44
0.0
 50
0.0
 51
0.0
 71
     0
 72
   100
 73
     1
 74
     1
 75
     0
 76
     0
 77
     0
 78
     0
  0
ENDTAB
  0
TABLE
  2
LTYPE
 70
     2
  0
LTYPE
  2
CONTINUOUS
 70
     0
  3
Solid Line
 72
    65
 73
     0
 40
0.0
  0
LTYPE
  2
22
 70
     0
  3

 72
    65
 73
     2
 40
1.4
 49
1.2
 49
-0.2
  0
ENDTAB
  0
TABLE
  2
LAYER
 70
     9
  0
LAYER
  2
0
 70
     0
 62
     7
  6
CONTINUOUS
  0
LAYER
  2
DEFPOINTS
 70
     0
 62
     7
  6
CONTINUOUS
  0
LAYER
  2
TEAM-BODY
 70
     0
 62
     2
  6
CONTINUOUS
  0
LAYER
  2
TEAM-MAS
 70
     0
 62
     9
  6
CONTINUOUS
  0
LAYER
  2
TEAM-TXT
 70
     0
 62
    11
  6
CONTINUOUS
  0
LAYER
  2
TEAM-HIDE
 70
     0
 62
     8
  6
22
  0
LAYER
  2
TEAM-KAN
 70
     0
 62
     6
  6
CONTINUOUS
  0
LAYER
  2
TEAM-DET3
 70
     0
 62
    14
  6
CONTINUOUS
  0
LAYER
  2
TEAM-INSP
 70
     0
 62
     5
  6
CONTINUOUS
  0
ENDTAB
  0
TABLE
  2
STYLE
 70
     2
  0
STYLE
  2
STANDARD
 70
     0
 40
0.0
 41
1.0
 50
0.0
 71
     0
 42
200.0
  3
txt
  4

  0
STYLE
  2
TEAM
 70
     0
 40
0.0
 41
0.8
 50
15.0
 71
     0
 42
7.0
  3
ROMANS.shx
  4

  0
ENDTAB
  0
TABLE
  2
VIEW
 70
     0
  0
ENDTAB
  0
TABLE
  2
UCS
 70
     0
  0
ENDTAB
  0
TABLE
  2
APPID
 70
     1
  0
APPID
  2
ACAD
 70
     0
  0
ENDTAB
  0
TABLE
  2
DIMSTYLE
 70
     1
  0
DIMSTYLE
  2
TEAM
 70
     0
  3

  4

  5

  6

  7

 40
0.0
 41
20.0
 42
10.0
 43
1.0
 44
1.0
 45
0.0
 46
0.0
 47
0.0
 48
0.0
140
35.0
141
1.0
142
0.0
143
25.4
144
1.0
145
0.0
146
1.0
147
15.0
 71
     0
 72
     0
 73
     0
 74
     0
 75
     0
 76
     0
 77
     0
 78
     0
170
     0
171
     2
172
     0
173
     0
174
     0
175
     0
176
     9
177
     9
178
    11
  0
ENDTAB
  0
ENDSEC
  0
SECTION
  2
BLOCKS
  0
BLOCK
  8
0
  2
$MODEL_SPACE
 70
     0
 10
0.0
 20
0.0
 30
0.0
  3
$MODEL_SPACE
  1

  0
ENDBLK
  5
122
  8
0
  0
BLOCK
 67
     1
  8
0
  2
$PAPER_SPACE
 70
     0
 10
0.0
 20
0.0
 30
0.0
  3
$PAPER_SPACE
  1

  0
ENDBLK
  5
120
 67
     1
  8
0
  0
BLOCK
  8
0
  2
*D0
 70
     1
 10
0.0
 20
0.0
 30
0.0
  3
*D0
  1

  0
LINE
  5
36
  8
0
  6
BYBLOCK
 62
     9
 10
8400.000006
 20
16584.0
 30
0.0
 11
8400.000006
 21
16663.94658
 31
0.0
  0
LINE
  5
37
  8
0
  6
BYBLOCK
 62
     9
 10
7599.999994
 20
16584.0
 30
0.0
 11
7599.999994
 21
16663.94658
 31
0.0
  0
LINE
  5
38
  8
0
  6
BYBLOCK
 62
     9
 10
8380.000006
 20
16662.94658
 30
0.0
 11
8046.51378
 21
16662.94658
 31
0.0
  0
LINE
  5
39
  8
0
  6
BYBLOCK
 62
     9
 10
7619.999994
 20
16662.94658
 30
0.0
 11
7953.48622
 21
16662.94658
 31
0.0
  0
SOLID
  5
3A
  8
0
  6
BYBLOCK
 62
     9
 10
8380.000006
 20
16666.279913
 30
0.0
 11
8380.000006
 21
16659.613247
 31
0.0
 12
8400.000006
 22
16662.94658
 32
0.0
 13
8400.000006
 23
16662.94658
 33
0.0
  0
SOLID
  5
3B
  8
0
  6
BYBLOCK
 62
     9
 10
7619.999994
 20
16666.279913
 30
0.0
 11
7619.999994
 21
16659.613247
 31
0.0
 12
7599.999994
 22
16662.94658
 32
0.0
 13
7599.999994
 23
16662.94658
 33
0.0
  0
TEXT
  5
3C
  8
0
  6
BYBLOCK
 62
    11
 10
7963.23622
 20
16645.44658
 30
0.0
 40
35.0
  1
800
  0
POINT
  5
3D
  8
DEFPOINTS
  6
BYBLOCK
 62
     0
 10
8400.000006
 20
16574.0
 30
0.0
  0
POINT
  5
3E
  8
DEFPOINTS
  6
BYBLOCK
 62
     0
 10
7599.999994
 20
16574.0
 30
0.0
  0
POINT
  5
3F
  8
DEFPOINTS
  6
BYBLOCK
 62
     0
 10
7599.999994
 20
16662.94658
 30
0.0
  0
ENDBLK
  5
41
  8
0
  0
BLOCK
  8
0
  2
*D1
 70
     1
 10
0.0
 20
0.0
 30
0.0
  3
*D1
  1

  0
LINE
  5
22
  8
0
  6
BYBLOCK
 62
     9
 10
8404.000006
 20
16580.0
 30
0.0
 11
8484.199263
 21
16580.0
 31
0.0
  0
LINE
  5
23
  8
0
  6
BYBLOCK
 62
     9
 10
8035.82
 20
16109.699994
 30
0.0
 11
8484.199263
 21
16109.699994
 31
0.0
  0
LINE
  5
24
  8
0
  6
BYBLOCK
 62
     9
 10
8483.199263
 20
16560.0
 30
0.0
 11
8483.199263
 21
16393.113776
 31
0.0
  0
LINE
  5
25
  8
0
  6
BYBLOCK
 62
     9
 10
8483.199263
 20
16129.699994
 30
0.0
 11
8483.199263
 21
16296.586217
 31
0.0
  0
SOLID
  5
26
  8
0
  6
BYBLOCK
 62
     9
 10
8479.86593
 20
16560.0
 30
0.0
 11
8486.532596
 21
16560.0
 31
0.0
 12
8483.199263
 22
16580.0
 32
0.0
 13
8483.199263
 23
16580.0
 33
0.0
  0
SOLID
  5
27
  8
0
  6
BYBLOCK
 62
     9
 10
8479.86593
 20
16129.699994
 30
0.0
 11
8486.532596
 21
16129.699994
 31
0.0
 12
8483.199263
 22
16109.699994
 32
0.0
 13
8483.199263
 23
16109.699994
 33
0.0
  0
TEXT
  5
28
  8
0
  6
BYBLOCK
 62
    11
 10
8500.699263
 20
16306.336217
 30
0.0
 40
35.0
  1
470
 50
90.0
  0
POINT
  5
29
  8
DEFPOINTS
  6
BYBLOCK
 62
     0
 10
8394.000006
 20
16580.0
 30
0.0
  0
POINT
  5
2B
  8
DEFPOINTS
  6
BYBLOCK
 62
     0
 10
8025.82
 20
16109.699994
 30
0.0
  0
POINT
  5
2C
  8
DEFPOINTS
  6
BYBLOCK
 62
     0
 10
8483.199263
 20
16109.699994
 30
0.0
  0
ENDBLK
  5
2E
  8
0
  0
BLOCK
  8
0
  2
*D2
 70
     1
 10
0.0
 20
0.0
 30
0.0
  3
*D2
  1

  0
LINE
  5
78
  8
0
  6
BYBLOCK
 62
     9
 10
8404.000006
 20
16580.0
 30
0.0
 11
8563.399982
 21
16580.0
 31
0.0
  0
LINE
  5
79
  8
0
  6
BYBLOCK
 62
     9
 10
8296.745787
 20
16000.0
 30
0.0
 11
8563.399982
 21
16000.0
 31
0.0
  0
LINE
  5
7A
  8
0
  6
BYBLOCK
 62
     9
 10
8562.399982
 20
16560.0
 30
0.0
 11
8562.399982
 21
16296.51378
 31
0.0
  0
LINE
  5
7B
  8
0
  6
BYBLOCK
 62
     9
 10
8562.399982
 20
16020.0
 30
0.0
 11
8562.399982
 21
16203.48622
 31
0.0
  0
TEXT
  5
7C
  8
0
  6
BYBLOCK
 62
    11
 10
8579.899982
 20
16213.23622
 30
0.0
 40
35.0
  1
580
 50
90.0
  0
SOLID
  5
7D
  8
0
  6
BYBLOCK
 62
     9
 10
8559.066648
 20
16560.0
 30
0.0
 11
8565.733315
 21
16560.0
 31
0.0
 12
8562.399982
 22
16580.0
 32
0.0
 13
8562.399982
 23
16580.0
 33
0.0
  0
SOLID
  5
7E
  8
0
  6
BYBLOCK
 62
     9
 10
8559.066648
 20
16020.0
 30
0.0
 11
8565.733315
 21
16020.0
 31
0.0
 12
8562.399982
 22
16000.0
 32
0.0
 13
8562.399982
 23
16000.0
 33
0.0
  0
POINT
  5
7F
  8
DEFPOINTS
  6
BYBLOCK
 62
     0
 10
8394.000006
 20
16580.0
 30
0.0
  0
POINT
  5
80
  8
DEFPOINTS
  6
BYBLOCK
 62
     0
 10
8286.745787
 20
16000.0
 30
0.0
  0
POINT
  5
81
  8
DEFPOINTS
  6
BYBLOCK
 62
     0
 10
8562.399982
 20
16000.0
 30
0.0
  0
ENDBLK
  5
83
  8
0
  0
ENDSEC
  0
SECTION
  2
ENTITIES
  0
DIMENSION
  5
20
  8
TEAM-MAS
  2
*D1
 10
483.199263
 20
109.699994
 30
0.0
 11
483.199263
 21
344.849997
 31
0.0
 12
-8000.0
 22
-16000.0
 32
0.0
 13
394.000006
 23
580.0
 33
0.0
 14
25.82
 24
109.699994
 34
0.0
 50
90.0
1001
ACAD
1000
DSTYLE
1002
{
1070
    40
1040
1.0
1002
}
  0
LINE
  5
2F
  8
TEAM-BODY
 10
43.218302
 20
120.47714
 30
0.0
 11
171.46374
 21
127.627397
 31
0.0
  0
LINE
  5
31
  8
TEAM-HIDE
 10
-254.797339
 20
0.0
 30
0.0
 11
286.745787
 21
0.0
 31
0.0
  0
DIMENSION
  5
34
  8
TEAM-MAS
  2
*D0
 10
-400.000006
 20
662.94658
 30
0.0
 11
0.0
 21
662.94658
 31
0.0
 12
-8000.0
 22
-16000.0
 32
0.0
 13
400.000006
 23
574.0
 33
0.0
 14
-400.000006
 24
574.0
 34
0.0
1001
ACAD
1000
DSTYLE
1002
{
1070
    40
1040
1.0
1002
}
  0
LINE
  5
42
  8
TEAM-BODY
 10
-394.000006
 20
580.0
 30
0.0
 11
394.000006
 21
580.0
 31
0.0
  0
LINE
  5
43
  8
TEAM-BODY
 10
394.000006
 20
548.0
 30
0.0
 11
-394.000006
 21
548.0
 31
0.0
  0
LINE
  5
44
  8
TEAM-DET3
 10
-182.425719
 20
114.745045
 30
0.0
 11
-182.425719
 21
128.672506
 31
0.0
  0
LINE
  5
46
  8
TEAM-DET3
 10
-171.261607
 20
114.745045
 30
0.0
 11
-171.261607
 21
127.616127
 31
0.0
  0
LINE
  5
47
  8
TEAM-DET3
 10
-191.843663
 20
0.0
 30
0.0
 11
-191.843663
 21
40.0
 31
0.0
  0
LINE
  5
48
  8
TEAM-DET3
 10
-161.843663
 20
0.0
 30
0.0
 11
-161.843663
 21
40.0
 31
0.0
  0
LINE
  5
49
  8
TEAM-DET3
 10
-161.843663
 20
40.0
 30
0.0
 11
-191.843663
 21
40.0
 31
0.0
  0
LINE
  5
4A
  8
TEAM-DET3
 10
-182.425719
 20
114.745045
 30
0.0
 11
-171.261607
 21
114.745045
 31
0.0
  0
LINE
  5
4B
  8
TEAM-DET3
 10
-186.843663
 20
88.237384
 30
0.0
 11
-182.425719
 21
114.745045
 31
0.0
  0
LINE
  5
4C
  8
TEAM-DET3
 10
-166.843663
 20
88.237384
 30
0.0
 11
-171.261607
 21
114.745045
 31
0.0
  0
LINE
  5
4D
  8
TEAM-DET3
 10
-186.843663
 20
40.0
 30
0.0
 11
-186.843663
 21
88.237384
 31
0.0
  0
LINE
  5
4E
  8
TEAM-DET3
 10
-166.843663
 20
88.237384
 30
0.0
 11
-186.843663
 21
88.237384
 31
0.0
  0
LINE
  5
4F
  8
TEAM-DET3
 10
-166.843663
 20
40.0
 30
0.0
 11
-166.843663
 21
88.237384
 31
0.0
  0
LINE
  5
50
  8
TEAM-DET3
 10
-191.843663
 20
0.0
 30
0.0
 11
-161.843663
 21
0.0
 31
0.0
  0
LINE
  5
51
  8
TEAM-KAN
 10
-25.83
 20
109.699994
 30
0.0
 11
-25.83
 21
112.699994
 31
0.0
  0
ARC
  5
53
  8
TEAM-KAN
 10
-29.2
 20
117.699994
 30
0.0
 40
8.0
 50
212.821
 51
270.0
  0
ARC
  5
54
  8
TEAM-KAN
 10
-29.2
 20
117.699994
 30
0.0
 40
5.0
 50
212.8213
 51
270.0
  0
ARC
  5
55
  8
TEAM-KAN
 10
-43.490001
 20
108.479994
 30
0.0
 40
12.0
 50
32.83385
 51
88.75037
  0
ARC
  5
56
  8
TEAM-KAN
 10
-43.490001
 20
108.479994
 30
0.0
 40
9.0
 50
32.83831
 51
88.73166
  0
LINE
  5
57
  8
TEAM-KAN
 10
29.19
 20
109.699994
 30
0.0
 11
-29.2
 21
109.699994
 31
0.0
  0
LINE
  5
58
  8
TEAM-KAN
 10
29.19
 20
112.699994
 30
0.0
 11
-29.2
 21
112.699994
 31
0.0
  0
LINE
  5
59
  8
TEAM-KAN
 10
25.82
 20
109.699994
 30
0.0
 11
25.82
 21
112.699994
 31
0.0
  0
ARC
  5
5A
  8
TEAM-KAN
 10
29.19
 20
117.699994
 30
0.0
 40
8.0
 50
270.0
 51
327.179
  0
ARC
  5
5B
  8
TEAM-KAN
 10
29.19
 20
117.699994
 30
0.0
 40
5.0
 50
270.0
 51
327.1787
  0
ARC
  5
5C
  8
TEAM-KAN
 10
43.480001
 20
108.479994
 30
0.0
 40
12.0
 50
91.24962
 51
147.1662
  0
ARC
  5
5D
  8
TEAM-KAN
 10
43.480001
 20
108.479994
 30
0.0
 40
9.0
 50
91.24347
 51
147.1617
  0
CIRCLE
  5
5E
  8
TEAM-INSP
 10
0.0
 20
0.0
 30
0.0
 40
10.0
  0
ARC
  5
60
  8
TEAM-BODY
 10
6474.891252
 20
1191.130171
 30
0.0
 40
6796.573109
 50
185.429774
 51
188.450983
  0
ARC
  5
61
  8
TEAM-BODY
 10
-169.370003
 20
207.599995
 30
0.0
 40
80.000001
 50
191.0378
 51
268.5003
  0
LINE
  5
62
  8
TEAM-BODY
 10
-400.000006
 20
574.0
 30
0.0
 11
-400.000006
 21
554.0
 31
0.0
  0
ARC
  5
63
  8
TEAM-BODY
 10
-394.000006
 20
554.0
 30
0.0
 40
6.0
 50
180.0
 51
270.0
  0
ARC
  5
64
  8
TEAM-BODY
 10
-394.000006
 20
574.0
 30
0.0
 40
6.0
 50
90.0
 51
180.0
  0
LINE
  5
65
  8
TEAM-BODY
 10
-43.218302
 20
120.47714
 30
0.0
 11
-171.46374
 21
127.627397
 31
0.0
  0
TEXT
  5
66
  8
TEAM-TXT
 10
-289.687372
 20
495.75601
 30
0.0
 40
30.0
  1
team 121714
 41
0.8
 51
15.0
  7
TEAM
  0
LINE
  5
69
  8
TEAM-DET3
 10
168.870046
 20
114.745045
 30
0.0
 11
168.870046
 21
127.482787
 31
0.0
  0
LINE
  5
6A
  8
TEAM-DET3
 10
180.034159
 20
114.745045
 30
0.0
 11
180.034159
 21
128.313956
 31
0.0
  0
LINE
  5
6B
  8
TEAM-DET3
 10
168.870046
 20
114.745045
 30
0.0
 11
180.034159
 21
114.745045
 31
0.0
  0
LINE
  5
6C
  8
TEAM-DET3
 10
164.452103
 20
88.237384
 30
0.0
 11
168.870046
 21
114.745045
 31
0.0
  0
LINE
  5
6D
  8
TEAM-DET3
 10
184.452103
 20
88.237384
 30
0.0
 11
180.034159
 21
114.745045
 31
0.0
  0
LINE
  5
6E
  8
TEAM-DET3
 10
164.452103
 20
40.0
 30
0.0
 11
164.452103
 21
88.237384
 31
0.0
  0
LINE
  5
6F
  8
TEAM-DET3
 10
184.452103
 20
88.237384
 30
0.0
 11
164.452103
 21
88.237384
 31
0.0
  0
LINE
  5
70
  8
TEAM-DET3
 10
184.452103
 20
40.0
 30
0.0
 11
184.452103
 21
88.237384
 31
0.0
  0
LINE
  5
71
  8
TEAM-DET3
 10
159.452103
 20
0.0
 30
0.0
 11
159.452103
 21
40.0
 31
0.0
  0
LINE
  5
72
  8
TEAM-DET3
 10
189.452103
 20
0.0
 30
0.0
 11
189.452103
 21
40.0
 31
0.0
  0
LINE
  5
73
  8
TEAM-DET3
 10
189.452103
 20
40.0
 30
0.0
 11
159.452103
 21
40.0
 31
0.0
  0
LINE
  5
74
  8
TEAM-DET3
 10
159.452103
 20
0.0
 30
0.0
 11
189.452103
 21
0.0
 31
0.0
  0
ARC
  5
75
  8
TEAM-BODY
 10
-6474.891252
 20
1191.130171
 30
0.0
 40
6796.573109
 50
351.549017
 51
354.570226
  0
DIMENSION
  5
76
  8
TEAM-MAS
  2
*D2
 10
562.399982
 20
0.0
 30
0.0
 11
562.399982
 21
250.0
 31
0.0
 12
-8000.0
 22
-16000.0
 32
0.0
 70
   128
 13
394.000006
 23
580.0
 33
0.0
 14
286.745787
 24
0.0
 34
0.0
 50
90.0
1001
ACAD
1000
DSTYLE
1002
{
1070
    40
1040
1.0
1002
}
  0
ARC
  5
84
  8
TEAM-BODY
 10
169.370003
 20
207.599995
 30
0.0
 40
80.000001
 50
271.4997
 51
348.9622
  0
LINE
  5
85
  8
TEAM-BODY
 10
400.000006
 20
574.0
 30
0.0
 11
400.000006
 21
554.0
 31
0.0
  0
ARC
  5
86
  8
TEAM-BODY
 10
394.000006
 20
554.0
 30
0.0
 40
6.0
 50
270.0
 51
0.0
  0
ARC
  5
87
  8
TEAM-BODY
 10
394.000006
 20
574.0
 30
0.0
 40
6.0
 50
0.0
 51
90.0
  0
ENDSEC
  0
EOF
