  0
SECTION
  2
HEADER
  9
$ACADVER
  1
AC1009
  9
$INSBASE
 10
0.0
 20
0.0
 30
0.0
  9
$EXTMIN
 10
-376.262879
 20
-10.02208
 30
0.0
  9
$EXTMAX
 10
554.709337
 20
698.741005
 30
0.0
  9
$LIMMIN
 10
-376.262879
 20
-10.02208
  9
$LIMMAX
 10
554.709337
 20
698.741005
  9
$ORTHOMODE
 70
     1
  9
$REGENMODE
 70
     1
  9
$FILLMODE
 70
     1
  9
$QTEXTMODE
 70
     0
  9
$MIRRTEXT
 70
     0
  9
$DRAGMODE
 70
     2
  9
$LTSCALE
 40
25.0
  9
$OSMODE
 70
     0
  9
$ATTMODE
 70
     1
  9
$TEXTSIZE
 40
200.0
  9
$TRACEWID
 40
1.0
  9
$TEXTSTYLE
  7
STANDARD
  9
$CLAYER
  8
TEAM-MAS
  9
$CELTYPE
  6
BYLAYER
  9
$CECOLOR
 62
   256
  9
$DIMSCALE
 40
0.0
  9
$DIMASZ
 40
20.0
  9
$DIMEXO
 40
10.0
  9
$DIMDLI
 40
1.0
  9
$DIMRND
 40
0.0
  9
$DIMDLE
 40
0.0
  9
$DIMEXE
 40
1.0
  9
$DIMTP
 40
0.0
  9
$DIMTM
 40
0.0
  9
$DIMTXT
 40
35.0
  9
$DIMCEN
 40
1.0
  9
$DIMTSZ
 40
0.0
  9
$DIMTOL
 70
     0
  9
$DIMLIM
 70
     0
  9
$DIMTIH
 70
     0
  9
$DIMTOH
 70
     0
  9
$DIMSE1
 70
     0
  9
$DIMSE2
 70
     0
  9
$DIMTAD
 70
     0
  9
$DIMZIN
 70
     0
  9
$DIMBLK
  1

  9
$DIMASO
 70
     1
  9
$DIMSHO
 70
     0
  9
$DIMPOST
  1

  9
$DIMAPOST
  1

  9
$DIMALT
 70
     0
  9
$DIMALTD
 70
     2
  9
$DIMALTF
 40
25.4
  9
$DIMLFAC
 40
1.0
  9
$DIMTOFL
 70
     0
  9
$DIMTVP
 40
0.0
  9
$DIMTIX
 70
     0
  9
$DIMSOXD
 70
     0
  9
$DIMSAH
 70
     0
  9
$DIMBLK1
  1

  9
$DIMBLK2
  1

  9
$DIMSTYLE
  2
TEAM
  9
$DIMCLRD
 70
     9
  9
$DIMCLRE
 70
     9
  9
$DIMCLRT
 70
    11
  9
$DIMTFAC
 40
1.0
  9
$DIMGAP
 40
15.0
  9
$LUNITS
 70
     2
  9
$LUPREC
 70
     1
  9
$SKETCHINC
 40
1.0
  9
$FILLETRAD
 40
50.0
  9
$AUNITS
 70
     0
  9
$AUPREC
 70
     0
  9
$MENU
  1
ROPLANS
  9
$ELEVATION
 40
0.0
  9
$PELEVATION
 40
0.0
  9
$THICKNESS
 40
0.0
  9
$LIMCHECK
 70
     0
  9
$BLIPMODE
 70
     1
  9
$CHAMFERA
 40
0.0
  9
$CHAMFERB
 40
0.0
  9
$SKPOLY
 70
     0
  9
$TDCREATE
 40
2450392.957851
  9
$TDUPDATE
 40
2455493.945579
  9
$TDINDWG
 40
1.992456
  9
$TDUSRTIMER
 40
1.992456
  9
$USRTIMER
 70
     1
  9
$ANGBASE
 50
0.0
  9
$ANGDIR
 70
     0
  9
$PDMODE
 70
     0
  9
$PDSIZE
 40
0.0
  9
$PLINEWID
 40
0.0
  9
$COORDS
 70
     2
  9
$SPLFRAME
 70
     0
  9
$SPLINETYPE
 70
     6
  9
$SPLINESEGS
 70
     8
  9
$ATTDIA
 70
     0
  9
$ATTREQ
 70
     0
  9
$HANDLING
 70
     1
  9
$HANDSEED
  5
115
  9
$SURFTAB1
 70
    24
  9
$SURFTAB2
 70
    24
  9
$SURFTYPE
 70
     6
  9
$SURFU
 70
     6
  9
$SURFV
 70
     6
  9
$UCSNAME
  2

  9
$UCSORG
 10
0.0
 20
0.0
 30
0.0
  9
$UCSXDIR
 10
1.0
 20
0.0
 30
0.0
  9
$UCSYDIR
 10
0.0
 20
1.0
 30
0.0
  9
$PUCSNAME
  2

  9
$PUCSORG
 10
0.0
 20
0.0
 30
0.0
  9
$PUCSXDIR
 10
1.0
 20
0.0
 30
0.0
  9
$PUCSYDIR
 10
0.0
 20
1.0
 30
0.0
  9
$USERI1
 70
     0
  9
$USERI2
 70
     0
  9
$USERI3
 70
     0
  9
$USERI4
 70
     0
  9
$USERI5
 70
     0
  9
$USERR1
 40
0.0
  9
$USERR2
 40
0.0
  9
$USERR3
 40
0.0
  9
$USERR4
 40
0.0
  9
$USERR5
 40
0.0
  9
$WORLDVIEW
 70
     1
  9
$SHADEDGE
 70
     0
  9
$SHADEDIF
 70
    70
  9
$TILEMODE
 70
     1
  9
$MAXACTVP
 70
    16
  9
$PLIMCHECK
 70
     0
  9
$PEXTMIN
 10
-0.805942
 20
0.005011
 30
0.0
  9
$PEXTMAX
 10
20.250094
 20
11.356329
 30
0.0
  9
$PLIMMIN
 10
0.0
 20
0.0
  9
$PLIMMAX
 10
12.0
 20
9.0
  9
$UNITMODE
 70
     0
  9
$VISRETAIN
 70
     0
  9
$PLINEGEN
 70
     0
  9
$PSLTSCALE
 70
     0
  0
ENDSEC
  0
SECTION
  2
TABLES
  0
TABLE
  2
VPORT
 70
     2
  0
VPORT
  2
*ACTIVE
 70
     0
 10
0.0
 20
0.0
 11
1.0
 21
1.0
 12
89.223229
 22
344.359462
 13
0.0
 23
0.0
 14
1.0
 24
1.0
 15
50.0
 25
50.0
 16
0.0
 26
0.0
 36
1.0
 17
0.0
 27
0.0
 37
0.0
 40
713.115776
 41
1.865779
 42
50.0
 43
0.0
 44
0.0
 50
0.0
 51
0.0
 71
     0
 72
   100
 73
     1
 74
     1
 75
     0
 76
     0
 77
     0
 78
     0
  0
ENDTAB
  0
TABLE
  2
LTYPE
 70
     3
  0
LTYPE
  2
CONTINUOUS
 70
     0
  3
Solid Line
 72
    65
 73
     0
 40
0.0
  0
LTYPE
  2
31
 70
     0
  3

 72
    65
 73
     4
 40
2.1
 49
1.5
 49
-0.3
 49
0.0
 49
-0.3
  0
LTYPE
  2
22
 70
     0
  3

 72
    65
 73
     2
 40
1.4
 49
1.2
 49
-0.2
  0
ENDTAB
  0
TABLE
  2
LAYER
 70
     9
  0
LAYER
  2
0
 70
     0
 62
     7
  6
CONTINUOUS
  0
LAYER
  2
DEFPOINTS
 70
     0
 62
     7
  6
CONTINUOUS
  0
LAYER
  2
TEAM-BODY
 70
     0
 62
     2
  6
CONTINUOUS
  0
LAYER
  2
TEAM-AXE
 70
     0
 62
    10
  6
31
  0
LAYER
  2
TEAM-MAS
 70
     0
 62
     9
  6
CONTINUOUS
  0
LAYER
  2
TEAM-TXT
 70
     0
 62
    11
  6
CONTINUOUS
  0
LAYER
  2
TEAM-HIDE
 70
     0
 62
     8
  6
22
  0
LAYER
  2
TEAM-KAN
 70
     0
 62
     6
  6
CONTINUOUS
  0
LAYER
  2
TEAM-INSP
 70
     0
 62
     5
  6
CONTINUOUS
  0
ENDTAB
  0
TABLE
  2
STYLE
 70
     2
  0
STYLE
  2
STANDARD
 70
     0
 40
0.0
 41
1.0
 50
0.0
 71
     0
 42
200.0
  3
txt
  4

  0
STYLE
  2
TEAM
 70
     0
 40
0.0
 41
0.8
 50
15.0
 71
     0
 42
7.0
  3
ROMANS.shx
  4

  0
ENDTAB
  0
TABLE
  2
VIEW
 70
     0
  0
ENDTAB
  0
TABLE
  2
UCS
 70
     0
  0
ENDTAB
  0
TABLE
  2
APPID
 70
     1
  0
APPID
  2
ACAD
 70
     0
  0
ENDTAB
  0
TABLE
  2
DIMSTYLE
 70
     1
  0
DIMSTYLE
  2
TEAM
 70
     0
  3

  4

  5

  6

  7

 40
0.0
 41
20.0
 42
10.0
 43
1.0
 44
1.0
 45
0.0
 46
0.0
 47
0.0
 48
0.0
140
35.0
141
1.0
142
0.0
143
25.4
144
1.0
145
0.0
146
1.0
147
15.0
 71
     0
 72
     0
 73
     0
 74
     0
 75
     0
 76
     0
 77
     0
 78
     0
170
     0
171
     2
172
     0
173
     0
174
     0
175
     0
176
     9
177
     9
178
    11
  0
ENDTAB
  0
ENDSEC
  0
SECTION
  2
BLOCKS
  0
BLOCK
  8
0
  2
$MODEL_SPACE
 70
     0
 10
0.0
 20
0.0
 30
0.0
  3
$MODEL_SPACE
  1

  0
ENDBLK
  5
10E
  8
0
  0
BLOCK
 67
     1
  8
0
  2
$PAPER_SPACE
 70
     0
 10
0.0
 20
0.0
 30
0.0
  3
$PAPER_SPACE
  1

  0
ENDBLK
  5
10C
 67
     1
  8
0
  0
BLOCK
  8
0
  2
*D0
 70
     1
 10
0.0
 20
0.0
 30
0.0
  3
*D0
  1

  0
LINE
  5
43
  8
0
  6
BYBLOCK
 62
     9
 10
8375.000006
 20
52604.0
 30
0.0
 11
8375.000006
 21
52683.94658
 31
0.0
  0
LINE
  5
44
  8
0
  6
BYBLOCK
 62
     9
 10
7624.999994
 20
52604.0
 30
0.0
 11
7624.999994
 21
52683.94658
 31
0.0
  0
LINE
  5
45
  8
0
  6
BYBLOCK
 62
     9
 10
8355.000006
 20
52682.94658
 30
0.0
 11
8046.51378
 21
52682.94658
 31
0.0
  0
LINE
  5
46
  8
0
  6
BYBLOCK
 62
     9
 10
7644.999994
 20
52682.94658
 30
0.0
 11
7953.48622
 21
52682.94658
 31
0.0
  0
SOLID
  5
47
  8
0
  6
BYBLOCK
 62
     9
 10
8355.000006
 20
52686.279913
 30
0.0
 11
8355.000006
 21
52679.613247
 31
0.0
 12
8375.000006
 22
52682.94658
 32
0.0
 13
8375.000006
 23
52682.94658
 33
0.0
  0
SOLID
  5
48
  8
0
  6
BYBLOCK
 62
     9
 10
7644.999994
 20
52686.279913
 30
0.0
 11
7644.999994
 21
52679.613247
 31
0.0
 12
7624.999994
 22
52682.94658
 32
0.0
 13
7624.999994
 23
52682.94658
 33
0.0
  0
TEXT
  5
49
  8
0
  6
BYBLOCK
 62
    11
 10
7963.23622
 20
52665.44658
 30
0.0
 40
35.0
  1
750
  0
POINT
  5
4A
  8
DEFPOINTS
  6
BYBLOCK
 62
     0
 10
8375.000006
 20
52594.0
 30
0.0
  0
POINT
  5
4B
  8
DEFPOINTS
  6
BYBLOCK
 62
     0
 10
7624.999994
 20
52594.0
 30
0.0
  0
POINT
  5
4C
  8
DEFPOINTS
  6
BYBLOCK
 62
     0
 10
7624.999994
 20
52682.94658
 30
0.0
  0
ENDBLK
  5
4E
  8
0
  0
BLOCK
  8
0
  2
*D1
 70
     1
 10
0.0
 20
0.0
 30
0.0
  3
*D1
  1

  0
LINE
  5
31
  8
0
  6
BYBLOCK
 62
     9
 10
8379.000006
 20
52600.0
 30
0.0
 11
8459.199263
 21
52600.0
 31
0.0
  0
LINE
  5
32
  8
0
  6
BYBLOCK
 62
     9
 10
8010.0
 20
52099.699994
 30
0.0
 11
8459.199263
 21
52099.699994
 31
0.0
  0
LINE
  5
33
  8
0
  6
BYBLOCK
 62
     9
 10
8458.199263
 20
52580.0
 30
0.0
 11
8458.199263
 21
52396.363776
 31
0.0
  0
LINE
  5
34
  8
0
  6
BYBLOCK
 62
     9
 10
8458.199263
 20
52119.699994
 30
0.0
 11
8458.199263
 21
52303.336217
 31
0.0
  0
SOLID
  5
35
  8
0
  6
BYBLOCK
 62
     9
 10
8454.86593
 20
52580.0
 30
0.0
 11
8461.532596
 21
52580.0
 31
0.0
 12
8458.199263
 22
52600.0
 32
0.0
 13
8458.199263
 23
52600.0
 33
0.0
  0
SOLID
  5
36
  8
0
  6
BYBLOCK
 62
     9
 10
8454.86593
 20
52119.699994
 30
0.0
 11
8461.532596
 21
52119.699994
 31
0.0
 12
8458.199263
 22
52099.699994
 32
0.0
 13
8458.199263
 23
52099.699994
 33
0.0
  0
TEXT
  5
37
  8
0
  6
BYBLOCK
 62
    11
 10
8475.699263
 20
52313.086217
 30
0.0
 40
35.0
  1
500
 50
90.0
  0
POINT
  5
38
  8
DEFPOINTS
  6
BYBLOCK
 62
     0
 10
8369.000006
 20
52600.0
 30
0.0
  0
POINT
  5
39
  8
DEFPOINTS
  6
BYBLOCK
 62
     0
 10
8000.0
 20
52099.699994
 30
0.0
  0
POINT
  5
3A
  8
DEFPOINTS
  6
BYBLOCK
 62
     0
 10
8458.199263
 20
52099.699994
 30
0.0
  0
ENDBLK
  5
3C
  8
0
  0
BLOCK
  8
0
  2
*D2
 70
     1
 10
0.0
 20
0.0
 30
0.0
  3
*D2
  1

  0
LINE
  5
22
  8
0
  6
BYBLOCK
 62
     9
 10
8379.000006
 20
52600.0
 30
0.0
 11
8539.91641
 21
52600.0
 31
0.0
  0
LINE
  5
23
  8
0
  6
BYBLOCK
 62
     9
 10
8010.0
 20
52000.0
 30
0.0
 11
8539.91641
 21
52000.0
 31
0.0
  0
LINE
  5
24
  8
0
  6
BYBLOCK
 62
     9
 10
8538.91641
 20
52580.0
 30
0.0
 11
8538.91641
 21
52347.561024
 31
0.0
  0
LINE
  5
25
  8
0
  6
BYBLOCK
 62
     9
 10
8538.91641
 20
52020.0
 30
0.0
 11
8538.91641
 21
52252.438976
 31
0.0
  0
SOLID
  5
26
  8
0
  6
BYBLOCK
 62
     9
 10
8535.583077
 20
52580.0
 30
0.0
 11
8542.249743
 21
52580.0
 31
0.0
 12
8538.91641
 22
52600.0
 32
0.0
 13
8538.91641
 23
52600.0
 33
0.0
  0
SOLID
  5
27
  8
0
  6
BYBLOCK
 62
     9
 10
8535.583077
 20
52020.0
 30
0.0
 11
8542.249743
 21
52020.0
 31
0.0
 12
8538.91641
 22
52000.0
 32
0.0
 13
8538.91641
 23
52000.0
 33
0.0
  0
TEXT
  5
28
  8
0
  6
BYBLOCK
 62
    11
 10
8556.41641
 20
52264.283465
 30
0.0
 40
35.0
  1
600
 50
90.0
  0
POINT
  5
29
  8
DEFPOINTS
  6
BYBLOCK
 62
     0
 10
8369.000006
 20
52600.0
 30
0.0
  0
POINT
  5
2B
  8
DEFPOINTS
  6
BYBLOCK
 62
     0
 10
8000.0
 20
52000.0
 30
0.0
  0
POINT
  5
2C
  8
DEFPOINTS
  6
BYBLOCK
 62
     0
 10
8538.91641
 20
52000.0
 30
0.0
  0
ENDBLK
  5
2E
  8
0
  0
ENDSEC
  0
SECTION
  2
ENTITIES
  0
DIMENSION
  5
20
  8
TEAM-MAS
  2
*D2
 10
538.91641
 20
0.0
 30
0.0
 11
538.91641
 21
300.0
 31
0.0
 12
-8000.0
 22
-52000.0
 32
0.0
 13
369.000006
 23
600.0
 33
0.0
 14
0.0
 24
0.0
 34
0.0
 50
90.0
1001
ACAD
1000
DSTYLE
1002
{
1070
    78
1070
     0
1070
    40
1040
1.0
1002
}
  0
DIMENSION
  5
2F
  8
TEAM-MAS
  2
*D1
 10
458.199263
 20
99.699994
 30
0.0
 11
458.199263
 21
349.849997
 31
0.0
 12
-8000.0
 22
-52000.0
 32
0.0
 13
369.000006
 23
600.0
 33
0.0
 14
0.0
 24
99.699994
 34
0.0
 50
90.0
1001
ACAD
1000
DSTYLE
1002
{
1070
    40
1040
1.0
1002
}
  0
LINE
  5
3D
  8
TEAM-BODY
 10
0.0
 20
99.699994
 30
0.0
 11
228.58349
 21
109.843632
 31
0.0
  0
LINE
  5
3F
  8
TEAM-BODY
 10
375.000006
 20
500.0
 30
0.0
 11
-375.000006
 21
500.0
 31
0.0
  0
LINE
  5
40
  8
TEAM-BODY
 10
-369.000006
 20
600.0
 30
0.0
 11
369.000006
 21
600.0
 31
0.0
  0
DIMENSION
  5
41
  8
TEAM-MAS
  2
*D0
 10
-375.000006
 20
682.94658
 30
0.0
 11
0.0
 21
682.94658
 31
0.0
 12
-8000.0
 22
-52000.0
 32
0.0
 13
375.000006
 23
594.0
 33
0.0
 14
-375.000006
 24
594.0
 34
0.0
1001
ACAD
1000
DSTYLE
1002
{
1070
    40
1040
1.0
1002
}
  0
LINE
  5
4F
  8
TEAM-AXE
 10
0.0
 20
68.58045
 30
0.0
 11
0.0
 21
122.067006
 31
0.0
  0
CIRCLE
  5
52
  8
TEAM-INSP
 10
0.0
 20
0.0
 30
0.0
 40
10.0
  0
ARC
  5
54
  8
TEAM-KAN
 10
57.474113
 20
86.725433
 30
0.0
 40
21.845969
 50
137.309206
 51
164.446202
  0
ARC
  5
56
  8
TEAM-KAN
 10
56.105581
 20
86.947799
 30
0.0
 40
23.356038
 50
141.852157
 51
161.886233
  0
ARC
  5
57
  8
TEAM-KAN
 10
-57.474113
 20
86.725433
 30
0.0
 40
21.845969
 50
15.553798
 51
42.632795
  0
ARC
  5
58
  8
TEAM-KAN
 10
-56.105581
 20
86.947799
 30
0.0
 40
23.356038
 50
18.113767
 51
38.101924
  0
LINE
  5
59
  8
TEAM-KAN
 10
26.33
 20
88.922847
 30
0.0
 11
26.33
 21
91.922847
 31
0.0
  0
ARC
  5
5A
  8
TEAM-KAN
 10
29.7
 20
96.922847
 30
0.0
 40
8.0
 50
270.0
 51
327.179
  0
ARC
  5
5B
  8
TEAM-KAN
 10
29.7
 20
96.922847
 30
0.0
 40
5.0
 50
270.0
 51
327.1787
  0
ARC
  5
5C
  8
TEAM-KAN
 10
-29.7
 20
96.922847
 30
0.0
 40
5.0
 50
212.8213
 51
270.0
  0
ARC
  5
5D
  8
TEAM-KAN
 10
-29.7
 20
96.922847
 30
0.0
 40
8.0
 50
212.821
 51
270.0
  0
LINE
  5
5E
  8
TEAM-KAN
 10
29.69
 20
88.922847
 30
0.0
 11
-29.7
 21
88.922847
 31
0.0
  0
LINE
  5
5F
  8
TEAM-KAN
 10
29.69
 20
91.922847
 30
0.0
 11
-29.7
 21
91.922847
 31
0.0
  0
LINE
  5
60
  8
TEAM-KAN
 10
-26.33
 20
88.922847
 30
0.0
 11
-26.33
 21
91.922847
 31
0.0
  0
ARC
  5
61
  8
TEAM-BODY
 10
-223.680965
 20
119.699994
 30
0.0
 40
10.0
 50
172.782234
 51
270.0
  0
ARC
  5
62
  8
TEAM-BODY
 10
-1355.59587
 20
116.6372
 30
0.0
 40
1122.002461
 50
0.220563
 51
19.979099
  0
ARC
  5
63
  8
TEAM-HIDE
 10
-1355.631352
 20
127.255942
 30
0.0
 40
1118.452256
 50
19.467235
 51
25.003714
  0
LINE
  5
66
  8
TEAM-BODY
 10
-375.000006
 20
594.0
 30
0.0
 11
-375.000006
 21
500.0
 31
0.0
  0
ARC
  5
67
  8
TEAM-BODY
 10
-369.000006
 20
594.0
 30
0.0
 40
6.0
 50
90.0
 51
180.0
  0
LINE
  5
68
  8
TEAM-BODY
 10
0.0
 20
99.699994
 30
0.0
 11
-223.680965
 21
109.699994
 31
0.0
  0
TEXT
  5
69
  8
TEAM-TXT
 10
-289.687372
 20
515.75601
 30
0.0
 40
30.0
  1
team 121726
 41
0.8
 51
15.0
  7
TEAM
  0
ARC
  5
6C
  8
TEAM-HIDE
 10
1334.868728
 20
133.506384
 30
0.0
 40
1096.997991
 50
154.833787
 51
160.482925
  0
ARC
  5
6D
  8
TEAM-BODY
 10
1334.868728
 20
133.506384
 30
0.0
 40
1096.997991
 50
160.482925
 51
180.603674
  0
LINE
  5
6E
  8
TEAM-BODY
 10
375.000006
 20
594.0
 30
0.0
 11
375.000006
 21
500.0
 31
0.0
  0
ARC
  5
6F
  8
TEAM-BODY
 10
228.157618
 20
119.834559
 30
0.0
 40
10.0
 50
272.440802
 51
12.204134
  0
ARC
  5
70
  8
TEAM-BODY
 10
369.000006
 20
594.0
 30
0.0
 40
6.0
 50
0.0
 51
90.0
  0
ENDSEC
  0
EOF
